osu file format v13

[General]
AudioFilename: 09. Akatsuki No Tsuki.mp3
AudioLeadIn: 2000
PreviewTime: 117908
Countdown: 0
SampleSet: Soft
StackLeniency: 0.7
Mode: 0
LetterboxInBreaks: 0
WidescreenStoryboard: 0

[Editor]
Bookmarks: 11545,22454,33363,44272,55181,66090,76999,87908,98817,109726,116545,120636,131545,142454,153363,164272,175181,186090,196999,207908,211403,213363,224272,229726,235181
DistanceSpacing: 1.2
BeatDivisor: 4
GridSize: 4
TimelineZoom: 2.5

[Metadata]
Title:Akatsuki no Tsuki
TitleUnicode:暁ノ月
Artist:void feat. Komatsuna
ArtistUnicode:void feat. 小松菜
Creator:Cherry Blossom
Version:Hyper
Source:
Tags:remind a locus samurai DANCEHALL electro planet mournfinale frey nozhomi kin amamiya yuko skystar
BeatmapID:533147
BeatmapSetID:212387

[Difficulty]
HPDrainRate:5
CircleSize:4
OverallDifficulty:6
ApproachRate:7.5
SliderMultiplier:1.5
SliderTickRate:1

[Events]
//Background and Video events
0,0,"antbg.jpg",0,0
//Break Periods
2,77199,85720
2,164472,168901
//Storyboard Layer 0 (Background)
//Storyboard Layer 1 (Fail)
//Storyboard Layer 2 (Pass)
//Storyboard Layer 3 (Foreground)
//Storyboard Sound Samples
//Background Colour Transformations
3,100,163,162,255

[TimingPoints]
636,340.909090909091,4,2,2,60,1,0
636,-133.333333333333,4,2,2,60,0,0
11545,-100,4,2,3,60,0,0
21772,-100,4,2,1,60,0,0
22454,-100,4,2,3,100,0,0
22539,-100,4,2,3,60,0,0
53817,-100,4,2,1,100,0,0
53903,-100,4,2,1,70,0,0
55181,-86.9565217391304,4,2,5,100,0,1
55266,-86.9565217391304,4,2,1,70,0,1
66005,-86.9565217391304,4,2,1,70,0,0
66090,-86.9565217391304,4,2,0,70,0,1
66175,-86.9565217391304,4,2,1,70,0,1
76999,-86.9565217391304,4,2,1,70,0,0
86545,-100,4,2,1,60,0,0
87908,-100,4,2,3,60,0,0
119272,-100,4,2,1,100,0,0
119357,-100,4,2,1,70,0,0
120636,-86.9565217391304,4,2,5,100,0,1
120721,-86.9565217391304,4,2,1,70,0,1
131459,-86.9565217391304,4,2,1,70,0,0
131545,-86.9565217391304,4,2,0,70,0,1
131630,-86.9565217391304,4,2,1,70,0,1
142454,-133.333333333333,4,2,2,60,0,0
152681,-100,4,2,3,60,0,0
156175,-100,4,2,0,60,0,0
158817,-100,4,2,3,60,0,0
161630,-100,4,2,0,60,0,0
162908,-100,4,2,1,60,0,0
164272,-100,4,2,5,100,0,0
169726,-100,4,2,3,60,0,0
179783,-100,4,2,1,60,0,0
180636,-100,4,2,3,60,0,0
185408,-100,4,2,5,100,0,0
185493,-100,4,2,3,60,0,0
186090,-86.9565217391304,4,2,5,100,0,1
186175,-86.9565217391304,4,2,1,70,0,1
196999,-133.333333333333,4,2,5,100,0,0
197084,-133.333333333333,4,2,1,70,0,0
197340,-86.9565217391304,4,2,5,100,0,1
197425,-86.9565217391304,4,2,1,70,0,1
207226,-86.9565217391304,4,2,3,70,0,1
213363,-100,4,2,5,100,0,0
213448,-100,4,2,1,60,0,0
223590,-100,4,2,3,60,0,0
224272,-133.333333333333,4,2,1,60,0,0
229897,-133.333333333333,4,2,1,30,0,0
237908,-133.333333333333,4,2,1,100,0,0

[Colours]
Combo1 : 255,101,9
Combo2 : 244,0,67
Combo3 : 244,189,0
Combo4 : 232,36,173

[HitObjects]
108,80,636,6,0,P|160:88|220:80,1,112.500004291535,4|2,0:0|0:0,0:0:0:0:
296,44,1147,2,0,P|351:36|407:44,1,112.500004291535,4|0,0:0|0:0,0:0:0:0:
480,88,1658,1,4,0:0:0:0:
480,88,1999,6,0,L|476:160,2,56.2500021457673,0|2|0,0:0|0:0|0:0,0:0:0:0:
508,256,2681,2,0,L|384:248,1,112.500004291535,0|4,0:0|0:0,0:0:0:0:
256,344,3363,6,0,L|132:336,1,112.500004291535,4|0,0:0|0:0,0:0:0:0:
60,316,3874,2,0,P|48:264|60:204,1,112.500004291535,4|0,0:0|0:0,0:0:0:0:
96,132,4386,2,0,L|172:128,1,56.2500021457673,4|0,0:0|0:0,0:0:0:0:
232,100,4726,6,0,P|236:128|232:160,2,56.2500021457673,0|2|0,0:0|0:0|0:0,0:0:0:0:
196,24,5238,2,0,L|324:20,1,112.500004291535,0|0,0:0|0:0,0:0:0:0:
392,24,5749,2,0,P|396:52|392:80,1,56.2500021457673,4|4,0:0|0:0,0:0:0:0:
328,136,6090,6,0,P|316:192|328:244,1,112.500004291535,4|2,0:0|0:0,0:0:0:0:
360,324,6601,2,0,L|484:320,1,112.500004291535,4|0,0:0|0:0,0:0:0:0:
504,240,7113,1,4,0:0:0:0:
504,240,7454,6,0,L|508:168,1,56.2500021457673,0|2,0:0|0:0,0:0:0:0:
428,152,7795,2,0,L|424:208,1,56.2500021457673,0|0,0:0|0:0,0:0:0:0:
344,184,8136,2,0,L|348:112,1,56.2500021457673,0|0,0:0|0:0,0:0:0:0:
268,96,8476,2,0,L|264:152,1,56.2500021457673,4|0,0:0|0:0,0:0:0:0:
256,236,8817,5,0,0:0:0:0:
256,192,8903,12,4,10863,0:0:0:0:
256,76,11545,6,0,L|352:72,1,75,4|0,0:0|0:0,0:0:0:0:
412,36,11886,2,0,P|420:76|412:112,1,75,8|0,0:0|0:0,0:0:0:0:
340,164,12226,2,0,P|332:204|340:240,1,75,2|0,0:0|0:0,0:0:0:0:
408,296,12567,2,0,L|504:292,1,75,8|0,0:0|0:0,0:0:0:0:
352,364,12908,6,0,L|184:356,1,150,2|8,0:0|0:0,0:0:0:0:
120,320,13420,1,0,0:0:0:0:
40,280,13590,2,0,P|32:316|40:356,1,75,2|0,0:0|0:0,0:0:0:0:
120,232,13931,2,0,P|128:196|120:156,1,75,8|0,0:0|0:0,0:0:0:0:
76,80,14272,6,0,L|236:76,1,150,2|8,0:0|0:0,0:0:0:0:
316,80,14783,1,0,0:0:0:0:
404,104,14954,2,0,P|424:172|404:248,1,150,2|8,0:0|0:0,0:0:0:0:
256,348,15636,6,0,L|176:344,2,75,2|0|8,0:0|0:0|0:0,0:0:0:0:
340,320,16147,1,0,0:0:0:0:
420,280,16317,2,0,P|428:320|420:356,1,75,2|0,0:0|0:0,0:0:0:0:
288,248,16658,2,0,P|280:212|288:172,1,75,8|0,0:0|0:0,0:0:0:0:
320,92,16999,6,0,P|284:100|244:92,1,75,2|0,0:0|0:0,0:0:0:0:
168,52,17340,2,0,P|92:40|36:80,1,150,8|2,0:0|0:0,0:0:0:0:
36,172,17851,1,0,0:0:0:0:
120,208,18022,2,0,P|128:172|116:128,1,75,8|0,0:0|0:0,0:0:0:0:
8,256,18363,6,0,P|0:292|8:332,1,75,2|0,0:0|0:0,0:0:0:0:
92,360,18704,2,0,L|176:356,1,75,8|0,0:0|0:0,0:0:0:0:
248,316,19045,2,0,P|256:280|248:240,1,75,2|0,0:0|0:0,0:0:0:0:
168,200,19386,2,0,P|161:236|169:273,1,75,8|0,0:0|0:0,0:0:0:0:
328,360,19726,6,0,L|408:356,1,75,2|0,0:0|0:0,0:0:0:0:
456,284,20067,1,8,0:0:0:0:
456,284,20238,1,0,0:0:0:0:
500,208,20408,6,0,L|420:204,1,75,2|0,0:0|0:0,0:0:0:0:
372,132,20749,1,8,0:0:0:0:
372,132,20920,1,0,0:0:0:0:
308,68,21090,6,0,L|264:64,3,37.5,2|2|2|2,0:0|0:0|0:0|0:0,0:0:0:0:
256,48,21431,2,0,L|212:44,3,37.5,2|2|2|2,0:0|0:0|0:0|0:0,0:0:0:0:
200,32,21772,6,0,P|164:24|124:32,1,75,2|2,0:0|0:0,0:0:0:0:
164,128,22113,2,0,P|200:136|240:128,1,75,2|2,0:0|0:0,0:0:0:0:
56,112,22454,6,0,L|64:284,1,150,4|8,0:0|0:0,0:0:0:0:
92,348,22965,2,0,P|160:364|240:352,1,150,0|2,0:0|0:0,0:0:0:0:
300,284,23476,2,0,P|336:276|376:284,1,75,8|0,0:0|0:0,0:0:0:0:
484,332,23817,6,0,L|488:232,1,75,2|2,0:0|0:0,0:0:0:0:
488,168,24158,1,8,0:0:0:0:
488,168,24329,1,0,0:0:0:0:
408,208,24499,2,0,P|372:216|332:208,1,75,0|2,0:0|0:0,0:0:0:0:
300,124,24840,2,0,P|336:116|376:124,1,75,8|0,0:0|0:0,0:0:0:0:
248,248,25181,6,0,L|88:240,1,150,2|8,0:0|0:0,0:0:0:0:
20,196,25692,2,0,P|0:120|20:52,1,150,0|2,0:0|0:0,0:0:0:0:
104,24,26204,2,0,L|184:20,1,75,8|0,0:0|0:0,0:0:0:0:
256,68,26545,5,2,0:0:0:0:
256,68,26715,1,2,0:0:0:0:
340,32,26886,2,0,P|348:68|340:104,1,75,8|0,0:0|0:0,0:0:0:0:
268,156,27226,2,0,L|184:152,1,75,0|2,0:0|0:0,0:0:0:0:
328,224,27567,2,0,L|412:220,1,75,8|2,0:0|0:0,0:0:0:0:
468,152,27908,6,0,P|496:216|468:288,1,150,2|8,0:0|0:0,0:0:0:0:
400,348,28420,2,0,L|236:336,1,150,0|2,0:0|0:0,0:0:0:0:
172,296,28931,2,0,P|164:336|172:376,1,75,8|0,0:0|0:0,0:0:0:0:
212,216,29272,6,0,P|172:208|132:216,1,75,2|2,0:0|0:0,0:0:0:0:
64,260,29613,2,0,L|56:108,1,150,8|0,0:0|0:0,0:0:0:0:
52,20,30124,1,2,0:0:0:0:
132,64,30295,2,0,P|168:68|208:64,1,75,8|0,0:0|0:0,0:0:0:0:
328,28,30636,6,0,P|396:24|456:76,1,150,2|8,0:0|0:0,0:0:0:0:
452,164,31147,2,0,L|448:320,1,150,0|2,0:0|0:0,0:0:0:0:
364,280,31658,2,0,L|368:184,1,75,8|0,0:0|0:0,0:0:0:0:
324,124,31999,5,2,0:0:0:0:
324,124,32170,1,2,0:0:0:0:
256,184,32340,1,8,0:0:0:0:
256,184,32511,1,0,0:0:0:0:
464,32,32851,2,0,L|468:116,1,75,2|0,0:0|0:0,0:0:0:0:
472,196,33192,1,8,0:0:0:0:
444,280,33363,6,0,P|376:304|304:280,1,150,4|8,0:0|0:0,0:0:0:0:
256,204,33874,2,0,L|256:156,2,37.5,0|0|0,0:0|0:0|0:0,0:0:0:0:
208,280,34215,1,2,0:0:0:0:
128,240,34386,2,0,L|40:232,1,75,8|0,0:0|0:0,0:0:0:0:
172,360,34726,6,0,P|208:368|248:360,1,75,2|2,0:0|0:0,0:0:0:0:
324,320,35067,2,0,P|360:312|396:320,1,75,8|0,0:0|0:0,0:0:0:0:
408,328,35323,1,0,0:0:0:0:
420,336,35408,2,0,L|424:232,1,75,0|2,0:0|0:0,0:0:0:0:
456,176,35749,2,0,P|420:184|384:176,1,75,8|0,0:0|0:0,0:0:0:0:
292,88,36090,6,0,L|288:256,1,150,2|8,0:0|0:0,0:0:0:0:
288,328,36601,2,0,L|332:324,2,37.5,0|0|0,0:0|0:0|0:0,0:0:0:0:
208,284,36942,1,2,0:0:0:0:
168,364,37113,2,0,L|68:356,1,75,8|0,0:0|0:0,0:0:0:0:
48,244,37454,6,0,L|148:236,1,75,2|2,0:0|0:0,0:0:0:0:
192,180,37795,2,0,P|200:144|192:108,1,75,8|0,0:0|0:0,0:0:0:0:
184,92,38050,1,0,0:0:0:0:
176,80,38136,2,0,L|268:72,1,75,0|2,0:0|0:0,0:0:0:0:
340,64,38476,1,8,0:0:0:0:
428,76,38647,1,2,0:0:0:0:
492,140,38817,6,0,P|508:216|492:288,1,150,2|8,0:0|0:0,0:0:0:0:
412,328,39329,1,0,0:0:0:0:
412,328,39414,1,0,0:0:0:0:
412,328,39499,2,0,P|376:336|340:328,1,75,0|2,0:0|0:0,0:0:0:0:
304,244,39840,2,0,P|340:236|376:244,1,75,8|0,0:0|0:0,0:0:0:0:
248,348,40181,6,0,L|164:340,1,75,2|2,0:0|0:0,0:0:0:0:
104,280,40522,1,8,0:0:0:0:
16,304,40692,1,0,0:0:0:0:
16,304,40778,1,0,0:0:0:0:
16,304,40863,2,0,L|16:212,1,75,0|2,0:0|0:0,0:0:0:0:
104,204,41204,2,0,L|104:279,1,75,8|0,0:0|0:0,0:0:0:0:
36,124,41545,6,0,P|104:100|176:124,1,150,2|8,0:0|0:0,0:0:0:0:
248,180,42056,2,0,L|240:344,1,150,0|2,0:0|0:0,0:0:0:0:
324,364,42567,2,0,P|360:372|396:364,1,75,8|0,0:0|0:0,0:0:0:0:
468,312,42908,5,2,0:0:0:0:
404,248,43079,1,2,0:0:0:0:
464,180,43249,2,0,L|468:88,1,75,8|0,0:0|0:0,0:0:0:0:
416,32,43590,2,0,P|380:24|344:32,1,75,2|0,0:0|0:0,0:0:0:0:
332,44,43846,1,2,0:0:0:0:
324,56,43931,2,0,L|332:160,1,75,0|2,0:0|0:0,0:0:0:0:
328,260,44272,6,0,P|256:280|184:260,1,150,4|8,0:0|0:0,0:0:0:0:
144,180,44783,1,0,0:0:0:0:
144,180,44868,1,0,0:0:0:0:
144,180,44954,2,0,P|184:172|220:180,1,75,0|2,0:0|0:0,0:0:0:0:
100,256,45295,2,0,P|60:264|24:256,1,75,8|0,0:0|0:0,0:0:0:0:
108,104,45636,6,0,P|180:88|256:104,1,150,2|8,0:0|0:0,0:0:0:0:
320,164,46147,1,0,0:0:0:0:
320,164,46232,1,0,0:0:0:0:
320,164,46317,1,0,0:0:0:0:
392,112,46488,1,2,0:0:0:0:
468,164,46658,2,0,L|464:256,1,75,8|0,0:0|0:0,0:0:0:0:
404,352,46999,6,0,P|368:356|324:348,1,75,2|0,0:0|0:0,0:0:0:0:
256,296,47340,2,0,P|219:289|181:293,1,75,8|0,0:0|0:0,0:0:0:0:
168,304,47596,1,0,0:0:0:0:
156,312,47681,2,0,L|152:224,1,75,0|2,0:0|0:0,0:0:0:0:
188,156,48022,2,0,P|152:164|112:156,1,75,8|0,0:0|0:0,0:0:0:0:
76,36,48363,6,0,P|148:16|220:32,1,150,2|8,0:0|0:0,0:0:0:0:
288,92,48874,1,2,0:0:0:0:
288,92,48959,1,0,0:0:0:0:
288,92,49045,1,0,0:0:0:0:
360,36,49215,1,8,0:0:0:0:
376,124,49386,1,0,0:0:0:0:
452,72,49556,5,0,0:0:0:0:
452,72,49641,1,0,0:0:0:0:
452,72,49726,2,0,L|448:232,1,150,12|2,0:0|0:0,0:0:0:0:
440,312,50238,2,0,P|368:328|292:308,1,150,8|2,0:0|0:0,0:0:0:0:
216,264,50749,2,0,P|180:256|144:264,1,75,8|0,0:0|0:0,0:0:0:0:
64,308,51090,6,0,L|64:152,1,150,8|2,0:0|0:0,0:0:0:0:
64,68,51601,2,0,P|136:52|212:68,1,150,8|2,0:0|0:0,0:0:0:0:
264,140,52113,2,0,L|260:228,1,75,8|0,0:0|0:0,0:0:0:0:
256,304,52454,5,4,0:0:0:0:
256,304,52624,1,2,0:0:0:0:
340,268,52795,2,0,P|348:308|340:348,1,75,2|2,0:0|0:0,0:0:0:0:
169,341,53136,2,0,P|164:304|172:268,1,75,6|0,0:0|0:0,0:0:0:0:
180,256,53391,1,6,0:0:0:0:
188,244,53476,2,0,L|100:240,1,75
48,132,53817,6,0,L|136:128,1,75,4|2,0:0|0:0,0:0:0:0:
180,60,54158,1,2,0:0:0:0:
180,60,54329,1,2,0:0:0:0:
256,112,54499,2,0,P|274:115|296:112,3,37.5,2|0|2|0,0:0|0:0|0:0|0:0,0:0:0:0:
316,104,54840,2,0,P|352:96|388:104,1,75,2|2,0:0|0:0,0:0:0:0:
508,156,55181,6,0,L|500:340,1,172.500003290176,6|8,0:0|0:0,0:0:0:0:
400,352,55692,2,0,P|316:368|244:312,1,172.500003290176,2|6,0:0|0:0,0:0:0:0:
204,228,56204,2,0,P|244:216|288:228,1,86.2500016450882,8|2,0:0|0:0,0:0:0:0:
160,364,56545,6,0,L|68:360,1,86.2500016450882,4|2,0:0|0:0,0:0:0:0:
24,268,56886,2,0,L|116:264,1,86.2500016450882,8|2,0:0|0:0,0:0:0:0:
204,228,57226,2,0,P|212:184|204:144,1,86.2500016450882,2|6,0:0|0:0,0:0:0:0:
160,48,57567,2,0,P|200:56|248:48,1,86.2500016450882,8|2,0:0|0:0,0:0:0:0:
388,20,57908,6,0,P|468:40|504:120,1,172.500003290176,4|8,0:0|0:0,0:0:0:0:
484,220,58420,1,2,0:0:0:0:
388,260,58590,2,0,P|376:220|388:176,1,86.2500016450882,0|6,0:0|0:0,0:0:0:0:
432,348,58931,2,0,P|392:360|348:348,1,86.2500016450882,8|2,0:0|0:0,0:0:0:0:
256,308,59272,6,0,P|212:300|172:308,1,86.2500016450882,4|2,0:0|0:0,0:0:0:0:
80,360,59613,1,8,0:0:0:0:
32,272,59783,1,2,0:0:0:0:
32,272,59868,1,0,0:0:0:0:
32,272,59954,1,2,0:0:0:0:
120,220,60124,1,6,0:0:0:0:
32,160,60295,2,0,P|24:116|32:72,1,86.2500016450882,14|6,0:0|0:0,0:0:0:0:
168,28,60636,6,0,L|344:32,1,172.500003290176,4|8,0:0|0:0,0:0:0:0:
444,44,61147,2,0,P|472:116|444:208,1,172.500003290176,2|6,0:0|0:0,0:0:0:0:
396,296,61658,2,0,P|440:304|484:296,1,86.2500016450882,8|2,0:0|0:0,0:0:0:0:
356,160,61999,6,0,P|275:134|192:160,1,172.500003290176,4|8,0:0|0:0,0:0:0:0:
132,240,62511,2,0,L|136:340,2,86.2500016450882,2|0|6,0:0|0:0|0:0,0:0:0:0:
52,176,63022,1,8,0:0:0:0:
52,176,63192,1,2,0:0:0:0:
124,100,63363,6,0,P|164:108|208:100,1,86.2500016450882,6|0,0:0|0:0,0:0:0:0:
304,64,63704,2,0,P|348:56|392:64,1,86.2500016450882,8|2,0:0|0:0,0:0:0:0:
484,104,64045,2,0,L|480:208,1,86.2500016450882,0|6,0:0|0:0,0:0:0:0:
476,292,64386,1,8,0:0:0:0:
476,292,64556,1,2,0:0:0:0:
392,348,64726,6,0,P|348:356|308:348,1,86.2500016450882,2|0,0:0|0:0,0:0:0:0:
212,236,65067,2,0,P|256:228|296:236,1,86.2500016450882,2|0,0:0|0:0,0:0:0:0:
204,347,65408,2,0,P|162:356|120:348,1,86.2500016450882,2|2,0:0|0:0,0:0:0:0:
36,284,65749,2,0,L|32:224,3,43.1250008225441,2|0|2|0,0:0|0:0|0:0|0:0,0:0:0:0:
32,216,66090,6,0,P|72:224|120:216,1,86.2500016450882,4|2,0:0|0:0,0:0:0:0:
220,184,66431,2,0,L|216:84,1,86.2500016450882,8|0,0:0|0:0,0:0:0:0:
217,80,66687,1,0,0:0:0:0:
216,64,66772,2,0,P|256:56|300:64,1,86.2500016450882,0|6,0:0|0:0,0:0:0:0:
384,124,67113,2,0,L|380:228,1,86.2500016450882,8|2,0:0|0:0,0:0:0:0:
340,352,67454,6,0,P|380:360|428:352,2,86.2500016450882,4|2|8,0:0|0:0|0:0,0:0:0:0:
256,288,67965,1,2,0:0:0:0:
256,288,68050,1,0,0:0:0:0:
256,288,68136,2,0,P|216:280|168:288,1,86.2500016450882,2|6,0:0|0:0,0:0:0:0:
80,336,68476,2,0,L|76:232,1,86.2500016450882,8|2,0:0|0:0,0:0:0:0:
20,116,68817,6,0,P|96:140|184:116,1,172.500003290176,4|8,0:0|0:0,0:0:0:0:
256,40,69329,1,2,0:0:0:0:
256,40,69414,1,0,0:0:0:0:
256,40,69499,1,0,0:0:0:0:
328,116,69670,1,6,0:0:0:0:
424,76,69840,2,0,P|432:116|424:160,1,86.2500016450882,8|2,0:0|0:0,0:0:0:0:
292,208,70181,6,0,L|200:200,1,86.2500016450882,4|2,0:0|0:0,0:0:0:0:
112,160,70522,1,8,0:0:0:0:
24,216,70692,1,2,0:0:0:0:
24,216,70778,1,0,0:0:0:0:
24,216,70863,2,0,P|16:256|24:304,1,86.2500016450882,2|6,0:0|0:0,0:0:0:0:
116,344,71204,2,0,P|122:301|114:259,1,86.2500016450882,14|6,0:0|0:0,0:0:0:0:
20,112,71545,6,0,L|196:104,1,172.500003290176,4|8,0:0|0:0,0:0:0:0:
256,24,72056,1,2,0:0:0:0:
320,104,72226,2,0,P|328:148|320:188,1,86.2500016450882,0|6,0:0|0:0,0:0:0:0:
220,220,72567,2,0,L|124:216,1,86.2500016450882,8|2,0:0|0:0,0:0:0:0:
256,316,72908,6,0,L|352:312,1,86.2500016450882,4|2,0:0|0:0,0:0:0:0:
436,356,73249,2,0,P|444:316|436:272,1,86.2500016450882,8|2,0:0|0:0,0:0:0:0:
424,260,73505,1,0,0:0:0:0:
412,248,73590,2,0,P|404:208|412:164,1,86.2500016450882,0|6,0:0|0:0,0:0:0:0:
456,72,73931,2,0,L|356:68,1,86.2500016450882,8|2,0:0|0:0,0:0:0:0:
232,20,74272,6,0,P|264:96|232:176,1,172.500003290176,4|8,0:0|0:0,0:0:0:0:
136,216,74783,1,2,0:0:0:0:
40,176,74954,2,0,P|32:220|40:260,1,86.2500016450882,2|6,0:0|0:0,0:0:0:0:
96,348,75295,2,0,L|192:344,1,86.2500016450882,8|2,0:0|0:0,0:0:0:0:
256,268,75636,5,4,0:0:0:0:
256,268,75806,1,2,0:0:0:0:
329,344,75976,2,0,L|416:348,1,86.2500016450882,8|2,0:0|0:0,0:0:0:0:
471,260,76317,2,0,P|480:218|472:176,1,86.2500016450882,6|0,0:0|0:0,0:0:0:0:
460,164,76573,1,0,0:0:0:0:
444,156,76658,2,0,L|324:152,1,86.2500016450882,8|0,0:0|0:0,0:0:0:0:
256,84,76999,5,4,1:0:0:0:
220,68,86545,6,0,L|308:64,1,75,2|0,0:0|0:0,0:0:0:0:
380,28,86886,2,0,P|388:64|380:104,1,75,2|0,0:0|0:0,0:0:0:0:
348,184,87226,2,0,L|432:180,1,75,2|0,0:0|0:0,0:0:0:0:
472,256,87567,2,0,L|472:308,3,37.5,2|0|0|0,0:0|0:0|0:0|0:0,0:0:0:0:
472,316,87908,6,0,P|400:336|328:316,1,150,4|8,0:0|0:0,0:0:0:0:
256,264,88420,2,0,P|183:246|112:264,1,150,0|2,0:0|0:0,0:0:0:0:
32,304,88931,2,0,L|28:224,1,75,8|0,0:0|0:0,0:0:0:0:
20,100,89272,6,0,P|56:108|96:100,1,75,2|2,0:0|0:0,0:0:0:0:
176,64,89613,1,8,0:0:0:0:
176,64,89783,1,0,0:0:0:0:
256,108,89954,2,0,P|264:144|256:188,1,75,0|2,0:0|0:0,0:0:0:0:
200,248,90295,2,0,L|112:244,1,75,8|0,0:0|0:0,0:0:0:0:
272,304,90636,6,0,L|428:300,1,150,2|8,0:0|0:0,0:0:0:0:
484,232,91147,2,0,P|504:160|484:88,1,150,0|2,0:0|0:0,0:0:0:0:
416,28,91658,2,0,L|336:24,1,75,8|0,0:0|0:0,0:0:0:0:
256,60,91999,5,2,0:0:0:0:
256,60,92170,1,2,0:0:0:0:
176,24,92340,2,0,P|168:60|176:100,1,75,8|0,0:0|0:0,0:0:0:0:
224,172,92681,2,0,L|312:168,1,75,0|2,0:0|0:0,0:0:0:0:
160,236,93022,2,0,L|72:232,1,75,8|2,0:0|0:0,0:0:0:0:
224,304,93363,6,0,L|392:296,1,150,2|8,0:0|0:0,0:0:0:0:
456,264,93874,1,0,0:0:0:0:
420,180,94045,2,0,P|456:172|492:180,1,75,0|2,0:0|0:0,0:0:0:0:
340,216,94386,2,0,P|332:180|340:144,1,75,8|0,0:0|0:0,0:0:0:0:
384,64,94726,6,0,P|348:68|308:64,1,75,2|2,0:0|0:0,0:0:0:0:
224,36,95067,2,0,P|152:32|92:76,1,150,8|0,0:0|0:0,0:0:0:0:
100,168,95579,1,2,0:0:0:0:
184,204,95749,2,0,P|192:168|184:128,1,75,8|0,0:0|0:0,0:0:0:0:
24,224,96090,6,0,P|36:296|100:344,1,150,2|8,0:0|0:0,0:0:0:0:
184,348,96601,2,0,L|336:340,1,150,0|2,0:0|0:0,0:0:0:0:
420,304,97113,2,0,P|428:340|420:376,1,75,8|0,0:0|0:0,0:0:0:0:
304,252,97454,6,0,P|296:216|304:176,1,75,2|2,0:0|0:0,0:0:0:0:
372,120,97795,2,0,L|472:112,1,75,8|0,0:0|0:0,0:0:0:0:
256,28,98306,1,2,0:0:0:0:
196,96,98476,2,0,P|160:104|120:96,1,75,0|8,0:0|0:0,0:0:0:0:
16,28,98817,6,0,L|24:184,1,150,4|8,0:0|0:0,0:0:0:0:
32,268,99329,2,0,L|-8:264,2,37.5,0|0|0,0:0|0:0|0:0,0:0:0:0:
108,220,99670,1,2,0:0:0:0:
164,292,99840,2,0,L|260:288,1,75,8|0,0:0|0:0,0:0:0:0:
360,248,100181,6,0,P|368:284|360:324,2,75,2|2|8,0:0|0:0|0:0,0:0:0:0:
316,168,100692,1,0,0:0:0:0:
316,168,100778,1,0,0:0:0:0:
316,168,100863,2,0,L|408:164,1,75,0|2,0:0|0:0,0:0:0:0:
252,96,101204,2,0,L|160:92,1,75,8|0,0:0|0:0,0:0:0:0:
104,148,101545,6,0,P|76:215|104:283,1,150,2|8,0:0|0:0,0:0:0:0:
180,332,102056,1,0,0:0:0:0:
180,332,102141,1,0,0:0:0:0:
180,332,102226,2,0,L|268:328,1,75,0|2,0:0|0:0,0:0:0:0:
336,292,102567,2,0,P|344:328|336:368,1,75,8|0,0:0|0:0,0:0:0:0:
228,240,102908,6,0,P|221:203|229:166,1,75,2|2,0:0|0:0,0:0:0:0:
280,92,103249,2,0,L|356:88,1,75,8|0,0:0|0:0,0:0:0:0:
368,92,103505,1,0,0:0:0:0:
380,100,103590,2,0,P|388:136|380:176,1,75,0|2,0:0|0:0,0:0:0:0:
352,256,103931,2,0,L|428:252,1,75,8|2,0:0|0:0,0:0:0:0:
272,212,104272,6,0,L|120:204,1,150,2|8,0:0|0:0,0:0:0:0:
40,164,104783,1,0,0:0:0:0:
40,164,104868,1,0,0:0:0:0:
40,164,104954,2,0,P|32:200|40:240,1,75,0|2,0:0|0:0,0:0:0:0:
80,84,105295,2,0,P|44:76|4:84,1,75,8|0,0:0|0:0,0:0:0:0:
160,124,105636,6,0,P|168:88|160:48,2,75,2|2|8,0:0|0:0|0:0,0:0:0:0:
120,204,106147,2,0,L|56:200,2,37.5,0|0|0,0:0|0:0|0:0,0:0:0:0:
204,240,106488,1,2,0:0:0:0:
284,280,106658,2,0,L|372:276,1,75,8|0,0:0|0:0,0:0:0:0:
488,272,106999,6,0,P|508:196|488:128,1,150,2|8,0:0|0:0,0:0:0:0:
432,60,107511,2,0,L|276:56,1,150,0|2,0:0|0:0,0:0:0:0:
200,92,108022,2,0,P|192:56|200:16,1,75,8|0,0:0|0:0,0:0:0:0:
240,172,108363,6,0,P|204:180|164:172,1,75,2|2,0:0|0:0,0:0:0:0:
84,140,108704,1,8,0:0:0:0:
8,184,108874,1,0,0:0:0:0:
16,272,109045,2,0,L|24:360,1,75,2|0,0:0|0:0,0:0:0:0:
32,356,109300,1,2,0:0:0:0:
44,364,109386,2,0,P|80:368|120:364,1,75,0|8,0:0|0:0,0:0:0:0:
232,308,109726,6,0,P|304:292|380:308,1,150,4|8,0:0|0:0,0:0:0:0:
460,344,110238,1,0,0:0:0:0:
460,344,110323,1,0,0:0:0:0:
460,344,110408,2,0,L|464:244,1,75,0|2,0:0|0:0,0:0:0:0:
484,180,110749,2,0,P|448:188|408:180,1,75,8|0,0:0|0:0,0:0:0:0:
336,76,111090,6,0,L|332:232,1,150,2|8,0:0|0:0,0:0:0:0:
344,316,111601,2,0,L|384:312,2,37.5,0|0|0,0:0|0:0|0:0,0:0:0:0:
256,328,111942,1,2,0:0:0:0:
176,288,112113,2,0,P|168:324|176:364,1,75,8|0,0:0|0:0,0:0:0:0:
244,224,112454,6,0,P|176:196|108:224,1,150,2|8,0:0|0:0,0:0:0:0:
40,284,112965,1,0,0:0:0:0:
40,284,113050,1,0,0:0:0:0:
40,284,113136,2,0,L|44:368,2,75,0|2|8,0:0|0:0|0:0,0:0:0:0:
32,196,113647,1,0,0:0:0:0:
24,108,113817,6,0,P|96:124|172:108,1,150,2|8,0:0|0:0,0:0:0:0:
256,80,114329,2,0,L|256:40,2,37.5,2|0|0,0:0|0:0|0:0,0:0:0:0:
344,108,114670,1,8,0:0:0:0:
424,68,114840,1,0,0:0:0:0:
496,124,115011,5,0,0:0:0:0:
496,124,115096,1,0,0:0:0:0:
496,124,115181,2,0,L|492:284,1,150,12|2,0:0|0:0,0:0:0:0:
452,356,115692,2,0,P|376:372|304:356,1,150,8|2,0:0|0:0,0:0:0:0:
220,260,116204,2,0,P|256:252|292:260,1,75,8|0,0:0|0:0,0:0:0:0:
205,357,116545,6,0,P|132:372|60:356,1,150,8|2,0:0|0:0,0:0:0:0:
19,273,117056,2,0,L|16:124,1,150,8|2,0:0|0:0,0:0:0:0:
4,32,117567,2,0,P|40:40|80:32,1,75,8|0,0:0|0:0,0:0:0:0:
168,20,117908,5,4,0:0:0:0:
168,20,118079,1,2,0:0:0:0:
204,104,118249,2,0,P|168:112|132:104,1,75,8|2,0:0|0:0,0:0:0:0:
292,72,118590,2,0,L|296:172,1,75,6|0,0:0|0:0,0:0:0:0:
300,160,118846,1,6,0:0:0:0:
308,172,118931,2,0,P|344:180|380:172,1,75,0|2,0:0|0:0,0:0:0:0:
508,156,119272,6,0,L|504:248,1,75,4|2,0:0|0:0,0:0:0:0:
500,320,119613,1,2,0:0:0:0:
500,320,119783,1,2,0:0:0:0:
420,364,119954,2,0,P|380:372|344:364,1,75,2|2,0:0|0:0,0:0:0:0:
276,308,120295,2,0,P|256:304|236:308,3,37.5,2|0|2|0,0:0|0:0|0:0|0:0,0:0:0:0:
216,320,120636,6,0,P|136:336|64:288,1,172.500003290176,6|8,0:0|0:0,0:0:0:0:
60,184,121147,1,2,0:0:0:0:
156,144,121317,2,0,P|164:188|156:228,1,86.2500016450882,0|6,0:0|0:0,0:0:0:0:
64,76,121658,2,0,P|98:47|136:34,1,86.2500016450882,8|2,0:0|0:0,0:0:0:0:
240,24,121999,6,0,L|344:20,1,86.2500016450882,4|2,0:0|0:0,0:0:0:0:
428,16,122340,2,0,P|436:60|428:104,1,86.2500016450882,8|2,0:0|0:0,0:0:0:0:
356,172,122681,2,0,L|252:168,1,86.2500016450882,2|6,0:0|0:0,0:0:0:0:
164,168,123022,2,0,P|156:212|164:256,1,86.2500016450882,8|2,0:0|0:0,0:0:0:0:
256,364,123363,6,0,L|436:356,1,172.500003290176,4|8,0:0|0:0,0:0:0:0:
508,288,123874,1,2,0:0:0:0:
448,200,124045,2,0,P|404:208|364:200,1,86.2500016450882,0|6,0:0|0:0,0:0:0:0:
320,104,124386,2,0,P|364:96|404:104,1,86.2500016450882,8|2,0:0|0:0,0:0:0:0:
256,188,124726,6,0,L|168:184,1,86.2500016450882,4|2,0:0|0:0,0:0:0:0:
88,120,125067,1,8,0:0:0:0:
16,196,125238,1,2,0:0:0:0:
16,196,125323,1,0,0:0:0:0:
16,196,125408,2,0,P|8:240|16:280,1,86.2500016450882,2|6,0:0|0:0,0:0:0:0:
64,372,125749,2,0,L|152:368,1,86.2500016450882,14|6,0:0|0:0,0:0:0:0:
296,368,126090,6,0,P|376:340|404:256,1,172.500003290176,4|8,0:0|0:0,0:0:0:0:
408,160,126601,2,0,L|228:152,1,172.500003290176,2|6,0:0|0:0,0:0:0:0:
140,108,127113,2,0,P|128:148|140:196,1,86.2500016450882,8|2,0:0|0:0,0:0:0:0:
216,48,127454,6,0,P|140:12|64:48,1,172.500003290176,4|8,0:0|0:0,0:0:0:0:
16,140,127965,2,0,L|24:320,1,172.500003290176,2|6,0:0|0:0,0:0:0:0:
112,368,128476,1,8,0:0:0:0:
112,368,128647,1,2,0:0:0:0:
172,284,128817,6,0,P|212:276|256:284,1,86.2500016450882,4|2,0:0|0:0,0:0:0:0:
340,344,129158,2,0,P|382:352|424:344,1,86.2500016450882,8|2,0:0|0:0,0:0:0:0:
492,268,129499,2,0,L|496:160,1,86.2500016450882,0|6,0:0|0:0,0:0:0:0:
500,80,129840,1,8,0:0:0:0:
500,80,130011,1,2,0:0:0:0:
408,128,130181,6,0,P|364:136|324:128,1,86.2500016450882,2|0,0:0|0:0,0:0:0:0:
212,32,130522,2,0,P|256:24|296:32,1,86.2500016450882,2|0,0:0|0:0,0:0:0:0:
188,127,130863,2,0,P|146:136|104:128,1,86.2500016450882,2|2,0:0|0:0,0:0:0:0:
20,68,131204,2,0,P|24:88|24:116,3,43.1250008225441,2|0|2|0,0:0|0:0|0:0|0:0,0:0:0:0:
20,136,131545,6,0,P|-4:220|20:304,1,172.500003290176,4|8,0:0|0:0,0:0:0:0:
104,356,132056,1,2,0:0:0:0:
104,356,132141,1,0,0:0:0:0:
104,356,132226,2,0,L|204:352,1,86.2500016450882,0|6,0:0|0:0,0:0:0:0:
228,252,132567,2,0,L|141:255,1,86.2500016450882,8|2,0:0|0:0,0:0:0:0:
296,348,132908,6,0,L|400:344,1,86.2500016450882,4|0,0:0|0:0,0:0:0:0:
476,300,133249,2,0,P|484:256|476:216,1,86.2500016450882,8|2,0:0|0:0,0:0:0:0:
468,200,133505,1,0,0:0:0:0:
456,188,133590,2,0,L|344:184,1,86.2500016450882,2|6,0:0|0:0,0:0:0:0:
324,92,133931,2,0,L|410:95,1,86.2500016450882,8|2,0:0|0:0,0:0:0:0:
268,180,134272,6,0,L|156:176,1,86.2500016450882,4|2,0:0|0:0,0:0:0:0:
88,136,134613,1,8,0:0:0:0:
4,196,134783,1,2,0:0:0:0:
4,196,134868,1,0,0:0:0:0:
4,196,134954,2,0,L|8:288,1,86.2500016450882,0|6,0:0|0:0,0:0:0:0:
88,348,135295,2,0,P|128:356|172:348,1,86.2500016450882,8|2,0:0|0:0,0:0:0:0:
288,256,135636,6,0,L|396:264,2,86.2500016450882,4|2|8,0:0|0:0|0:0,0:0:0:0:
184,240,136147,1,2,0:0:0:0:
184,240,136232,1,0,0:0:0:0:
184,240,136317,2,0,P|176:196|184:156,1,86.2500016450882,2|6,0:0|0:0,0:0:0:0:
232,64,136658,2,0,L|132:60,1,86.2500016450882,14|6,0:0|0:0,0:0:0:0:
292,156,136999,6,0,L|472:148,1,172.500003290176,4|8,0:0|0:0,0:0:0:0:
512,244,137511,1,2,0:0:0:0:
460,332,137681,2,0,P|416:340|376:332,1,86.2500016450882,0|6,0:0|0:0,0:0:0:0:
300,264,138022,2,0,P|256:256|215:263,1,86.2500016450882,8|2,0:0|0:0,0:0:0:0:
52,332,138363,6,0,L|48:160,1,172.500003290176,4|8,0:0|0:0,0:0:0:0:
8,64,138874,1,2,0:0:0:0:
8,64,138959,1,0,0:0:0:0:
8,64,139045,2,0,P|48:72|92:64,1,86.2500016450882,2|6,0:0|0:0,0:0:0:0:
188,20,139386,2,0,L|184:112,1,86.2500016450882,8|2,0:0|0:0,0:0:0:0:
176,252,139726,6,0,P|256:224|336:252,1,172.500003290176,4|8,0:0|0:0,0:0:0:0:
408,328,140238,1,2,0:0:0:0:
504,288,140408,2,0,P|512:332|504:380,1,86.2500016450882,0|6,0:0|0:0,0:0:0:0:
336,252,140749,2,0,P|328:208|336:160,1,86.2500016450882,8|2,0:0|0:0,0:0:0:0:
384,76,141090,6,0,L|296:72,1,86.2500016450882,4|2,0:0|0:0,0:0:0:0:
212,128,141431,2,0,L|216:176,2,43.1250008225441,8|0|2,0:0|0:0|0:0,0:0:0:0:
156,40,141772,2,0,L|68:36,1,86.2500016450882,6|0,0:0|0:0,0:0:0:0:
56,44,142028,1,0,0:0:0:0:
44,56,142113,2,0,P|32:100|44:144,1,86.2500016450882,8|0,0:0|0:0,0:0:0:0:
88,244,142454,6,0,L|220:240,1,112.500004291535,4|2,0:0|0:0,0:0:0:0:
280,188,142965,2,0,P|296:244|280:296,1,112.500004291535,4|0,0:0|0:0,0:0:0:0:
196,340,143476,1,4,0:0:0:0:
196,340,143817,6,0,L|124:336,2,56.2500021457673,0|2|0,0:0|0:0|0:0,0:0:0:0:
388,344,144499,2,0,L|456:340,1,56.2500021457673
404,252,144840,2,0,L|468:248,1,56.2500021457673,4|0,0:0|0:0,0:0:0:0:
488,156,145181,6,0,L|360:168,1,112.500004291535,4|0,0:0|0:0,0:0:0:0:
296,216,145692,2,0,P|280:160|296:108,1,112.500004291535,4|0,0:0|0:0,0:0:0:0:
380,64,146204,1,4,0:0:0:0:
380,64,146545,6,0,L|452:56,2,56.2500021457673,0|2|0,0:0|0:0|0:0,0:0:0:0:
292,20,147056,2,0,L|168:16,1,112.500004291535
88,44,147567,2,0,P|80:72|88:104,1,56.2500021457673,4|4,0:0|0:0,0:0:0:0:
144,172,147908,6,0,P|160:228|144:280,1,112.500004291535,4|2,0:0|0:0,0:0:0:0:
80,352,148420,2,0,L|16:348,2,56.2500021457673,4|0|0,0:0|0:0|0:0,0:0:0:0:
172,372,148931,1,4,0:0:0:0:
172,372,149272,6,0,L|248:368,1,56.2500021457673,0|2,0:0|0:0,0:0:0:0:
248,277,149613,2,0,L|192:280,1,56.2500021457673,0|0,0:0|0:0,0:0:0:0:
216,188,149954,2,0,L|292:184,1,56.2500021457673
292,93,150295,2,0,L|236:96,1,56.2500021457673,4|0,0:0|0:0,0:0:0:0:
144,68,150636,5,0,0:0:0:0:
256,192,150721,12,0,151999,0:0:0:0:
216,56,152681,6,0,L|296:52,1,75
380,68,153022,1,0,0:0:0:0:
468,84,153192,5,0,0:0:0:0:
468,84,153278,1,0,0:0:0:0:
468,84,153363,2,0,L|464:244,1,150,4|8,0:0|0:0,0:0:0:0:
436,320,153874,1,0,0:0:0:0:
348,284,154045,2,0,P|340:320|348:360,1,75,0|2,0:0|0:0,0:0:0:0:
384,208,154386,2,0,P|348:200|308:208,1,75,8|0,0:0|0:0,0:0:0:0:
256,276,154726,6,0,P|184:296|112:276,1,150,2|8,0:0|0:0,0:0:0:0:
36,228,155238,2,0,L|40:72,1,150,0|2,0:0|0:0,0:0:0:0:
108,20,155749,1,8,0:0:0:0:
172,84,155920,5,2,0:0:0:0:
172,84,156005,1,0,0:0:0:0:
172,84,156090,2,0,L|248:80,1,75,2|0,0:0|0:0,0:0:0:0:
328,44,156431,2,0,P|336:80|328:120,1,75,2|0,0:0|0:0,0:0:0:0:
280,192,156772,2,0,P|272:228|280:268,1,75,0|0,0:0|0:0,0:0:0:0:
348,324,157113,2,0,L|432:320,1,75,2|0,0:0|0:0,0:0:0:0:
256,352,157454,6,0,L|168:344,1,75
96,376,157795,2,0,P|88:336|96:304,1,75,2|0,0:0|0:0,0:0:0:0:
136,224,158136,2,0,L|48:216,2,75,2|2|2,0:0|0:0|0:0,0:0:0:0:
192,152,158647,1,2,0:0:0:0:
124,92,158817,6,0,P|192:64|260:92,1,150,4|8,0:0|0:0,0:0:0:0:
320,160,159329,1,0,0:0:0:0:
320,160,159414,1,0,0:0:0:0:
320,160,159499,2,0,L|320:256,1,75,0|2,0:0|0:0,0:0:0:0:
292,320,159840,2,0,P|256:328|220:320,1,75,8|0,0:0|0:0,0:0:0:0:
408,264,160181,6,0,P|444:256|480:264,2,75,2|0|8,0:0|0:0|0:0,0:0:0:0:
384,352,160692,1,0,0:0:0:0:
460,108,161033,1,2,0:0:0:0:
384,160,161204,2,0,P|348:168|312:160,1,75,8|2,0:0|0:0,0:0:0:0:
220,68,161545,6,0,P|256:60|292:68,1,75,2|0,0:0|0:0,0:0:0:0:
200,159,161886,2,0,P|164:167|128:160,1,75,2|0,0:0|0:0,0:0:0:0:
40,136,162226,1,0,0:0:0:0:
40,136,162397,1,0,0:0:0:0:
4,216,162567,2,0,L|12:304,1,75,2|0,0:0|0:0,0:0:0:0:
92,360,162908,6,0,L|98:285,1,75,2|2,0:0|0:0,0:0:0:0:
180,216,163249,2,0,L|186:290,1,75,2|2,0:0|0:0,0:0:0:0:
264,360,163590,2,0,L|270:285,1,75,2|2,0:0|0:0,0:0:0:0:
348,216,163931,2,0,L|354:290,1,75,2|2,0:0|0:0,0:0:0:0:
436,360,164272,5,6,0:0:0:0:
200,243,169726,6,0,B|192:264|172:280|136:288|136:288|120:252|128:216|148:192|148:192|116:164|84:132|112:72|112:72|172:72|200:108|204:144,1,450,6|0,0:0|0:0,0:0:0:0:
311,243,171090,2,0,B|320:264|340:280|376:288|376:288|392:252|384:216|364:192|364:192|396:164|428:132|400:72|400:72|340:72|312:108|308:144,1,450,6|0,0:0|0:0,0:0:0:0:
256,316,172454,6,0,L|80:308,1,150,6|0,0:0|0:0,0:0:0:0:
236,176,173136,2,0,L|412:184,1,150,6|0,0:0|0:0,0:0:0:0:
492,344,173817,6,0,P|456:352|420:344,1,75,6|0,0:0|0:0,0:0:0:0:
348,288,174158,2,0,P|311:279|275:287,1,75,6|0,0:0|0:0,0:0:0:0:
204,344,174499,2,0,P|168:352|132:344,1,75,6|0,0:0|0:0,0:0:0:0:
44,320,174840,2,0,P|28:300|24:280,3,37.5,2|2|2|2,0:0|0:0|0:0|0:0,0:0:0:0:
16,268,175181,6,0,L|12:112,1,150,4|2,0:0|0:0,0:0:0:0:
52,36,175692,2,0,P|124:12|196:36,1,150,4|2,0:0|0:0,0:0:0:0:
292,112,176204,2,0,P|256:120|220:112,1,75,4|0,0:0|0:0,0:0:0:0:
319,33,176545,6,0,P|390:12|460:36,1,150,4|2,0:0|0:0,0:0:0:0:
499,118,177056,2,0,L|496:268,1,150,4|2,0:0|0:0,0:0:0:0:
432,332,177567,2,0,P|396:340|360:332,1,75,4|0,0:0|0:0,0:0:0:0:
304,260,177908,6,0,L|308:176,2,75,4|2|2,0:0|0:0|0:0,0:0:0:0:
208,260,178420,2,0,L|204:176,2,75,4|2|2,0:0|0:0|0:0,0:0:0:0:
152,331,178931,2,0,P|116:339|80:332,1,75,4|2,0:0|0:0,0:0:0:0:
16,268,179272,6,0,L|12:118,1,150,4|2,0:0|0:0,0:0:0:0:
8,28,179783,1,2,0:0:0:0:
8,28,179868,1,0,0:0:0:0:
8,28,179954,2,0,P|44:36|84:28,1,75,2|2,0:0|0:0,0:0:0:0:
168,8,180295,2,0,L|164:100,1,75,2|2,0:0|0:0,0:0:0:0:
188,208,180636,6,0,P|256:180|328:208,1,150,4|8,0:0|0:0,0:0:0:0:
200,332,181317,2,0,P|132:360|60:332,1,150,2|8,0:0|0:0,0:0:0:0:
312,332,181999,6,0,P|380:360|452:332,1,150,2|8,0:0|0:0,0:0:0:0:
326,208,182681,2,0,P|256:183|186:208,1,150,2|8,0:0|0:0,0:0:0:0:
60,336,183363,6,0,L|56:260,1,75,2|2,0:0|0:0,0:0:0:0:
92,180,183704,2,0,P|56:172|20:180,1,75,8|2,0:0|0:0,0:0:0:0:
140,296,184045,2,0,P|176:304|212:296,1,75,8|2,0:0|0:0,0:0:0:0:
300,272,184386,2,0,P|336:263|372:271,1,75,8|2,0:0|0:0,0:0:0:0:
492,316,184726,6,0,L|496:216,1,75,8|8,0:0|0:0,0:0:0:0:
492,152,185067,1,8,0:0:0:0:
480,156,185153,1,0,0:0:0:0:
468,160,185238,1,8,0:0:0:0:
456,164,185323,1,0,0:0:0:0:
444,168,185408,5,2,0:0:0:0:
340,336,186090,6,0,P|256:360|176:336,1,172.500003290176,6|8,0:0|0:0,0:0:0:0:
84,292,186601,2,0,L|92:112,1,172.500003290176,2|6,0:0|0:0,0:0:0:0:
136,24,187113,2,0,P|96:12|52:24,1,86.2500016450882,8|2,0:0|0:0,0:0:0:0:
200,144,187454,6,0,L|296:140,1,86.2500016450882,4|2,0:0|0:0,0:0:0:0:
384,100,187795,2,0,P|392:144|384:184,1,86.2500016450882,8|2,0:0|0:0,0:0:0:0:
300,244,188136,2,0,P|292:288|300:328,1,86.2500016450882,2|6,0:0|0:0,0:0:0:0:
392,376,188476,2,0,L|484:368,1,86.2500016450882,8|2,0:0|0:0,0:0:0:0:
300,244,188817,6,0,L|108:232,1,172.500003290176,4|8,0:0|0:0,0:0:0:0:
28,264,189329,1,2,0:0:0:0:
4,164,189499,2,0,P|-4:124|4:80,1,86.2500016450882,0|6,0:0|0:0,0:0:0:0:
100,40,189840,2,0,L|220:36,1,86.2500016450882,8|2,0:0|0:0,0:0:0:0:
236,176,190181,6,0,L|149:178,2,86.2500016450882,4|2|8,0:0|0:0|0:0,0:0:0:0:
312,104,190692,1,2,0:0:0:0:
312,104,190778,1,0,0:0:0:0:
312,104,190863,1,2,0:0:0:0:
364,192,191033,1,6,0:0:0:0:
460,148,191204,2,0,P|468:192|460:232,1,86.2500016450882,14|6,0:0|0:0,0:0:0:0:
380,356,191545,6,0,L|204:348,1,172.500003290176,4|8,0:0|0:0,0:0:0:0:
104,332,192056,2,0,P|76:248|112:168,1,172.500003290176,2|6,0:0|0:0,0:0:0:0:
200,132,192567,2,0,P|208:176|200:216,1,86.2500016450882,8|2,0:0|0:0,0:0:0:0:
148,52,192908,6,0,L|332:44,1,172.500003290176,4|8,0:0|0:0,0:0:0:0:
424,52,193420,2,0,P|454:130|426:210,1,172.500003290176,2|6,0:0|0:0,0:0:0:0:
336,260,193931,1,8,0:0:0:0:
256,196,194101,1,2,0:0:0:0:
176,260,194272,6,0,L|72:256,1,86.2500016450882,4|2,0:0|0:0,0:0:0:0:
12,188,194613,2,0,P|0:148|12:104,1,86.2500016450882,8|2,0:0|0:0,0:0:0:0:
80,28,194954,2,0,L|166:24,1,86.2500016450882,0|6,0:0|0:0,0:0:0:0:
256,76,195295,1,8,0:0:0:0:
256,76,195465,1,2,0:0:0:0:
204,168,195636,6,0,P|160:176|120:168,1,86.2500016450882,2|0,0:0|0:0,0:0:0:0:
308,168,195976,2,0,P|352:160|392:168,1,86.2500016450882,2|0,0:0|0:0,0:0:0:0:
484,216,196317,2,0,L|480:320,1,86.2500016450882,2|2,0:0|0:0,0:0:0:0:
396,360,196658,2,0,P|376:364|352:360,3,43.1250008225441,2|0|2|0,0:0|0:0|0:0|0:0,0:0:0:0:
328,356,196999,6,0,P|284:348|244:356,1,84.3750032186509,2|0,0:0|0:0,0:0:0:0:
220,364,197340,6,0,P|120:360|76:308,1,172.500003290176,6|0,0:0|0:0,0:0:0:0:
172,272,197851,1,6,0:0:0:0:
88,208,198022,2,0,L|0:200,1,86.2500016450882,8|2,0:0|0:0,0:0:0:0:
172,272,198363,6,0,L|260:264,1,86.2500016450882,4|2,0:0|0:0,0:0:0:0:
340,328,198704,2,0,L|440:320,1,86.2500016450882,8|2,0:0|0:0,0:0:0:0:
444,316,198959,1,0,0:0:0:0:
460,308,199045,2,0,P|472:268|460:224,1,86.2500016450882,2|6,0:0|0:0,0:0:0:0:
408,136,199386,2,0,L|504:132,1,86.2500016450882,8|2,0:0|0:0,0:0:0:0:
360,224,199726,6,0,L|176:212,1,172.500003290176,4|8,0:0|0:0,0:0:0:0:
92,252,200238,1,2,0:0:0:0:
92,252,200323,1,0,0:0:0:0:
92,252,200408,2,0,P|84:212|92:168,1,86.2500016450882,0|6,0:0|0:0,0:0:0:0:
136,76,200749,2,0,P|93:67|51:75,1,86.2500016450882,8|2,0:0|0:0,0:0:0:0:
228,120,201090,6,0,P|236:77|228:35,2,86.2500016450882,4|2|8,0:0|0:0|0:0,0:0:0:0:
188,212,201601,1,2,0:0:0:0:
188,212,201687,1,0,0:0:0:0:
188,212,201772,2,0,L|80:204,1,86.2500016450882,2|6,0:0|0:0,0:0:0:0:
20,268,202113,2,0,P|11:310|20:352,1,86.2500016450882,14|6,0:0|0:0,0:0:0:0:
164,372,202454,6,0,L|336:368,1,172.500003290176,4|8,0:0|0:0,0:0:0:0:
428,320,202965,1,2,0:0:0:0:
428,320,203050,1,0,0:0:0:0:
428,320,203136,2,0,P|436:276|428:236,1,86.2500016450882,0|6,0:0|0:0,0:0:0:0:
335,188,203476,2,0,P|326:230|334:272,1,86.2500016450882,8|2,0:0|0:0,0:0:0:0:
412,116,203817,6,0,P|332:84|256:116,1,172.500003290176,4|8,0:0|0:0,0:0:0:0:
200,192,204329,1,2,0:0:0:0:
200,192,204414,1,0,0:0:0:0:
200,192,204499,2,0,P|156:200|116:192,1,86.2500016450882,0|6,0:0|0:0,0:0:0:0:
20,148,204840,2,0,P|12:192|20:232,1,86.2500016450882,8|2,0:0|0:0,0:0:0:0:
96,340,205181,6,0,L|276:336,1,172.500003290176,4|8,0:0|0:0,0:0:0:0:
360,284,205692,1,2,0:0:0:0:
456,240,205863,2,0,P|464:284|456:328,1,86.2500016450882,0|6,0:0|0:0,0:0:0:0:
268,240,206204,2,0,P|261:197|269:155,1,86.2500016450882,8|2,0:0|0:0,0:0:0:0:
320,64,206545,6,0,L|232:56,1,86.2500016450882,4|2,0:0|0:0,0:0:0:0:
164,132,206886,2,0,L|76:124,1,86.2500016450882,8|2,0:0|0:0,0:0:0:0:
0,192,207226,1,2,0:0:0:0:
96,228,207397,1,0,0:0:0:0:
96,228,207482,1,2,0:0:0:0:
96,228,207567,1,0,0:0:0:0:
20,296,207738,1,0,0:0:0:0:
96,364,207908,6,0,P|136:372|184:364,1,86.2500016450882,4|0,0:0|0:0,0:0:0:0:
208,264,208249,2,0,L|204:160,1,86.2500016450882,8|0,0:0|0:0,0:0:0:0:
308,176,208590,2,0,L|304:262,1,86.2500016450882,2|0,0:0|0:0,0:0:0:0:
331,365,208931,2,0,P|373:372|416:364,1,86.2500016450882,8|0,0:0|0:0,0:0:0:0:
492,292,209272,5,4,0:0:0:0:
380,120,209613,1,8,0:0:0:0:
256,288,209954,1,2,0:0:0:0:
132,120,210295,1,8,0:0:0:0:
20,292,210636,6,0,L|112:288,1,86.2500016450882,4|2,0:0|0:0,0:0:0:0:
180,216,210976,1,8,0:0:0:0:
180,216,211147,1,2,0:0:0:0:
256,288,211317,2,0,L|256:380,2,86.2500016450882,2|2|8,0:0|0:0|0:0,0:0:0:0:
328,212,211829,1,2,0:0:0:0:
408,288,211999,6,0,L|452:284,7,43.1250008225441,2|2|2|2|2|2|2|2,0:0|0:0|0:0|0:0|0:0|0:0|0:0|0:0,0:0:0:0:
472,268,212681,2,0,P|476:244|472:216,7,43.1250008225441,2|2|2|2|2|2|2|2,0:0|0:0|0:0|0:0|0:0|0:0|0:0|0:0,0:0:0:0:
464,204,213363,6,0,P|456:164|464:132,1,75,6|2,0:0|0:0,0:0:0:0:
488,44,213704,1,8,0:0:0:0:
400,68,213874,2,0,L|248:60,1,150,2|6,0:0|0:0,0:0:0:0:
168,24,214386,2,0,P|160:64|168:100,1,75,8|2,0:0|0:0,0:0:0:0:
208,176,214726,6,0,L|116:172,2,75,4|2|8,0:0|0:0|0:0,0:0:0:0:
292,140,215238,1,2,0:0:0:0:
364,196,215408,2,0,L|372:292,1,75,2|6,0:0|0:0,0:0:0:0:
412,352,215749,2,0,P|448:360|484:352,1,75,8|2,0:0|0:0,0:0:0:0:
292,312,216090,6,0,P|256:304|220:312,1,75,4|2,0:0|0:0,0:0:0:0:
144,360,216431,1,8,0:0:0:0:
60,328,216601,2,0,L|56:168,1,150,2|6,0:0|0:0,0:0:0:0:
92,96,217113,2,0,P|56:88|20:96,1,75,8|0,0:0|0:0,0:0:0:0:
140,208,217454,6,0,P|176:216|212:208,1,75,4|2,0:0|0:0,0:0:0:0:
288,156,217795,2,0,L|284:64,2,75,8|2|2,0:0|0:0|0:0,0:0:0:0:
300,244,218306,1,6,0:0:0:0:
384,276,218476,2,0,P|392:240|380:200,1,75,8|6,0:0|0:0,0:0:0:0:
352,352,218817,6,0,P|388:360|428:348,2,75,4|2|8,0:0|0:0|0:0,0:0:0:0:
264,324,219329,2,0,P|192:304|120:324,1,150,2|6,0:0|0:0,0:0:0:0:
40,364,219840,2,0,L|36:268,1,75,8|2,0:0|0:0,0:0:0:0:
32,200,220181,5,4,0:0:0:0:
32,200,220351,1,2,0:0:0:0:
112,244,220522,1,8,0:0:0:0:
200,236,220692,2,0,P|264:192|332:204,1,150,2|6,0:0|0:0,0:0:0:0:
412,244,221204,2,0,L|408:328,1,75,8|2,0:0|0:0,0:0:0:0:
288,360,221545,6,0,L|284:285,1,75,4|2,0:0|0:0,0:0:0:0:
264,196,221886,1,8,0:0:0:0:
176,216,222056,2,0,P|104:200|80:128,1,150,2|6,0:0|0:0,0:0:0:0:
76,44,222567,2,0,L|156:36,1,75,8|2,0:0|0:0,0:0:0:0:
256,24,222908,5,4,0:0:0:0:
256,24,223079,1,2,0:0:0:0:
256,280,223420,1,2,0:0:0:0:
256,280,223590,2,0,L|176:276,1,75,2|0,0:0|0:0,0:0:0:0:
96,244,223931,2,0,P|88:280|96:316,1,75,8|0,0:0|0:0,0:0:0:0:
208,192,224272,6,0,P|212:164|208:136,2,56.2500021457673,4|2|0,1:0|0:0|0:0,0:0:0:0:
128,164,224783,1,2,0:0:0:0:
256,52,225124,2,0,P|312:40|368:52,1,112.500004291535,2|2,0:0|0:0,0:0:0:0:
444,84,225636,5,2,0:0:0:0:
444,84,225806,2,0,L|440:208,1,112.500004291535,2|2,0:0|0:0,0:0:0:0:
412,276,226317,2,0,P|439:279|467:275,2,56.2500021457673,2|0|2,0:0|0:0|0:0,0:0:0:0:
256,208,226999,5,2,0:0:0:0:
256,208,227170,2,0,P|200:196|148:208,2,112.500004291535,2|2|2,0:0|0:0|0:0,0:0:0:0:
400,116,228192,1,2,0:0:0:0:
460,176,228363,5,2,0:0:0:0:
460,176,228533,2,0,L|452:308,1,112.500004291535,2|2,0:0|0:0,0:0:0:0:
392,348,229045,2,0,P|364:352|336:348,1,56.2500021457673,2|0,0:0|0:0,0:0:0:0:
284,284,229386,2,0,P|256:280|228:284,1,56.2500021457673,2|0,0:0|0:0,0:0:0:0:
172,348,229726,5,0,0:0:0:0:
256,192,229812,12,0,235181,0:0:0:0:
256,192,235266,12,4,237908,0:0:0:0:
