osu file format v14

[General]
AudioFilename: 09. Akatsuki No Tsuki.mp3
AudioLeadIn: 0
PreviewTime: -1
Countdown: 1
SampleSet: Soft
StackLeniency: 0.7
Mode: 0
LetterboxInBreaks: 1
WidescreenStoryboard: 0

[Editor]
Bookmarks: 24158
DistanceSpacing: 1.1
BeatDivisor: 4
GridSize: 4
TimelineZoom: 1

[Metadata]
Title:Akatsuki no Tsuki
TitleUnicode:Akatsuki no Tsuki
Artist:void feat Komatsuna
ArtistUnicode:void feat Komatsuna
Creator:Ravelyx
Version:Jumping Tsuki!
Source:
Tags:
BeatmapID:628563
BeatmapSetID:277383

[Difficulty]
HPDrainRate:7
CircleSize:4
OverallDifficulty:8
ApproachRate:10
SliderMultiplier:1.4
SliderTickRate:1

[Events]
//Background and Video events
0,0,"moon anime 1280x1024 wallpaper_www.wallpaperto.com_32.jpg",0,0
//Break Periods
//Storyboard Layer 0 (Background)
//Storyboard Layer 1 (Fail)
//Storyboard Layer 2 (Pass)
//Storyboard Layer 3 (Foreground)
//Storyboard Sound Samples

[TimingPoints]
636,340.909090909091,4,2,2,60,1,0
636,-133.333333333333,4,2,2,60,0,0
11545,-100,4,2,3,60,0,0
21772,-100,4,2,1,60,0,0
22454,-100,4,2,3,100,0,0
22539,-100,4,2,3,60,0,0
53817,-100,4,2,1,100,0,0
53903,-100,4,2,1,70,0,0
55181,-83.3333333333333,4,2,5,100,0,1
55266,-83.3333333333333,4,2,1,70,0,1
66005,-83.3333333333333,4,2,1,70,0,0
66090,-83.3333333333333,4,2,0,70,0,1
66175,-83.3333333333333,4,2,1,70,0,1
76999,-83.3333333333333,4,2,1,70,0,0
86545,-100,4,2,1,60,0,0
87908,-100,4,2,3,60,0,0
119272,-100,4,2,1,100,0,0
119357,-100,4,2,1,70,0,0
120636,-83.3333333333333,4,2,5,100,0,1
120721,-83.3333333333333,4,2,1,70,0,1
131459,-83.3333333333333,4,2,1,70,0,0
131545,-83.3333333333333,4,2,0,70,0,1
131630,-83.3333333333333,4,2,1,70,0,1
142454,-133.333333333333,4,2,2,60,0,0
152681,-100,4,2,3,60,0,0
156175,-100,4,2,0,60,0,0
158817,-100,4,2,3,60,0,0
161630,-100,4,2,0,60,0,0
162908,-100,4,2,1,60,0,0
164272,-100,4,2,5,100,0,0
169726,-100,4,2,3,60,0,0
179783,-100,4,2,1,60,0,0
180636,-100,4,2,3,60,0,0
185408,-100,4,2,5,100,0,0
185493,-100,4,2,3,60,0,0
186090,-83.3333333333333,4,2,5,100,0,1
186175,-83.3333333333333,4,2,1,70,0,1
196999,-200,4,2,5,100,0,0
197084,-200,4,2,1,70,0,0
197340,-83.3333333333333,4,2,5,100,0,1
197425,-83.3333333333333,4,2,1,70,0,1
207226,-83.3333333333333,4,2,3,70,0,1
213363,-100,4,2,5,100,0,0
213448,-100,4,2,1,60,0,0
223590,-100,4,2,3,60,0,0
224272,-133.333333333333,4,2,1,60,0,0
229897,-133.333333333333,4,2,1,30,0,0
237908,-133.333333333333,4,2,1,100,0,0

[HitObjects]
244,192,550,5,8,0:0:0:0:
260,192,3363,1,8,0:0:0:0:
260,192,6090,1,0,0:0:0:0:
256,192,8817,1,0,0:0:0:0:
264,156,9158,1,0,0:0:0:0:
260,120,9499,1,0,0:0:0:0:
268,84,9840,1,0,0:0:0:0:
272,56,10182,5,2,0:0:0:0:
300,52,10267,1,2,0:0:0:0:
324,52,10352,1,2,0:0:0:0:
340,56,10437,1,2,0:0:0:0:
360,56,10523,1,2,0:0:0:0:
376,60,10608,1,2,0:0:0:0:
388,76,10693,1,2,0:0:0:0:
400,92,10778,1,2,0:0:0:0:
408,112,10864,1,2,0:0:0:0:
416,128,10949,1,2,0:0:0:0:
420,152,11034,1,2,0:0:0:0:
420,164,11119,1,2,0:0:0:0:
256,192,11545,5,4,0:0:0:0:
136,76,12056,1,0,0:0:0:0:
384,80,12226,1,0,0:0:0:0:
368,296,12397,1,0,0:0:0:0:
120,272,12567,1,0,0:0:0:0:
136,76,12738,1,0,0:0:0:0:
384,80,12908,1,0,0:0:0:0:
368,296,13079,1,0,0:0:0:0:
128,272,13249,1,0,0:0:0:0:
144,76,13420,1,0,0:0:0:0:
376,84,13590,5,0,0:0:0:0:
352,284,13761,1,0,0:0:0:0:
168,264,13931,1,0,0:0:0:0:
184,108,14101,1,0,0:0:0:0:
336,120,14272,1,0,0:0:0:0:
308,240,14442,1,0,0:0:0:0:
220,232,14613,1,0,0:0:0:0:
224,156,14783,1,0,0:0:0:0:
288,164,14954,1,0,0:0:0:0:
264,200,15124,1,0,0:0:0:0:
288,164,15465,5,0,0:0:0:0:
224,156,15636,1,0,0:0:0:0:
220,232,15806,1,0,0:0:0:0:
308,240,15976,1,0,0:0:0:0:
336,128,16147,1,0,0:0:0:0:
192,120,16317,1,0,0:0:0:0:
188,256,16488,1,0,0:0:0:0:
344,268,16658,1,0,0:0:0:0:
372,92,16829,1,0,0:0:0:0:
152,84,16999,1,0,0:0:0:0:
148,276,17170,1,0,0:0:0:0:
384,296,17340,1,0,0:0:0:0:
256,44,17681,5,0,0:0:0:0:
128,188,17851,1,0,0:0:0:0:
256,312,18022,1,0,0:0:0:0:
368,188,18192,1,0,0:0:0:0:
256,44,18363,5,0,0:0:0:0:
368,188,18533,1,0,0:0:0:0:
256,312,18704,1,0,0:0:0:0:
128,188,18874,1,0,0:0:0:0:
256,44,19045,5,0,0:0:0:0:
256,312,19215,1,0,0:0:0:0:
128,188,19386,1,0,0:0:0:0:
368,188,19556,1,0,0:0:0:0:
260,192,19726,5,0,0:0:0:0:
260,192,19897,1,0,0:0:0:0:
260,192,20067,1,0,0:0:0:0:
260,192,20238,1,0,0:0:0:0:
260,192,20408,1,0,0:0:0:0:
260,192,20579,1,0,0:0:0:0:
260,192,20749,5,0,0:0:0:0:
80,68,21090,1,14,0:0:0:0:
80,88,21175,1,14,0:0:0:0:
76,116,21261,1,14,0:0:0:0:
76,152,21346,1,14,0:0:0:0:
76,176,21431,1,14,0:0:0:0:
72,200,21516,1,14,0:0:0:0:
72,232,21601,1,14,0:0:0:0:
72,272,21772,2,14,B|64:312|72:316|76:312|80:300,5,35
252,188,22454,5,0,0:0:0:0:
152,288,22624,1,0,0:0:0:0:
352,92,22795,1,0,0:0:0:0:
152,84,22965,1,0,0:0:0:0:
344,288,23136,1,0,0:0:0:0:
252,188,23306,5,0,0:0:0:0:
152,288,23476,1,0,0:0:0:0:
352,88,23647,1,0,0:0:0:0:
152,84,23817,1,0,0:0:0:0:
344,288,23988,1,0,0:0:0:0:
252,188,24158,5,0,0:0:0:0:
152,84,24329,1,0,0:0:0:0:
344,288,24499,1,0,0:0:0:0:
156,284,24670,1,0,0:0:0:0:
352,88,24840,1,0,0:0:0:0:
252,188,25181,5,0,0:0:0:0:
352,88,25351,1,0,0:0:0:0:
156,284,25522,1,0,0:0:0:0:
344,288,25692,1,0,0:0:0:0:
152,84,25863,1,0,0:0:0:0:
252,188,26033,5,0,0:0:0:0:
152,288,26203,1,0,0:0:0:0:
352,88,26374,1,0,0:0:0:0:
152,84,26544,1,0,0:0:0:0:
344,288,26715,1,0,0:0:0:0:
252,188,27056,5,0,0:0:0:0:
152,84,27227,1,0,0:0:0:0:
344,288,27397,1,0,0:0:0:0:
156,284,27568,1,0,0:0:0:0:
352,88,27738,1,0,0:0:0:0:
112,56,27908,6,2,L|112:100,1,35
104,292,28078,2,2,L|152:288,1,35
384,296,28249,2,2,L|392:252,1,35
376,64,28419,2,2,L|340:68,1,35
200,60,28931,5,0,0:0:0:0:
304,304,29101,1,0,0:0:0:0:
228,120,29272,1,0,0:0:0:0:
276,252,29442,1,0,0:0:0:0:
248,188,29613,1,0,0:0:0:0:
276,252,29783,5,0,0:0:0:0:
228,120,29954,1,0,0:0:0:0:
304,304,30124,1,0,0:0:0:0:
200,60,30295,1,0,0:0:0:0:
248,184,30465,5,0,0:0:0:0:
320,144,30636,1,0,0:0:0:0:
180,212,30806,1,0,0:0:0:0:
392,100,30976,1,0,0:0:0:0:
108,256,31147,1,0,0:0:0:0:
248,188,31317,5,0,0:0:0:0:
180,212,31488,1,0,0:0:0:0:
320,144,31658,1,0,0:0:0:0:
112,248,31829,1,0,0:0:0:0:
392,100,31999,1,0,0:0:0:0:
256,192,32084,12,0,32851,0:0:0:0:
252,56,33192,5,0,0:0:0:0:
260,328,33363,1,0,0:0:0:0:
256,196,33533,1,0,0:0:0:0:
412,192,33703,1,0,0:0:0:0:
104,184,33874,1,0,0:0:0:0:
260,360,34045,5,0,0:0:0:0:
248,8,34215,1,0,0:0:0:0:
256,196,34386,1,0,0:0:0:0:
56,184,34556,1,0,0:0:0:0:
452,192,34726,1,0,0:0:0:0:
120,12,34897,5,0,0:0:0:0:
440,348,35067,1,0,0:0:0:0:
448,8,35238,1,0,0:0:0:0:
116,340,35408,1,0,0:0:0:0:
448,8,35749,5,0,0:0:0:0:
116,340,35919,1,0,0:0:0:0:
128,16,36090,1,0,0:0:0:0:
440,348,36260,1,0,0:0:0:0:
448,40,36431,5,0,0:0:0:0:
120,344,36601,1,0,0:0:0:0:
448,124,36772,1,0,0:0:0:0:
116,256,36942,1,0,0:0:0:0:
444,212,37113,1,0,0:0:0:0:
112,172,37283,1,0,0:0:0:0:
448,300,37454,1,0,0:0:0:0:
112,88,37624,1,0,0:0:0:0:
448,372,37795,1,0,0:0:0:0:
116,12,37965,1,0,0:0:0:0:
116,340,38136,5,0,0:0:0:0:
444,24,38306,1,0,0:0:0:0:
116,256,38476,1,0,0:0:0:0:
444,108,38647,1,0,0:0:0:0:
116,168,38817,1,0,0:0:0:0:
444,204,38988,1,0,0:0:0:0:
116,84,39158,1,0,0:0:0:0:
444,288,39329,1,0,0:0:0:0:
116,12,39499,1,0,0:0:0:0:
448,372,39670,1,0,0:0:0:0:
56,192,39840,5,0,0:0:0:0:
460,188,40011,1,0,0:0:0:0:
140,188,40181,1,0,0:0:0:0:
376,188,40351,1,0,0:0:0:0:
224,192,40522,1,0,0:0:0:0:
300,196,40692,1,0,0:0:0:0:
256,32,40863,5,0,0:0:0:0:
252,344,41033,1,0,0:0:0:0:
256,108,41204,1,0,0:0:0:0:
252,264,41374,1,0,0:0:0:0:
252,184,41545,1,0,0:0:0:0:
252,184,41715,5,0,0:0:0:0:
252,184,41886,1,0,0:0:0:0:
252,184,42056,1,0,0:0:0:0:
252,184,42226,1,0,0:0:0:0:
256,176,42397,1,0,0:0:0:0:
252,184,42567,1,0,0:0:0:0:
260,180,42738,1,0,0:0:0:0:
256,180,42908,1,0,0:0:0:0:
252,184,43079,1,0,0:0:0:0:
256,180,43249,1,0,0:0:0:0:
252,184,43420,1,0,0:0:0:0:
252,184,43590,1,14,0:0:0:0:
96,344,44272,5,0,0:0:0:0:
180,344,44442,1,0,0:0:0:0:
264,344,44613,1,0,0:0:0:0:
352,344,44783,1,0,0:0:0:0:
436,344,44954,1,0,0:0:0:0:
432,256,45124,1,0,0:0:0:0:
352,256,45295,1,0,0:0:0:0:
264,252,45465,1,0,0:0:0:0:
176,256,45636,1,0,0:0:0:0:
92,248,45806,1,0,0:0:0:0:
104,168,45976,5,0,0:0:0:0:
192,168,46147,1,0,0:0:0:0:
104,168,46317,1,0,0:0:0:0:
280,168,46488,1,0,0:0:0:0:
192,168,46658,1,0,0:0:0:0:
280,168,46829,1,0,0:0:0:0:
364,164,46999,1,0,0:0:0:0:
280,168,47170,1,0,0:0:0:0:
460,48,47340,6,14,L|460:320,1,245
92,40,49386,5,6,0:0:0:0:
500,124,49726,1,2,0:0:0:0:
92,204,50067,1,2,0:0:0:0:
500,296,50408,1,2,0:0:0:0:
100,372,50749,1,2,0:0:0:0:
500,296,51090,1,2,0:0:0:0:
92,204,51943,1,2,0:0:0:0:
500,124,52113,1,2,0:0:0:0:
92,40,52284,1,2,0:0:0:0:
260,188,53136,5,0,0:0:0:0:
260,188,53306,1,2,0:0:0:0:
260,188,53477,1,2,0:0:0:0:
260,188,53647,1,2,0:0:0:0:
260,188,53818,1,2,0:0:0:0:
