osu file format v13

[General]
AudioFilename: sgd-bms.mp3
AudioLeadIn: 0
PreviewTime: 89911
Countdown: 1
SampleSet: None
StackLeniency: 0.7
Mode: 0
LetterboxInBreaks: 0
WidescreenStoryboard: 1

[Editor]
Bookmarks: 12223,45865,68061,79160,112454
DistanceSpacing: 0.5
BeatDivisor: 4
GridSize: 4
TimelineZoom: 2.4

[Metadata]
Title:Sun Goes Down (BMS edit)
TitleUnicode:Sun Goes Down (BMS edit)
Artist:void
ArtistUnicode:void
Creator:Mei
Version:Sunset
Source:
Tags:
BeatmapID:555161
BeatmapSetID:235338

[Difficulty]
HPDrainRate:6.5
CircleSize:4.3
OverallDifficulty:7
ApproachRate:9
SliderMultiplier:1.7
SliderTickRate:1

[Events]
//Background and Video events
0,0,"hey.jpg",0,0
//Break Periods
//Storyboard Layer 0 (Background)
//Storyboard Layer 1 (Fail)
//Storyboard Layer 2 (Pass)
//Storyboard Layer 3 (Foreground)
//Storyboard Sound Samples
//Background Colour Transformations
3,100,163,162,255

[TimingPoints]
85,346.820809248555,4,2,0,50,1,0
85,-133.333333333333,4,2,0,50,0,0
605,-100,4,2,0,50,0,0
865,-133.333333333333,4,2,0,15,0,0
952,-133.333333333333,4,2,0,50,0,0
2859,-100,4,2,0,50,0,0
3119,-133.333333333333,4,2,0,15,0,0
3206,-133.333333333333,4,2,0,50,0,0
4246,-100,4,2,0,50,0,0
4506,-133.333333333333,4,2,0,15,0,0
4593,-133.333333333333,4,2,0,50,0,0
5634,-100,4,2,0,50,0,0
5894,-133.333333333333,4,2,0,15,0,0
5980,-133.333333333333,4,2,0,50,0,0
7021,-100,4,2,0,50,0,0
7281,-133.333333333333,4,2,0,15,0,0
7368,-133.333333333333,4,2,0,50,0,0
8408,-100,4,2,0,50,0,0
8668,-133.333333333333,4,2,0,15,0,0
8755,-133.333333333333,4,2,0,50,0,0
9795,-100,4,2,0,50,0,0
10316,-100,4,2,0,50,0,0
10836,-133.333333333333,4,2,0,50,0,0
11183,-100,4,2,0,50,0,0
11703,-133.333333333333,4,2,0,50,0,0
12570,-100,4,2,0,60,0,0
12830,-100,4,2,0,15,0,0
12917,-100,4,2,0,60,0,0
14217,-100,4,2,0,15,0,0
14304,-100,4,2,0,60,0,0
15605,-100,4,2,0,15,0,0
15691,-100,4,2,0,60,0,0
20894,-100,4,2,0,62,0,0
21241,-100,4,2,0,64,0,0
21587,-100,4,2,0,66,0,0
21934,-100,4,2,0,68,0,0
22281,-100,4,2,0,70,0,0
22541,-100,4,2,0,15,0,0
22628,-100,4,2,0,70,0,0
22975,-100,4,2,0,15,0,0
23061,-100,4,2,0,70,0,0
23408,-100,4,2,0,15,0,0
23495,-100,4,2,0,70,0,0
23668,-133.333333333333,4,2,0,50,0,0
23928,-133.333333333333,4,2,0,15,0,0
24015,-133.333333333333,4,2,0,50,0,0
25923,-100,4,2,0,50,0,0
26183,-100,4,2,0,15,0,0
26269,-133.333333333333,4,2,0,50,0,0
26443,-100,4,2,0,50,0,0
26703,-100,4,2,0,15,0,0
26790,-133.333333333333,4,2,0,50,0,0
29217,-100,4,2,0,50,0,0
29478,-133.333333333333,4,2,0,15,0,0
29564,-133.333333333333,4,2,0,50,0,0
30605,-100,4,2,0,50,0,0
30865,-133.333333333333,4,2,0,15,0,0
30952,-133.333333333333,4,2,0,50,0,0
31732,-133.333333333333,4,2,0,15,0,0
31819,-133.333333333333,4,2,0,50,0,0
35027,-133.333333333333,4,2,0,15,0,0
35113,-133.333333333333,4,2,0,50,0,0
36414,-133.333333333333,4,2,0,15,0,0
36501,-133.333333333333,4,2,0,50,0,0
37281,-133.333333333333,4,2,0,15,0,0
37368,-133.333333333333,4,2,0,50,0,0
38495,-133.333333333333,4,2,0,15,0,0
38582,-133.333333333333,4,2,0,60,0,0
38928,-133.333333333333,4,2,0,62,0,0
39275,-133.333333333333,4,2,0,64,0,0
39622,-133.333333333333,4,2,0,66,0,0
39969,-133.333333333333,4,2,0,68,0,0
40316,-133.333333333333,4,2,0,70,0,0
40749,-133.333333333333,4,2,0,15,0,0
40836,-133.333333333333,4,2,0,70,0,0
42137,-133.333333333333,4,2,0,15,0,0
42223,-133.333333333333,4,2,0,70,0,0
43524,-133.333333333333,4,2,0,15,0,0
43611,-133.333333333333,4,2,0,70,0,0
44478,-133.333333333333,4,2,0,75,0,0
44651,-133.333333333333,4,2,0,80,0,0
44824,-133.333333333333,4,2,0,85,0,0
44998,-133.333333333333,4,2,0,90,0,0
45171,-133.333333333333,4,2,0,80,0,0
45345,-133.333333333333,4,2,0,70,0,0
45518,-133.333333333333,4,2,0,60,0,0
45691,-133.333333333333,4,2,0,50,0,0
45791,-100,4,2,0,50,0,0
47252,-133.333333333333,4,2,0,50,0,0
48639,-100,4,2,0,50,0,0
50027,-133.333333333333,4,2,0,50,0,0
51414,-100,4,2,0,50,0,0
52801,-133.333333333333,4,2,0,50,0,0
54189,-100,4,2,0,50,0,0
55576,-133.333333333333,4,2,0,50,0,0
59998,-133.333333333333,4,2,0,15,0,0
60085,-133.333333333333,4,2,0,50,0,0
68061,-133.333333333333,4,2,0,50,0,0
69275,-133.333333333333,4,2,0,15,0,0
69449,-133.333333333333,4,2,0,50,0,0
70663,-133.333333333333,4,2,0,15,0,0
70836,-133.333333333333,4,2,0,50,0,0
72223,-133.333333333333,4,2,0,15,0,0
73611,-133.333333333333,4,2,0,30,0,0
74131,-133.333333333333,4,2,0,45,0,0
74998,-133.333333333333,4,2,0,50,0,0
83321,-100,4,2,0,50,0,0
101356,-200,4,2,0,50,0,0
102397,-133.333333333333,4,2,0,50,0,0
102743,-100,4,2,0,50,0,0
103784,-133.333333333333,4,2,0,50,0,0
104131,-200,4,2,0,50,0,0
104824,-133.333333333333,4,2,0,50,0,0
105518,-133.333333333333,4,2,0,30,0,0
106212,-100,4,2,0,50,0,0
134478,-66.6666666666667,4,2,0,50,0,0
134738,-66.6666666666667,4,2,0,15,0,0

[HitObjects]
132,100,85,6,0,P|188:144|192:224,1,127.500004863739
264,300,605,2,0,P|204:292|132:244,1,127.5
120,232,952,1,0,0:0:0:0:
292,112,1125,2,0,P|344:104|376:108,1,63.7500024318696
468,148,1472,5,0,0:0:0:0:
376,184,1645,1,0,0:0:0:0:
416,320,1819,2,0,P|400:288|352:264,1,63.7500024318696
204,56,2165,5,0,0:0:0:0:
288,112,2339,1,0,0:0:0:0:
208,236,2512,2,0,P|227:195|258:170,1,63.7500024318696
304,288,2859,6,0,P|268:316|188:308,1,127.5
160,296,3206,1,0,0:0:0:0:
352,228,3379,1,0,0:0:0:0:
236,200,3553,6,0,L|170:181,1,63.7500024318696
376,292,3900,2,0,L|448:312,1,63.7500024318696
236,88,4246,6,0,P|271:56|352:44,1,127.5
368,44,4593,1,0,0:0:0:0:
324,144,4767,1,0,0:0:0:0:
176,144,4940,6,0,P|148:124|132:88,1,63.7500024318696
56,72,5286,2,0,P|76:40|112:24,1,63.7500024318696
288,176,5634,6,0,P|244:228|176:232,1,127.5
152,244,5980,2,0,P|200:276|232:276,1,63.7500024318696
356,296,6327,1,0,0:0:0:0:
156,320,6501,1,0,0:0:0:0:
288,212,6674,2,0,P|328:188|360:180,1,63.7500024318696
464,76,7021,6,0,P|484:136|452:204,1,127.5
456,220,7368,2,0,L|380:252,1,63.7500024318696
364,264,7628,5,0,0:0:0:0:
368,248,7715,1,0,0:0:0:0:
372,232,7801,1,0,0:0:0:0:
376,216,7888,1,0,0:0:0:0:
344,360,8061,1,0,0:0:0:0:
416,320,8235,1,0,0:0:0:0:
308,304,8408,6,0,L|188:256,1,127.5
156,252,8755,2,0,L|124:316,1,63.7500024318696
128,312,9015,1,0,0:0:0:0:
128,312,9102,2,0,L|66:298,1,63.7500024318696
104,164,9449,2,0,L|92:226,1,63.7500024318696,0|0,0:0|0:0,0:0:0:0:
140,120,9795,2,0,P|180:88|272:100,1,127.5
272,104,10142,1,0,0:0:0:0:
388,132,10316,2,0,P|328:184|240:160,1,170,0|0,0:0|0:0,0:0:0:0:
264,288,10836,6,0,P|252:248|228:216,1,63.7500024318696,0|0,0:0|0:0,0:0:0:0:
96,372,11183,2,0,P|156:308|240:288,1,170
352,324,11703,1,0,0:0:0:0:
332,340,11790,1,0,0:0:0:0:
312,356,11876,2,0,P|276:360|244:344,1,63.7500024318696
348,260,12223,2,0,P|384:276|408:300,1,63.7500024318696
252,164,12570,1,0,0:0:0:0:
252,164,12657,1,0,0:0:0:0:
252,164,12743,2,0,P|236:108|232:96,1,42.5
224,56,12917,5,0,0:0:0:0:
352,84,13090,2,0,L|444:108,1,85
496,124,13437,1,0,0:0:0:0:
300,160,13611,2,0,L|188:176,1,85
48,192,13957,1,0,0:0:0:0:
48,192,14044,1,0,0:0:0:0:
48,192,14131,2,0,L|88:232,1,42.5
144,268,14304,5,0,0:0:0:0:
260,248,14478,2,0,L|348:236,1,85,0|0,0:0|0:0,0:0:0:0:
476,232,14824,1,0,0:0:0:0:
348,296,14998,2,0,L|232:336,1,85
168,356,15345,1,0,0:0:0:0:
168,356,15431,1,0,0:0:0:0:
168,356,15518,2,0,L|124:328,1,42.5
60,288,15691,5,0,0:0:0:0:
216,252,15865,2,0,L|300:236,1,85
448,220,16212,1,0,0:0:0:0:
256,184,16385,2,0,L|148:168,1,85
12,140,16732,1,0,0:0:0:0:
12,140,16819,1,0,0:0:0:0:
12,140,16905,2,0,L|72:116,1,42.5
188,84,17079,5,0,0:0:0:0:
184,188,17252,2,0,L|184:284,1,85
240,352,17599,1,0,0:0:0:0:
256,244,17772,2,0,L|256:144,1,85
408,40,18119,5,0,0:0:0:0:
372,56,18206,1,0,0:0:0:0:
340,72,18293,2,0,L|432:96,1,85
500,104,18639,1,0,0:0:0:0:
384,164,18813,2,0,L|301:186,1,85
256,244,19160,2,0,L|172:204,1,85
268,344,19506,1,0,0:0:0:0:
300,324,19593,1,0,0:0:0:0:
336,308,19680,2,0,L|418:330,1,85
504,352,20027,1,0,0:0:0:0:
148,264,20200,6,0,L|164:356,1,85
208,200,20547,2,0,L|224:100,1,85
224,280,20894,1,0,0:0:0:0:
164,140,21067,1,0,0:0:0:0:
280,124,21241,1,0,0:0:0:0:
148,264,21414,1,0,0:0:0:0:
224,88,21587,1,0,0:0:0:0:
296,320,21761,1,0,0:0:0:0:
60,260,21934,1,0,0:0:0:0:
280,124,22108,1,0,0:0:0:0:
124,188,22281,5,0,0:0:0:0:
124,188,22368,1,0,0:0:0:0:
124,188,22454,2,0,L|172:168,1,42.5
280,124,22628,1,0,0:0:0:0:
200,352,22801,1,0,0:0:0:0:
392,208,22975,1,0,0:0:0:0:
372,220,23061,1,0,0:0:0:0:
356,232,23148,1,0,0:0:0:0:
340,244,23235,1,0,0:0:0:0:
324,256,23321,2,0,L|388:244,1,42.5,0|0,0:0|0:0,0:0:0:0:
504,252,23495,1,0,0:0:0:0:
280,148,23668,6,0,L|184:80,1,95.6250036478044
184,144,24015,2,0,L|156:220,1,63.7500024318696
100,300,24362,1,0,0:0:0:0:
72,288,24448,1,0,0:0:0:0:
44,276,24535,1,0,0:0:0:0:
120,104,24709,6,0,L|156:28,1,63.7500024318696
328,252,25056,2,0,L|204:276,1,95.6250036478044
188,280,25402,2,0,L|232:300,1,31.8750012159348
292,328,25576,1,0,0:0:0:0:
120,252,25749,1,0,0:0:0:0:
416,204,25923,2,0,L|272:224,1,127.5
208,232,26269,1,0,0:0:0:0:
312,352,26443,2,0,P|280:312|196:280,1,127.5
96,240,26790,1,0,0:0:0:0:
316,172,26963,1,0,0:0:0:0:
152,352,27137,5,0,0:0:0:0:
152,352,27223,1,0,0:0:0:0:
152,352,27310,2,0,L|168:312,1,31.8750012159348
208,232,27483,1,0,0:0:0:0:
260,312,27657,1,0,0:0:0:0:
168,116,27830,5,0,0:0:0:0:
220,164,28004,1,0,0:0:0:0:
148,184,28177,1,0,0:0:0:0:
416,236,28350,1,0,0:0:0:0:
260,312,28524,1,0,0:0:0:0:
320,264,28697,1,0,0:0:0:0:
328,340,28871,5,0,0:0:0:0:
112,368,29044,1,0,0:0:0:0:
44,172,29217,6,0,L|88:312,1,127.5
88,304,29564,1,0,0:0:0:0:
128,196,29738,1,0,0:0:0:0:
136,168,29824,1,0,0:0:0:0:
144,140,29911,2,0,L|224:136,1,63.7500024318696
304,192,30258,2,0,L|232:196,1,63.7500024318696
248,144,30605,6,0,L|280:16,1,127.5
284,11,30952,1,0,0:0:0:0:
332,80,31125,2,0,L|404:64,1,63.7500024318696
460,76,31385,1,0,0:0:0:0:
460,76,31472,2,0,L|456:176,1,95.6250036478044
456,228,31819,1,0,0:0:0:0:
232,208,31992,6,0,L|300:196,1,63.7500024318696
360,188,32252,1,0,0:0:0:0:
360,188,32339,2,0,L|381:127,1,63.7500024318696
328,300,32686,1,0,0:0:0:0:
320,320,32772,1,0,0:0:0:0:
312,340,32859,2,0,L|224:320,1,63.7500024318696
124,300,33206,5,0,0:0:0:0:
228,208,33379,2,0,L|152:236,1,63.7500024318696
40,168,33726,2,0,L|116:192,1,63.7500024318696
100,112,34073,2,0,L|64:56,1,63.7500024318696
152,52,34420,6,0,L|228:28,1,63.7500024318696
348,184,34767,2,0,L|240:224,1,95.6250036478044
212,232,35113,1,0,0:0:0:0:
348,100,35287,1,0,0:0:0:0:
304,76,35373,1,0,0:0:0:0:
264,48,35460,2,0,L|327:44,1,63.7500024318696
480,176,35807,2,0,L|408:180,1,63.7500024318696
148,136,36154,2,0,L|244:168,1,95.6250036478044
280,180,36501,1,0,0:0:0:0:
164,212,36674,2,0,L|101:225,1,63.7500024318696
148,284,36934,1,0,0:0:0:0:
148,284,37021,2,0,L|232:348,1,95.6250036478044
284,376,37368,1,0,0:0:0:0:
256,264,37541,6,0,L|240:192,1,63.7500024318696
152,144,37801,1,0,0:0:0:0:
152,144,37888,2,0,L|172:232,1,63.7500024318696
224,104,38235,1,0,0:0:0:0:
208,64,38321,1,0,0:0:0:0:
192,28,38408,2,0,L|244:44,1,31.8750012159348
348,72,38582,1,0,0:0:0:0:
224,104,38755,1,0,0:0:0:0:
288,264,38928,5,0,0:0:0:0:
340,208,39102,1,0,0:0:0:0:
360,284,39275,1,0,0:0:0:0:
128,240,39449,1,0,0:0:0:0:
164,304,39622,1,0,0:0:0:0:
88,308,39795,1,0,0:0:0:0:
336,368,39969,1,0,0:0:0:0:
264,344,40142,1,0,0:0:0:0:
180,120,40316,6,0,L|160:204,1,63.7500024318696
152,224,40576,1,0,0:0:0:0:
152,224,40663,2,0,L|100:204,1,31.8750012159348
32,168,40836,1,0,0:0:0:0:
224,286,41009,2,0,L|296:268,1,63.7500024318696
128,320,41356,2,0,L|85:302,1,31.8750012159348
192,344,41530,1,0,0:0:0:0:
300,168,41703,6,0,L|324:240,1,63.7500024318696
348,268,41963,1,0,0:0:0:0:
348,268,42050,2,0,L|388:236,1,31.8750012159348
432,208,42223,1,0,0:0:0:0:
370,354,42397,6,0,L|312:328,1,63.7500024318696
416,320,42743,2,0,L|447:316,1,31.8750012159348
312,328,42917,1,0,0:0:0:0:
252,160,43090,6,0,L|236:240,1,63.7500024318696
164,232,43350,1,0,0:0:0:0:
164,232,43437,2,0,L|208:200,1,31.8750012159348
324,124,43610,1,0,0:0:0:0:
372,252,43784,6,0,L|288:236,1,63.7500024318696
164,232,44131,2,0,L|220:300,1,63.7500024318696
104,188,44478,5,0,0:0:0:0:
248,180,44651,1,0,0:0:0:0:
96,264,44824,1,0,0:0:0:0:
68,120,44998,1,0,0:0:0:0:
172,164,45171,1,0,0:0:0:0:
36,228,45345,1,0,0:0:0:0:
224,268,45518,1,0,0:0:0:0:
8,312,45691,1,0,0:0:0:0:
248,180,45865,6,0,L|392:132,2,127.5,0|0|0,0:0|0:0|0:0,0:0:0:0:
224,268,46558,2,0,L|88:224,2,127.5,0|0|0,0:0|0:0|0:0,0:0:0:0:
244,340,47252,1,0,0:0:0:0:
244,340,47339,1,0,0:0:0:0:
244,340,47426,2,0,P|263:297|308:276,1,95.6250036478044
344,296,47772,1,0,0:0:0:0:
260,192,47946,5,0,0:0:0:0:
276,208,48032,1,0,0:0:0:0:
300,232,48119,2,0,L|228:224,1,63.7500024318696
436,240,48466,1,0,0:0:0:0:
440,28,48639,2,0,L|432:120,1,85
368,112,48900,2,0,L|228:72,1,127.5,0|0,0:0|0:0,0:0:0:0:
256,156,49333,2,0,L|128:188,2,127.5,0|0|0,0:0|0:0|0:0,0:0:0:0:
36,272,50027,5,0,0:0:0:0:
72,284,50113,1,0,0:0:0:0:
108,296,50200,2,0,L|204:336,1,95.6250036478044
224,360,50547,1,0,0:0:0:0:
308,256,50720,5,0,0:0:0:0:
332,244,50807,1,0,0:0:0:0:
356,228,50894,1,0,0:0:0:0:
380,212,50980,1,0,0:0:0:0:
404,196,51067,2,0,L|368:156,1,31.8750012159348
308,96,51241,1,0,0:0:0:0:
447,335,51414,2,0,P|384:356|328:316,1,127.5,0|0,0:0|0:0,0:0:0:0:
316,296,51761,5,0,0:0:0:0:
348,192,51934,1,0,0:0:0:0:
256,224,52108,2,0,P|180:204|136:252,2,127.5,0|0|0,0:0|0:0|0:0,0:0:0:0:
124,352,52801,1,0,0:0:0:0:
88,324,52888,1,0,0:0:0:0:
60,292,52975,2,0,L|168:304,1,95.6250036478044
220,312,53321,1,0,0:0:0:0:
100,160,53495,5,0,0:0:0:0:
120,176,53582,1,0,0:0:0:0:
144,196,53668,1,0,0:0:0:0:
172,220,53755,1,0,0:0:0:0:
200,240,53842,2,0,L|188:184,1,31.8750012159348
176,80,54015,1,0,0:0:0:0:
224,128,54189,6,0,P|276:104|348:124,2,127.5,0|0|0,0:0|0:0|0:0,0:0:0:0:
316,292,54882,2,0,P|276:240|312:168,2,127.5,0|0|0,0:0|0:0|0:0,0:0:0:0:
392,312,55576,1,0,0:0:0:0:
428,284,55663,1,0,0:0:0:0:
456,252,55750,2,0,L|348:264,1,95.6250036478044
296,272,56096,1,0,0:0:0:0:
128,156,56269,2,0,L|221:135,1,95.6250036478044
252,144,56616,1,0,0:0:0:0:
280,168,56703,1,0,0:0:0:0:
304,188,56790,1,0,0:0:0:0:
236,320,56963,5,0,0:0:0:0:
144,276,57137,2,0,L|140:200,1,63.7500024318696
136,120,57483,1,0,0:0:0:0:
256,192,57657,2,0,L|208:200,2,31.8750012159348,0|0|0,0:0|0:0|0:0,0:0:0:0:
240,264,58004,5,0,0:0:0:0:
356,112,58177,1,0,0:0:0:0:
324,368,58350,1,0,0:0:0:0:
328,328,58437,1,0,0:0:0:0:
336,292,58524,2,0,L|389:257,1,63.7500024318696
460,208,58871,1,0,0:0:0:0:
364,180,59044,2,0,L|312:164,2,31.8750012159348,0|0|0,0:0|0:0|0:0,0:0:0:0:
300,224,59391,5,0,0:0:0:0:
448,96,59564,1,0,0:0:0:0:
472,312,59738,2,0,P|412:308|372:272,1,95.6250036478044
340,256,60085,1,0,0:0:0:0:
184,216,60258,6,0,L|260:272,1,63.7500024318696
304,296,60518,1,0,0:0:0:0:
304,296,60605,2,0,L|248:304,1,31.8750012159348
132,320,60778,1,0,0:0:0:0:
184,216,60952,5,0,0:0:0:0:
32,136,61125,2,0,L|72:80,1,63.7500024318696
116,32,61385,1,0,0:0:0:0:
116,32,61472,2,0,P|160:56|160:144,1,127.500004863739
136,180,61992,1,0,0:0:0:0:
244,256,62165,6,0,P|211:249|172:211,1,63.7500024318696
296,196,62512,2,0,L|376:168,1,63.7500024318696
336,268,62859,2,0,L|312:336,1,63.7500024318696
232,320,63206,2,0,L|156:316,1,63.7500024318696
28,264,63553,2,0,L|104:268,1,63.7500024318696
248,240,63900,6,0,L|168:240,1,63.7500024318696
88,152,64246,2,0,L|134:195,1,63.7500024318696
192,104,64593,2,0,L|208:28,1,63.7500024318696
320,148,64940,2,0,L|256:160,1,63.7500024318696
184,172,65287,5,0,0:0:0:0:
120,112,65460,1,0,0:0:0:0:
248,36,65634,1,0,0:0:0:0:
160,244,65807,1,0,0:0:0:0:
12,88,65980,1,0,0:0:0:0:
272,164,66154,1,0,0:0:0:0:
0,244,66327,1,0,0:0:0:0:
376,328,66587,1,0,0:0:0:0:
292,308,66674,5,0,0:0:0:0:
248,308,66761,1,0,0:0:0:0:
208,308,66848,1,0,0:0:0:0:
340,252,67021,1,0,0:0:0:0:
328,224,67108,1,0,0:0:0:0:
316,196,67194,1,0,0:0:0:0:
436,152,67368,1,0,0:0:0:0:
424,184,67454,1,0,0:0:0:0:
412,216,67541,1,0,0:0:0:0:
356,288,67715,6,0,P|408:272|452:292,1,95.6250036478044
396,340,68061,2,0,P|352:360|408:200,1,446.250017023087
348,244,69449,6,0,P|298:201|479:178,1,446.250017023087
224,244,70836,6,0,P|283:225|132:184,1,510.000019454957
256,228,73264,6,0,L|104:228,1,127.500004863739
88,224,73697,1,0,0:0:0:0:
88,224,73784,2,0,P|92:176|168:120,1,127.500004863739
324,140,74304,6,0,P|272:188|212:172,1,127.500004863739
128,128,74824,1,0,0:0:0:0:
164,304,74998,5,0,0:0:0:0:
160,284,75085,1,0,0:0:0:0:
156,268,75171,2,0,P|176:304|272:300,1,127.500004863739
320,256,75691,2,0,P|348:304|312:372,1,127.500004863739
248,168,76212,5,0,0:0:0:0:
248,168,76298,1,0,0:0:0:0:
248,168,76385,2,0,P|280:136|324:132,1,63.7500024318696
440,224,76732,2,0,P|380:228|316:196,1,127.500004863739
168,48,77252,6,0,P|204:68|220:96,1,63.7500024318696
256,268,77599,1,0,0:0:0:0:
20,304,77772,1,0,0:0:0:0:
20,304,77859,1,0,0:0:0:0:
20,304,77946,2,0,P|72:308|140:356,1,127.500004863739
224,300,78466,2,0,P|264:296|304:308,1,63.7500024318696
380,268,78813,2,0,P|380:324|360:348,1,63.7500024318696
320,192,79160,5,0,0:0:0:0:
320,192,79246,1,0,0:0:0:0:
320,192,79333,2,0,P|376:176|428:192,1,95.6250036478044
456,192,79680,2,0,P|415:150|405:96,1,95.6250036478044
396,32,80027,1,0,0:0:0:0:
308,104,80200,2,0,P|248:112|176:80,1,127.500004863739
104,48,80634,5,0,0:0:0:0:
104,48,80720,2,0,P|92:112|52:136,1,95.6250036478044
16,160,81067,2,0,P|68:168|128:224,1,127.500004863739
192,264,81587,2,0,P|144:296|72:268,1,127.500004863739
264,204,82108,5,0,0:0:0:0:
336,256,82281,1,0,0:0:0:0:
384,336,82454,1,0,0:0:0:0:
336,152,82628,5,0,0:0:0:0:
404,76,82801,1,0,0:0:0:0:
488,32,82975,1,0,0:0:0:0:
256,72,83148,5,0,0:0:0:0:
112,168,83321,2,0,P|68:184|8:172,2,85,0|0|0,0:0|0:0|0:0,0:0:0:0:
176,268,83842,2,0,P|180:216|208:192,2,85,0|0|0,0:0|0:0|0:0,0:0:0:0:
248,376,84362,1,0,0:0:0:0:
88,348,84535,1,0,0:0:0:0:
296,300,84708,6,0,P|336:320|360:356,1,85
324,164,85055,2,0,P|332:220|328:252,1,85
448,88,85402,2,0,P|404:144|384:148,1,85
240,104,85749,2,0,P|196:72|176:24,1,85
68,124,86096,5,0,0:0:0:0:
164,176,86269,1,0,0:0:0:0:
48,252,86443,1,0,0:0:0:0:
120,312,86616,1,0,0:0:0:0:
376,272,86790,1,0,0:0:0:0:
204,212,86963,1,0,0:0:0:0:
316,124,87137,1,0,0:0:0:0:
272,300,87310,1,0,0:0:0:0:
44,176,87483,5,0,0:0:0:0:
192,104,87657,1,0,0:0:0:0:
220,256,87830,1,0,0:0:0:0:
352,128,88004,1,0,0:0:0:0:
436,264,88177,5,0,0:0:0:0:
416,264,88264,1,0,0:0:0:0:
392,264,88350,1,0,0:0:0:0:
368,264,88437,1,0,0:0:0:0:
340,264,88524,2,0,L|280:264,1,42.5
220,324,88697,2,0,L|268:324,1,42.5
204,264,88871,2,0,L|148:264,1,42.5
32,264,89044,5,0,0:0:0:0:
140,108,89217,5,0,0:0:0:0:
140,140,89304,1,0,0:0:0:0:
140,172,89391,1,0,0:0:0:0:
140,200,89478,1,0,0:0:0:0:
232,100,89651,5,0,0:0:0:0:
260,100,89738,1,0,0:0:0:0:
356,104,89911,5,0,0:0:0:0:
356,128,89998,1,0,0:0:0:0:
356,148,90085,1,0,0:0:0:0:
356,168,90171,1,0,0:0:0:0:
356,192,90258,1,0,0:0:0:0:
288,280,90431,6,0,L|392:280,1,85
456,280,90778,1,0,0:0:0:0:
312,352,90952,2,0,L|212:352,1,85
144,356,91298,2,0,L|40:356,1,85
192,280,91645,6,0,P|116:240|104:148,1,170
128,80,92165,1,0,0:0:0:0:
256,100,92339,2,0,P|200:126|183:153,1,85
292,176,92686,2,0,P|337:187|365:215,1,85
448,232,93032,5,0,0:0:0:0:
260,264,93206,1,0,0:0:0:0:
400,320,93379,1,0,0:0:0:0:
368,308,93466,1,0,0:0:0:0:
336,296,93553,1,0,0:0:0:0:
232,180,93726,5,0,0:0:0:0:
264,332,93900,1,0,0:0:0:0:
136,304,94073,1,0,0:0:0:0:
164,312,94160,1,0,0:0:0:0:
192,320,94246,1,0,0:0:0:0:
56,284,94420,6,0,P|84:248|140:232,1,85
136,156,94767,2,0,P|184:188|196:232,1,85
56,52,95113,1,0,0:0:0:0:
168,116,95287,1,0,0:0:0:0:
304,148,95460,2,0,P|264:180|212:176,1,85
384,100,95807,2,0,P|440:140|416:256,1,170
360,296,96327,5,0,0:0:0:0:
184,300,96501,2,0,P|220:276|266:269,1,85
284,144,96848,2,0,P|329:204|332:239,1,85
56,212,97194,5,0,0:0:0:0:
116,72,97368,1,0,0:0:0:0:
152,212,97541,2,0,P|156:164|200:124,1,85
236,228,97888,1,0,0:0:0:0:
64,144,98061,1,0,0:0:0:0:
112,284,98235,2,0,P|152:316|197:320,1,85
408,336,98582,6,0,P|352:348|316:344,1,85
240,172,98928,1,0,0:0:0:0:
288,264,99102,1,0,0:0:0:0:
412,152,99275,2,0,P|356:184|336:216,1,85
444,240,99622,1,0,0:0:0:0:
484,88,99795,1,0,0:0:0:0:
264,64,99969,6,0,P|320:80|356:100,1,85
164,152,100316,2,0,P|228:136|264:136,1,85
328,240,100663,2,0,P|268:212|220:204,1,85
84,192,101009,2,0,P|140:232|180:228,1,85
200,308,101356,6,0,P|220:268|260:244,1,85
340,212,101876,1,0,0:0:0:0:
344,348,102050,1,0,0:0:0:0:
320,336,102137,1,0,0:0:0:0:
292,320,102223,1,0,0:0:0:0:
400,272,102397,2,0,P|424:224|424:188,1,63.7500024318696
328,20,102743,2,0,P|400:68|424:156,1,170
340,212,103264,1,0,0:0:0:0:
272,176,103437,5,0,0:0:0:0:
240,156,103524,1,0,0:0:0:0:
216,140,103611,1,0,0:0:0:0:
136,96,103784,2,0,P|140:152|160:168,1,63.7500024318696
188,216,104131,2,0,P|136:244|104:236,1,85
36,212,104651,1,0,0:0:0:0:
232,284,104824,6,0,L|304:304,1,63.7500024318696
436,288,105171,2,0,L|352:264,1,63.7500024318696
240,212,105518,6,0,L|248:216,8,7.9687503039837,0|0|0|0|0|0|0|0|0,0:0|0:0|0:0|0:0|0:0|0:0|0:0|0:0|0:0,0:0:0:0:
144,180,105865,6,0,P|172:144|200:132,1,63.7500024318696
320,72,106212,2,0,P|308:124|280:156,1,85
168,260,106558,1,0,0:0:0:0:
48,216,106732,1,0,0:0:0:0:
308,264,106905,6,0,P|304:320|328:364,1,85
320,72,107252,1,0,0:0:0:0:
388,176,107426,1,0,0:0:0:0:
124,80,107599,2,0,P|188:72|228:76,1,85
392,264,107946,2,0,P|340:272|288:260,1,85
32,92,108293,5,0,0:0:0:0:
176,176,108466,1,0,0:0:0:0:
32,264,108639,2,0,P|20:216|24:176,1,85
284,124,108986,1,0,0:0:0:0:
176,176,109160,1,0,0:0:0:0:
312,296,109333,2,0,P|292:256|248:228,1,85
96,196,109680,2,0,L|40:216,2,42.5,0|0|0,0:0|0:0|0:0,0:0:0:0:
284,124,110027,2,0,P|324:168|360:176,1,85
368,96,110374,5,0,0:0:0:0:
200,48,110547,1,0,0:0:0:0:
164,296,110720,1,0,0:0:0:0:
244,204,110894,1,0,0:0:0:0:
340,312,111067,6,0,P|292:316|236:308,1,85
60,200,111414,2,0,P|124:200|164:208,1,85
368,84,111761,2,0,P|320:80|264:88,1,85
156,20,112108,2,0,P|152:76|168:116,1,85
256,308,112454,6,0,P|272:224|232:132,1,170
88,104,112975,1,0,0:0:0:0:
356,200,113148,1,0,0:0:0:0:
376,172,113235,1,0,0:0:0:0:
412,144,113321,1,0,0:0:0:0:
88,104,113495,2,0,P|152:96|196:104,1,85
336,336,113842,2,0,P|284:276|200:248,1,170
64,272,114362,1,0,0:0:0:0:
264,236,114535,6,0,L|272:176,2,42.5,0|0|0,0:0|0:0|0:0,0:0:0:0:
296,112,114882,2,0,P|368:176|340:256,1,170
156,172,115402,1,0,0:0:0:0:
264,236,115576,1,0,0:0:0:0:
80,288,115749,2,0,L|176:260,1,85
340,352,116096,1,0,0:0:0:0:
228,324,116269,1,0,0:0:0:0:
28,104,116443,5,0,0:0:0:0:
80,192,116616,2,0,P|144:160|180:172,1,85
236,120,116963,2,0,P|236:176|212:212,1,85
336,76,117310,2,0,P|368:48|420:32,1,85
440,196,117657,2,0,P|388:192|344:152,1,85
132,140,118004,2,0,P|200:196|208:284,1,170
144,328,118524,1,0,0:0:0:0:
72,256,118697,6,0,L|24:216,2,42.5,0|0|0,0:0|0:0|0:0,0:0:0:0:
236,336,119044,2,0,P|280:340|340:320,1,85
236,140,119391,2,0,P|308:88|396:64,1,170
480,104,119911,1,0,0:0:0:0:
372,152,120085,6,0,P|400:240|440:288,1,127.5
460,284,120431,2,0,P|408:280|300:332,1,170
196,192,120952,5,0,0:0:0:0:
288,320,121125,1,0,0:0:0:0:
156,328,121298,1,0,0:0:0:0:
60,212,121472,1,0,0:0:0:0:
124,100,121645,1,0,0:0:0:0:
316,104,121819,2,0,L|216:104,1,85
316,196,122165,2,0,L|412:196,1,85
196,192,122512,5,0,0:0:0:0:
168,192,122599,1,0,0:0:0:0:
144,192,122686,1,0,0:0:0:0:
176,352,122859,2,0,L|176:268,1,85
316,104,123206,2,0,L|316:200,1,85
388,264,123553,6,0,P|316:304|244:248,1,170
208,212,123986,1,0,0:0:0:0:
208,212,124073,2,0,P|172:172|124:164,1,85
64,132,124420,2,0,P|100:100|148:100,1,85
140,256,124767,1,0,0:0:0:0:
316,104,124940,2,0,P|292:48|256:24,1,85,0|0,0:0|0:0,0:0:0:0:
260,296,125287,1,0,0:0:0:0:
416,240,125460,2,0,P|457:211|484:174,1,85,0|0,0:0|0:0,3:0:0:0:
456,256,125720,5,0,0:0:0:0:
436,272,125807,1,0,0:0:0:0:
412,284,125894,2,0,P|360:296|284:268,1,127.5
220,308,126327,2,0,P|224:252|316:180,1,170
328,248,126848,1,0,0:0:0:0:
175,113,127021,6,0,P|144:84|104:72,1,85
24,140,127368,1,0,0:0:0:0:
68,212,127541,1,0,0:0:0:0:
220,224,127715,6,0,P|180:252|132:248,1,85
176,116,128061,2,0,P|228:72|264:68,1,85
416,112,128408,2,0,P|432:152|428:208,1,85
348,304,128755,2,0,P|308:328|248:324,1,85
36,220,129102,6,0,P|96:260|128:340,1,127.5
112,336,129449,1,0,0:0:0:0:
196,208,129622,1,0,0:0:0:0:
312,112,129795,2,0,P|384:80|464:92,1,127.5
456,124,130142,6,0,P|392:156|352:224,1,127.5
328,224,130489,2,0,P|360:276|340:360,1,127.5
312,356,130836,2,0,P|256:352|188:284,1,127.5
144,292,131183,2,0,P|176:248|264:228,1,127.5
264,212,131530,2,0,P|240:164|208:136,1,85
92,52,131876,5,0,0:0:0:0:
16,148,132050,1,0,0:0:0:0:
252,228,132223,1,0,0:0:0:0:
252,56,132397,1,0,0:0:0:0:
340,144,132570,5,0,0:0:0:0:
172,144,132743,1,0,0:0:0:0:
392,40,132917,1,0,0:0:0:0:
492,108,133090,1,0,0:0:0:0:
264,212,133264,6,0,P|200:248|164:248,1,85
40,192,133611,2,0,P|112:220|136:240,1,85
104,352,133957,2,0,P|124:304|156:280,1,85
240,152,134304,5,0,0:0:0:0:
280,140,134391,1,0,0:0:0:0:
324,140,134478,2,0,P|272:100|128:72,1,191.250007295609,0|0,0:0|0:0,0:0:0:0:
