osu file format v13

[General]
AudioFilename: sgd-bms.mp3
AudioLeadIn: 0
PreviewTime: 89911
Countdown: 1
SampleSet: Soft
StackLeniency: 0.7
Mode: 0
LetterboxInBreaks: 0
WidescreenStoryboard: 0

[Editor]
Bookmarks: 12223,45865,68061,79160,112454
DistanceSpacing: 0.8
BeatDivisor: 4
GridSize: 4
TimelineZoom: 1.5

[Metadata]
Title:Sun Goes Down (BMS edit)
TitleUnicode:Sun Goes Down (BMS edit)
Artist:void
ArtistUnicode:void
Creator:Mei
Version:Eventide
Source:
Tags:
BeatmapID:545468
BeatmapSetID:235338

[Difficulty]
HPDrainRate:7
CircleSize:4.3
OverallDifficulty:7.5
ApproachRate:9.2
SliderMultiplier:1.7
SliderTickRate:1

[Events]
//Background and Video events
0,0,"hey.jpg",0,0
//Break Periods
//Storyboard Layer 0 (Background)
//Storyboard Layer 1 (Fail)
//Storyboard Layer 2 (Pass)
//Storyboard Layer 3 (Foreground)
//Storyboard Sound Samples
//Background Colour Transformations
3,100,163,162,255

[TimingPoints]
85,346.820809248555,4,2,0,50,1,0
85,-133.333333333333,4,2,0,50,0,0
12570,-117.647058823529,4,2,0,50,0,0
23668,-100,4,2,0,50,0,0
56963,-200,4,2,0,50,0,0
57310,-100,4,2,0,50,0,0
67368,-111.111111111111,4,2,0,50,0,0
67715,-133.333333333333,4,2,0,50,0,0
73611,-200,4,2,0,50,0,0
77772,-133.333333333333,4,2,0,50,0,0
79160,-100,4,3,0,50,0,0
90258,-83.3333333333333,4,2,0,50,0,1
112454,-100,4,2,0,50,0,0
133957,-133.333333333333,4,2,0,50,0,0

[HitObjects]
76,40,85,6,0,P|85:74|180:88,1,127.500004863739,2|0,0:0|0:0,0:0:0:0:
290,122,605,2,0,L|164:97,1,127.500004863739,2|0,0:0|0:0,0:0:0:0:
32,168,1125,2,0,P|16:216|16:248,1,63.7500024318696,2|0,0:0|0:0,0:0:0:0:
80,336,1472,5,8,0:0:0:0:
152,292,1645,1,0,0:0:0:0:
216,348,1819,1,0,0:0:0:0:
272,272,1992,1,8,0:0:0:0:
276,280,2079,1,0,0:0:0:0:
280,288,2165,1,0,0:0:0:0:
352,352,2339,1,0,0:0:0:0:
432,308,2512,1,8,0:0:0:0:
436,300,2599,1,0,0:0:0:0:
440,292,2686,1,0,0:0:0:0:
444,284,2772,1,0,0:0:0:0:
448,276,2859,6,0,B|456:256|456:256|456:184,1,63.7500024318696,8|0,0:0|0:0,0:0:0:0:
376,140,3206,1,0,0:0:0:0:
452,72,3379,2,0,L|500:56,2,31.8750012159348,8|0|0,0:0|0:0|0:0,0:0:0:0:
356,24,3726,1,0,0:0:0:0:
236,52,3900,2,0,L|224:100,1,31.8750012159348,8|0,0:0|0:0,0:0:0:0:
288,180,4073,2,0,L|295:149,1,31.8750012159348,0|0,0:0|0:0,0:0:0:0:
220,232,4246,6,0,P|192:200|168:184,1,63.7500024318696,8|0,0:0|0:0,0:0:0:0:
212,316,4593,2,0,P|253:307|284:288,1,63.7500024318696,8|8,0:0|0:0,0:0:0:0:
140,268,4940,2,0,P|126:308|128:344,2,63.7500024318696,0|8|8,0:0|0:0|0:0,0:0:0:0:
16,208,5460,1,0,0:0:0:0:
92,144,5634,6,0,L|176:148,1,63.7500024318696,8|0,0:0|0:0,0:0:0:0:
352,140,5980,1,8,0:0:0:0:
296,56,6154,2,0,L|212:60,1,63.7500024318696,8|0,0:0|0:0,0:0:0:0:
296,224,6501,1,8,0:0:0:0:
456,152,6674,1,8,0:0:0:0:
456,152,6761,1,0,0:0:0:0:
456,152,6848,1,0,0:0:0:0:
456,152,6934,1,0,0:0:0:0:
456,152,7021,6,0,P|460:192|460:228,1,63.7500024318696,8|0,0:0|0:0,0:0:0:0:
380,352,7368,1,0,0:0:0:0:
296,224,7541,2,0,L|384:228,1,63.7500024318696,8|0,0:0|0:0,0:0:0:0:
264,328,7888,1,0,0:0:0:0:
184,212,8061,1,8,0:0:0:0:
182,218,8148,1,0,0:0:0:0:
180,224,8235,1,0,0:0:0:0:
178,230,8321,1,0,0:0:0:0:
176,236,8408,6,0,L|88:240,1,63.7500024318696,8|0,0:0|0:0,0:0:0:0:
120,48,8755,1,0,0:0:0:0:
136,132,8928,1,8,0:0:0:0:
36,200,9102,2,0,L|20:120,1,63.7500024318696,0|0,0:0|0:0,0:0:0:0:
244,76,9449,1,8,0:0:0:0:
316,148,9622,1,0,0:0:0:0:
348,40,9795,6,0,P|404:24|436:20,1,63.7500024318696,8|0,0:0|0:0,0:0:0:0:
508,96,10142,1,8,0:0:0:0:
384,220,10316,2,0,L|376:144,1,63.7500024318696,8|0,0:0|0:0,0:0:0:0:
476,188,10663,1,8,0:0:0:0:
384,304,10836,1,8,0:0:0:0:
488,364,11009,1,0,0:0:0:0:
480,360,11096,1,0,0:0:0:0:
472,356,11183,5,8,0:0:0:0:
304,260,11356,1,0,0:0:0:0:
460,268,11530,1,8,0:0:0:0:
316,356,11703,2,0,L|264:368,2,31.8750012159348,8|0|0,0:0|0:0|0:0,0:0:0:0:
408,144,12050,1,8,0:0:0:0:
270,181,12223,1,8,0:0:0:0:
270,181,12310,1,0,0:0:0:0:
270,181,12397,1,0,0:0:0:0:
270,181,12483,1,0,0:0:0:0:
270,181,12570,6,0,P|282:125|282:89,1,72.2500013780594,12|0,0:3|0:0,0:0:0:0:
184,24,12917,1,0,0:0:0:0:
108,160,13090,2,0,L|112:252,1,72.2500013780594,8|0,0:0|0:0,0:0:0:0:
192,320,13437,1,0,3:0:0:0:
344,184,13611,1,8,3:0:0:0:
344,184,13697,1,0,0:0:0:0:
344,184,13784,1,0,0:0:0:0:
344,184,13871,1,0,0:0:0:0:
344,184,13957,6,0,P|276:180|252:180,1,72.2500013780594,8|0,0:0|0:0,0:0:0:0:
360,280,14304,1,0,0:0:0:0:
464,156,14478,2,0,L|476:56,1,72.2500013780594,8|0,0:0|0:0,0:0:0:0:
384,12,14824,1,0,3:0:0:0:
252,120,14998,1,8,3:0:0:0:
253,127,15085,1,0,0:0:0:0:
255,135,15171,1,0,0:0:0:0:
256,143,15258,1,0,0:0:0:0:
258,151,15345,6,0,P|220:166|176:191,1,72.2500013780594,8|0,0:0|3:0,0:0:0:0:
116,272,15691,1,0,0:0:0:0:
64,104,15865,2,0,L|68:16,1,72.2500013780594,8|0,0:0|3:0,0:0:0:0:
0,188,16212,1,0,3:0:0:0:
216,240,16385,2,0,L|304:236,1,72.2500013780594,8|0,3:0|0:0,0:0:0:0:
488,68,16732,6,0,L|400:64,1,72.2500013780594,8|0,0:0|0:0,0:0:0:0:
296,16,17079,1,0,0:0:0:0:
480,168,17252,2,0,L|484:240,1,72.2500013780594,8|0,0:0|0:0,0:0:0:0:
360,356,17599,1,0,3:0:0:0:
264,308,17772,1,8,3:0:0:0:
408,244,17946,1,0,0:0:0:0:
296,108,18119,6,0,P|288:172|288:204,1,72.2500013780594,8|0,0:0|0:0,0:0:0:0:
88,320,18466,2,0,P|152:308|184:300,1,72.2500013780594,8|0,0:0|0:0,0:0:0:0:
372,168,18813,2,0,L|376:96|372:64,1,72.2500013780594,8|0,0:0|0:0,0:0:0:0:
136,95,19160,2,0,L|136:96|140:168,1,72.2500013780594,8|8,0:0|3:0,0:0:0:0:
353,306,19506,2,0,P|388:313|424:320,1,72.2500013780594,8|0,0:0|0:0,0:0:0:0:
424,92,19853,2,0,P|388:84|353:78,1,72.2500013780594,8|0,0:0|0:0,0:0:0:0:
158,306,20200,2,0,L|123:313|88:320,1,72.2500013780594,8|0,0:0|0:0,0:0:0:0:
88,92,20547,2,0,P|123:84|158:78,1,72.2500013780594,8|8,0:0|3:0,0:0:0:0:
392,172,20894,5,8,0:0:0:0:
276,328,21067,1,0,0:0:0:0:
120,212,21241,1,8,0:0:0:0:
236,56,21414,1,0,0:0:0:0:
288,219,21587,1,2,0:0:0:0:
263,233,21674,1,2,0:0:0:0:
234,228,21761,1,0,0:0:0:0:
216,206,21848,1,0,0:0:0:0:
216,177,21934,1,0,0:0:0:0:
234,155,22021,1,0,0:0:0:0:
263,150,22108,1,4,0:0:0:0:
288,164,22194,1,4,0:0:0:0:
298,192,22281,6,0,P|296:240|300:284,1,72.2500013780594,2|0,0:1|0:0,0:0:0:0:
376,72,22628,1,2,0:0:0:0:
148,108,22801,1,0,0:0:0:0:
148,108,22888,1,0,0:0:0:0:
148,108,22975,1,2,0:0:0:0:
460,176,23148,2,0,L|464:232,1,36.1250006890297,2|0,0:0|0:0,0:0:0:0:
408,332,23321,1,2,0:0:0:0:
404,316,23668,6,0,L|288:308,1,85,4|0,0:0|0:0,0:0:0:0:
128,340,24015,1,8,0:0:0:0:
220,192,24189,1,0,0:0:0:0:
224,220,24275,1,0,0:0:0:0:
228,248,24362,1,0,0:0:0:0:
40,268,24535,1,0,0:0:0:0:
76,160,24709,2,0,L|176:144,1,85,8|0,0:0|0:0,0:0:0:0:
344,128,25056,6,0,P|300:92|292:48,1,85,0|0,0:0|0:0,0:0:0:0:
384,44,25402,1,8,0:0:0:0:
156,24,25576,2,0,L|96:8,2,42.5,0|0|0,0:0|0:0|0:0,0:0:0:0:
164,172,25923,2,0,P|168:232|160:292,1,85,2|8,0:0|0:0,0:0:0:0:
152,284,26183,1,0,0:0:0:0:
355,332,26356,1,0,0:0:0:0:
344,308,26443,6,0,P|342:266|347:224,1,85,2|0,0:0|0:0,0:0:0:0:
476,96,26790,2,0,L|368:80,1,85,8|2,0:0|0:0,0:0:0:0:
200,116,27137,1,0,0:0:0:0:
196,144,27223,1,0,0:0:0:0:
192,172,27310,1,0,0:0:0:0:
188,200,27397,1,0,0:0:0:0:
184,228,27483,2,0,L|76:244,1,85,8|0,0:0|0:0,0:0:0:0:
268,192,27830,5,2,0:0:0:0:
256,352,28004,1,0,0:0:0:0:
99,240,28177,1,10,0:0:0:0:
320,264,28350,1,0,0:0:0:0:
320,264,28437,1,0,0:0:0:0:
320,264,28524,1,2,0:0:0:0:
368,172,28697,1,0,0:0:0:0:
220,264,28871,1,10,0:0:0:0:
364,356,29044,1,2,0:0:0:0:
512,248,29217,6,0,L|412:232,2,85,0|0|8,0:0|0:0|0:0,0:0:0:0:
432,72,29738,1,0,0:0:0:0:
404,76,29824,1,0,0:0:0:0:
376,80,29911,1,0,0:0:0:0:
268,16,30085,1,0,0:0:0:0:
216,148,30258,2,0,B|324:172,1,85,8|0,0:0|0:0,0:0:0:0:
112,32,30605,6,0,P|100:88|96:148,1,85,0|0,0:0|0:0,0:0:0:0:
168,216,30952,1,8,0:0:0:0:
44,308,31125,1,0,0:0:0:0:
44,308,31212,1,0,0:0:0:0:
44,308,31298,2,0,L|128:304,1,85,0|0,0:0|0:0,0:0:0:0:
300,356,31645,1,8,0:0:0:0:
320,328,31732,2,0,P|336:288|340:240,1,85,0|0,0:0|0:0,0:0:0:0:
340,246,31992,6,0,L|236:224,1,85,0|0,0:0|0:0,0:0:0:0:
88,200,32339,2,0,P|84:136|88:80,1,85,8|0,0:0|0:0,0:0:0:0:
264,72,32686,1,0,0:0:0:0:
84,115,32859,1,0,0:0:0:0:
84,115,32946,1,0,0:0:0:0:
84,115,33032,1,8,0:0:0:0:
180,8,33206,1,0,0:0:0:0:
216,168,33379,6,0,P|256:172|316:168,2,85,0|0|8,0:0|0:0|0:0,0:0:0:0:
376,52,33900,1,0,0:0:0:0:
384,80,33986,1,0,0:0:0:0:
392,108,34073,1,0,0:0:0:0:
304,256,34246,1,0,3:0:0:0:
304,86,34420,1,8,3:0:0:0:
452,172,34593,1,0,3:0:0:0:
296,288,34767,6,0,P|232:284|184:284,1,85,4|0,0:0|0:0,0:0:0:0:
52,356,35113,2,0,P|64:292|68:248,1,85,8|0,0:0|0:0,0:0:0:0:
56,244,35374,1,0,0:0:0:0:
40,220,35460,1,0,0:0:0:0:
224,200,35634,1,0,0:0:0:0:
72,124,35807,2,0,P|64:68|68:16,1,85,8|0,0:0|0:0,0:0:0:0:
304,84,36154,5,0,0:0:0:0:
152,164,36327,1,0,0:0:0:0:
224,24,36501,2,0,P|220:76|220:116,1,85,8|0,0:0|0:0,0:0:0:0:
236,132,36761,1,0,0:0:0:0:
260,152,36848,2,0,L|376:168,1,85,0|0,0:0|0:0,0:0:0:0:
468,304,37194,1,8,0:0:0:0:
448,336,37281,2,0,L|332:352,1,85,0|0,0:0|0:0,0:0:0:0:
364,348,37541,6,0,P|344:296|340:236,1,85,0|0,0:0|0:0,0:0:0:0:
384,144,37888,1,8,0:0:0:0:
248,296,38061,1,0,0:0:0:0:
244,332,38148,1,0,0:0:0:0:
240,364,38235,1,0,0:0:0:0:
120,204,38408,1,0,0:0:0:0:
120,204,38582,2,0,L|112:104,1,85,8|0,0:0|0:0,0:0:0:0:
212,144,38928,5,0,0:0:0:0:
124,284,39102,1,0,0:0:0:0:
32,220,39275,1,8,0:0:0:0:
216,220,39449,1,0,0:0:0:0:
216,220,39535,1,0,0:0:0:0:
216,220,39622,1,0,0:0:0:0:
48,128,39795,1,0,3:0:0:0:
184,120,39969,1,8,3:0:0:0:
108,32,40142,1,0,3:0:0:0:
120,204,40316,6,0,P|108:268|104:320,1,85,2|0,0:0|0:0,0:0:0:0:
120,316,40576,1,2,0:0:0:0:
136,340,40663,2,0,L|248:340,1,85,0|2,0:0|0:0,0:0:0:0:
300,232,41009,1,4,0:0:0:0:
416,352,41183,1,10,0:0:0:0:
420,324,41269,1,2,0:0:0:0:
424,296,41356,2,0,P|496:276|524:272,1,85,8|0,0:0|0:0,0:0:0:0:
362,165,41703,6,0,P|321:152|280:144,1,85,2|0,0:0|0:0,0:0:0:0:
256,160,41963,1,2,0:0:0:0:
232,176,42050,2,0,P|168:192|116:188,1,85,0|2,0:0|0:0,0:0:0:0:
60,48,42397,1,2,0:0:0:0:
40,208,42570,2,0,L|32:272,2,42.5,10|2|8,0:0|0:0|0:0,0:0:0:0:
176,104,42917,1,0,0:0:0:0:
144,312,43090,6,0,L|252:312,1,85,2|0,0:0|0:0,0:0:0:0:
256,324,43350,1,2,0:0:0:0:
283,312,43437,2,0,L|368:312,1,85,0|2,0:0|0:0,0:0:0:0:
292,56,43784,1,2,0:0:0:0:
208,228,43957,1,8,0:0:0:0:
208,228,44044,1,0,0:0:0:0:
208,228,44131,1,0,0:0:0:0:
352,232,44304,1,8,0:0:0:0:
284,141,44478,5,8,0:0:0:0:
284,311,44651,1,0,0:0:0:0:
432,312,44824,2,0,L|432:273|432:227,1,85,8|2,0:0|0:0,0:0:0:0:
208,228,45171,5,2,3:0:0:0:
376,144,45345,1,8,3:0:0:0:
232,40,45518,2,0,P|186:40|124:44,1,85,8|0,0:0|0:0,0:0:0:0:
44,160,45865,6,0,P|40:216|40:264,1,85,4|0,0:0|0:0,0:0:0:0:
160,136,46212,1,8,0:0:0:0:
144,272,46385,2,0,P|196:308|280:244,1,170,0|0,0:0|0:0,0:0:0:0:
436,348,46905,2,0,L|328:332,1,85,8|0,0:0|0:0,0:0:0:0:
436,148,47252,5,0,0:0:0:0:
464,264,47426,1,0,0:0:0:0:
464,264,47512,1,0,0:0:0:0:
464,264,47599,1,8,0:0:0:0:
293,257,47772,2,0,L|392:248,1,85,0|0,0:0|0:0,0:0:0:0:
264,88,48119,1,0,0:0:0:0:
184,208,48293,2,0,P|168:256|160:308,1,85,8|0,0:0|0:0,0:0:0:0:
128,120,48639,6,0,P|100:164|-4:144,1,170,0|8,0:0|0:0,0:0:0:0:
56,96,49160,1,0,0:0:0:0:
96,248,49333,2,0,P|104:296|104:344,1,85,0|0,0:0|0:0,0:0:0:0:
216,356,49680,1,8,0:0:0:0:
288,284,49853,1,0,0:0:0:0:
372,340,50027,6,0,L|476:336,1,85,0|0,0:0|0:0,0:0:0:0:
504,212,50374,1,8,0:0:0:0:
376,240,50547,2,0,L|368:140,1,85,0|0,0:0|0:0,0:0:0:0:
268,32,50894,2,0,L|260:84,1,42.5,0|0,0:0|0:0,0:0:0:0:
252,168,51067,1,8,0:0:0:0:
368,72,51241,1,0,0:0:0:0:
140,68,51414,6,0,L|152:188,1,85,0|0,0:0|0:0,0:0:0:0:
128,320,51761,1,8,0:0:0:0:
252,168,51934,1,0,0:0:0:0:
252,168,52021,1,0,0:0:0:0:
252,168,52108,1,0,0:0:0:0:
272,352,52281,1,0,0:0:0:0:
204,288,52454,1,8,0:0:0:0:
296,256,52628,1,0,0:0:0:0:
192,376,52801,6,0,P|128:352|88:340,1,85,8|0,0:3|0:0,0:0:0:0:
308,348,53148,1,8,0:0:0:0:
308,348,53321,2,0,P|312:264|316:228,1,85,0|0,0:0|0:0,0:0:0:0:
400,240,53668,1,2,0:3:0:0:
204,288,53842,2,0,P|202:245|199:203,1,85,8|0,0:0|0:0,0:0:0:0:
184,156,54102,1,0,0:0:0:0:
212,116,54189,6,0,L|312:100,1,85,0|0,0:3|0:0,0:0:0:0:
152,24,54535,1,8,0:0:0:0:
80,132,54709,2,0,B|60:192|60:192|84:244|84:244|68:320,1,170,0|0,0:0|0:0,0:0:0:0:
200,200,55229,2,0,L|300:216,1,85,8|0,3:2|0:0,0:0:0:0:
388,336,55576,5,0,0:0:0:0:
344,168,55749,1,0,0:0:0:0:
276,324,55923,1,8,0:0:0:0:
464,228,56096,2,0,L|524:232,2,42.5,0|0|0,0:0|0:0|0:0,0:0:0:0:
336,240,56443,1,0,0:0:0:0:
449,96,56616,1,8,0:0:0:0:
431,58,56703,1,0,0:0:0:0:
397,33,56790,1,0,0:0:0:0:
356,28,56876,1,0,0:0:0:0:
316,43,56963,6,0,L|240:48,1,63.75,0|0,0:0|0:0,0:0:0:0:
224,52,57310,6,0,P|235:104|239:160,1,85,4|0,0:0|0:0,0:0:0:0:
124,264,57657,2,0,L|228:272,1,85,0|0,0:0|0:0,0:0:0:0:
240,256,57917,1,0,0:0:0:0:
264,232,58004,1,8,0:0:0:0:
348,324,58177,2,0,L|412:332,1,42.5,0|0,0:0|0:0,0:0:0:0:
484,236,58350,2,0,P|428:228|360:228,1,85,8|0,3:0|0:0,0:0:0:0:
256,360,58697,5,8,0:0:0:0:
332,176,58871,1,0,0:0:0:0:
336,144,58957,1,0,0:0:0:0:
340,112,59044,1,0,0:0:0:0:
256,32,59217,1,0,0:0:0:0:
112,144,59391,2,0,L|220:136,1,85,8|0,0:0|0:0,0:0:0:0:
384,292,59738,6,0,L|276:284,1,85,0|0,0:3|0:0,0:0:0:0:
200,348,60085,1,8,0:0:0:0:
64,316,60258,1,0,0:0:0:0:
94,306,60345,1,0,0:0:0:0:
117,285,60431,1,0,0:0:0:0:
129,255,60518,1,0,0:0:0:0:
126,224,60605,1,0,0:0:0:0:
0,140,60778,2,0,P|72:128|116:124,1,85,8|0,0:0|0:0,0:0:0:0:
48,240,61125,5,0,0:0:0:0:
208,124,61298,1,0,0:0:0:0:
48,240,61472,1,8,0:0:0:0:
216,252,61645,2,0,P|240:260|280:268,1,42.5,0|0,0:0|0:0,0:0:0:0:
128,180,61819,2,0,L|128:120|128:72,1,85,0|0,0:0|0:0,0:0:0:0:
108,76,62079,1,0,0:0:0:0:
96,52,62165,2,0,P|160:48|200:52,1,85,8|0,0:0|0:0,0:0:0:0:
396,120,62512,6,0,P|460:124|500:120,1,85,2|0,1:0|0:0,0:0:0:0:
208,192,62859,2,0,L|200:304,1,85,2|0,1:0|0:0,0:0:0:0:
452,312,63206,2,0,P|388:308|348:312,1,85,2|0,1:0|0:0,0:0:0:0:
120,264,63553,2,0,P|56:268|16:264,1,85,2|0,1:0|0:0,0:0:0:0:
388,52,63900,6,0,L|394:136,1,85,2|0,1:0|0:0,0:0:0:0:
160,184,64246,2,0,L|166:99,1,85,2|0,1:0|0:0,0:0:0:0:
344,208,64593,2,0,L|350:292,1,85,2|0,1:0|0:0,0:0:0:0:
200,344,64940,2,0,L|206:259,1,85,2|0,1:0|0:0,0:0:0:0:
304,56,65287,5,2,1:0:0:0:
252,144,65460,1,2,1:0:0:0:
204,56,65634,1,2,1:0:0:0:
376,128,65807,1,2,1:0:0:0:
152,128,65980,5,2,1:0:0:0:
348,264,66154,1,2,1:0:0:0:
256,24,66327,1,2,1:0:0:0:
228,320,66501,1,2,1:0:0:0:
456,208,66674,6,0,L|464:132,2,56.6666666666667,2|2|2,0:0|0:0|0:0,0:0:0:0:
336,296,67021,2,0,L|341:352,2,56.6666666666667,8|8|8,0:0|0:0|0:0,0:0:0:0:
192,168,67368,6,0,L|196:84,1,76.4999976654053,4|0,0:0|0:0,0:0:0:0:
60,224,67715,6,0,L|72:344,1,95.6250036478044,8|0,0:0|0:0,0:0:0:0:
140,348,68061,5,4,1:0:0:0:
256,64,69449,5,2,0:0:0:0:
372,348,70836,5,2,0:0:0:0:
256,192,71183,12,0,73264,0:0:0:0:
228,108,73611,6,0,L|96:92,1,127.500004863739,2|0,0:0|0:0,0:0:0:0:
318,273,74478,2,0,P|317:252|312:232,2,42.5,0|0|0,0:0|0:0|0:0,0:0:0:0:
404,304,74998,2,0,P|404:260|408:200,1,85,2|0,0:0|0:0,0:0:0:0:
476,136,75518,2,0,P|432:148|356:104,1,127.5,0|0,0:0|0:0,0:0:0:0:
356,24,76212,1,2,0:0:0:0:
284,72,76385,1,0,0:0:0:0:
88,120,76732,2,0,P|152:212|215:160,1,212.5,0|0,0:0|0:0,0:0:0:0:
144,48,77772,6,0,P|84:32|72:32,1,63.7500024318696,2|0,0:0|0:0,0:0:0:0:
216,88,78119,1,0,0:0:0:0:
276,12,78293,1,2,0:0:0:0:
316,88,78466,2,0,P|320:124|324:172,1,63.7500024318696,0|2,0:0|0:0,0:0:0:0:
184,228,78813,2,0,P|228:212|284:236,1,95.6250036478044,2|0,0:0|0:0,0:0:0:0:
272,226,79160,6,0,L|260:332,1,85,12|0,0:0|0:0,0:0:0:0:
140,340,79506,1,0,0:0:0:0:
417,312,79680,1,8,0:0:0:0:
441,280,79767,1,0,0:0:0:0:
444,240,79853,1,0,0:0:0:0:
429,202,79940,1,0,0:0:0:0:
395,180,80027,2,0,P|390:132|400:76,1,85,8|8,0:0|0:0,0:0:0:0:
464,20,80374,1,0,0:0:0:0:
304,104,80547,6,0,L|208:96,1,85,8|0,0:0|0:0,0:0:0:0:
184,228,80894,1,0,0:0:0:0:
68,36,81067,1,8,0:0:0:0:
40,56,81154,1,0,0:0:0:0:
12,76,81241,2,0,P|11:119|8:176,1,85,0|8,0:0|0:0,0:0:0:0:
96,308,81587,1,8,0:0:0:0:
288,224,81761,1,0,0:0:0:0:
288,224,81848,1,0,0:0:0:0:
288,224,81934,5,8,0:0:0:0:
216,320,82108,1,0,0:0:0:0:
196,84,82281,1,0,0:0:0:0:
104,208,82454,2,0,P|62:221|-4:224,1,85,8|0,0:0|0:0,0:0:0:0:
96,72,82801,1,8,0:0:0:0:
226,172,82975,1,8,0:0:0:0:
258,148,83061,1,0,0:0:0:0:
298,145,83148,1,0,0:0:0:0:
336,160,83235,1,0,0:0:0:0:
358,194,83321,6,0,P|406:199|462:189,1,85,0|8,0:0|0:0,0:0:0:0:
400,100,83668,1,0,0:0:0:0:
288,224,83842,2,0,P|276:280|272:336,1,85,8|0,0:0|0:0,0:0:0:0:
111,155,84189,2,0,P|99:114|96:72,2,85,0|8|8,0:0|0:0|0:0,0:0:0:0:
137,261,84709,5,2,0:0:0:0:
192,92,84882,1,0,0:0:0:0:
16,152,85056,1,2,0:0:0:0:
212,204,85229,1,0,0:0:0:0:
80,328,85402,1,2,0:0:0:0:
80,328,85489,1,0,0:0:0:0:
80,328,85576,1,0,0:0:0:0:
244,328,85749,1,2,0:0:0:0:
112,156,85923,1,0,0:0:0:0:
152,356,86096,5,2,0:0:0:0:
212,204,86269,1,2,0:0:0:0:
244,328,86443,1,2,0:0:0:0:
185,115,86616,1,2,0:0:0:0:
48,244,86790,1,2,0:0:0:0:
276,252,86963,1,2,0:0:0:0:
84,132,87137,1,2,0:0:0:0:
276,140,87310,1,2,0:0:0:0:
160,280,87483,5,8,0:0:0:0:
128,64,87657,1,8,0:0:0:0:
80,316,87830,1,8,0:0:0:0:
0,168,88004,1,8,0:0:0:0:
276,252,88177,1,2,0:0:0:0:
318,249,88264,1,2,0:0:0:0:
360,246,88350,1,8,0:0:0:0:
403,243,88437,1,8,0:0:0:0:
445,241,88524,2,0,L|456:192,1,42.5,8|4,0:0|0:0,0:0:0:0:
376,36,88697,2,0,L|384:77,1,42.5,4|4,0:0|0:0,0:0:0:0:
276,140,88871,5,4,0:0:0:0:
128,64,89044,1,0,0:0:0:0:
168,216,89217,2,0,L|160:312,1,85,0|0,0:0|0:0,0:0:0:0:
485,300,89564,1,0,0:0:0:0:
509,268,89651,1,0,0:0:0:0:
512,228,89738,1,0,0:0:0:0:
497,190,89824,1,0,0:0:0:0:
463,168,89911,2,0,P|457:150|457:134,5,21.25,0|0|0|0|0|0,0:0|0:0|0:0|0:0|0:0|0:0,0:0:0:0:
445,58,90258,6,0,L|344:52,1,101.999996887207,0|0,0:0|0:0,0:0:0:0:
248,188,90605,2,0,P|240:248|240:320,1,101.999996887207,8|0,0:0|0:0,0:0:0:0:
104,136,90952,2,0,L|180:124,1,50.9999984436036,2|0,3:0|0:0,0:0:0:0:
128,260,91125,2,0,L|52:272,1,50.9999984436036,0|0,0:0|0:0,0:0:0:0:
248,188,91298,2,0,L|360:184,1,101.999996887207,8|0,0:0|0:0,0:0:0:0:
376,152,91558,1,0,0:0:0:0:
376,112,91645,5,0,0:0:0:0:
505,261,91819,2,0,L|496:312,1,50.9999984436036,0|0,0:0|0:0,0:0:0:0:
376,344,91992,2,0,L|393:243,1,101.999996887207,8|0,0:0|0:0,0:0:0:0:
264,356,92339,2,0,B|240:364|240:364|214:360,1,50.9999984436036,2|0,3:0|0:0,0:0:0:0:
84,256,92512,2,0,B|108:248|108:248|133:251,1,50.9999984436036,0|0,0:0|0:0,0:0:0:0:
220,132,92686,2,0,B|212:188|212:188|224:228|224:228|216:292,1,152.999995330811,8|0,0:0|0:0,0:0:0:0:
152,328,93032,6,0,L|44:344,1,101.999996887207,0|0,0:0|0:0,0:0:0:0:
0,188,93379,2,0,B|20:168|20:168|32:72,1,101.999996887207,8|0,0:0|0:0,0:0:0:0:
192,72,93726,2,0,L|184:152,1,50.9999984436036,2|0,3:0|0:0,0:0:0:0:
296,200,93900,2,0,L|290:149,1,50.9999984436036,0|0,0:0|0:0,0:0:0:0:
124,236,94073,2,0,P|168:208|216:212,1,101.999996887207,8|8,0:0|3:0,0:0:0:0:
272,272,94333,1,0,0:0:0:0:
232,312,94421,6,0,L|229:362,1,50.9999984436036,2|0,3:0|0:0,0:0:0:0:
390,258,94593,2,0,L|388:208,1,50.9999984436036,0|0,0:0|0:0,0:0:0:0:
408,344,94767,2,0,B|368:348|368:348|336:340|336:340|307:344,1,101.999996887207,8|0,0:0|0:0,0:0:0:0:
136,348,95113,1,0,0:0:0:0:
200,200,95287,1,8,0:0:0:0:
208,160,95374,1,0,0:0:0:0:
216,120,95460,1,8,0:0:0:0:
360,248,95634,2,0,L|436:240,1,50.9999984436036,8|0,3:0|0:0,0:0:0:0:
408,108,95807,6,0,L|252:96,1,152.999995330811,4|0,0:0|0:0,0:0:0:0:
116,204,96154,2,0,L|172:196,1,50.9999984436036,8|0,0:0|0:0,0:0:0:0:
284,180,96327,2,0,P|284:204|276:248,1,50.9999984436036,0|0,0:0|0:0,0:0:0:0:
136,125,96501,2,0,P|136:74|144:24,1,101.999996887207,2|0,3:0|0:0,0:0:0:0:
408,108,96848,1,8,0:3:0:0:
268,324,97021,1,0,0:0:0:0:
228,328,97108,1,0,0:0:0:0:
188,336,97194,6,0,B|182:285|182:285|195:236,1,101.999996887207,0|0,0:0|0:0,0:0:0:0:
248,68,97541,1,8,0:0:0:0:
424,184,97715,1,0,0:0:0:0:
452,216,97802,1,0,0:0:0:0:
472,248,97888,2,0,B|478:275|478:275|474:319,1,50.9999984436036,2|0,3:0|0:0,0:0:0:0:
364,344,98061,2,0,L|240:356,1,101.999996887207,0|8,0:0|0:0,0:0:0:0:
308,156,98408,1,0,0:0:0:0:
160,260,98582,5,0,0:0:0:0:
152,40,98755,2,0,L|268:32,1,101.999996887207,0|8,0:0|0:0,0:0:0:0:
92,160,99102,1,0,0:0:0:0:
92,160,99189,1,0,0:0:0:0:
92,160,99275,2,0,P|94:102|92:81,1,50.9999984436036,2|0,3:0|0:0,0:0:0:0:
224,200,99449,2,0,P|248:180|272:152,1,50.9999984436036,0|0,0:0|0:0,0:0:0:0:
268,320,99622,2,0,P|320:321|384:312,1,101.999996887207,8|8,0:0|3:0,0:0:0:0:
488,268,99882,1,0,0:0:0:0:
496,228,99969,6,0,B|465:208|465:208|380:212,1,101.999996887207,0|0,0:0|0:0,0:0:0:0:
184,284,100316,1,8,0:0:0:0:
300,124,100489,2,0,L|356:120,1,50.9999984436036,2|0,3:0|0:0,0:0:0:0:
344,32,100663,2,0,L|208:40,1,101.999996887207,0|0,0:0|0:0,0:0:0:0:
32,64,101009,2,0,B|16:100|16:100|24:224,1,152.999995330811,8|0,3:0|0:0,0:0:0:0:
80,272,101356,6,0,L|208:264,1,101.999996887207,4|0,0:0|0:0,0:0:0:0:
488,180,101703,2,0,P|440:144|416:100,1,101.999996887207,8|0,0:0|0:0,0:0:0:0:
271,206,102050,2,0,P|294:196|320:192,1,50.9999984436036,2|0,3:0|0:0,0:0:0:0:
396,244,102223,2,0,P|401:289|400:324,1,50.9999984436036,0|0,0:0|0:0,0:0:0:0:
300,376,102397,2,0,P|312:320|312:252,1,101.999996887207,8|0,0:0|0:0,0:0:0:0:
216,304,102657,1,0,0:0:0:0:
176,336,102743,6,0,L|74:342,1,101.999996887207,0|0,0:0|0:0,0:0:0:0:
28,136,103090,1,8,0:0:0:0:
152,248,103264,1,0,0:0:0:0:
184,224,103351,1,0,0:0:0:0:
224,220,103437,1,2,3:0:0:0:
124,120,103611,2,0,P|120:96|120:56,1,50.9999984436036,0|0,0:0|0:0,0:0:0:0:
224,136,103784,2,0,P|274:134|324:123,1,101.999996887207,8|0,0:0|0:0,0:0:0:0:
392,20,104044,1,0,0:0:0:0:
440,44,104131,6,0,P|452:72|464:172,1,101.999996887207,0|0,0:0|0:0,0:0:0:0:
280,324,104478,1,8,0:0:0:0:
488,240,104651,2,0,L|432:224,1,50.9999984436036,0|0,0:0|0:0,0:0:0:0:
304,236,104824,2,0,P|224:256|204:276,1,101.999996887207,2|0,3:0|0:0,0:0:0:0:
24,316,105171,2,0,B|76:324|76:324|125:308,1,101.999996887207,8|8,0:0|3:0,0:0:0:0:
88,212,105431,1,0,0:0:0:0:
48,180,105518,6,0,L|44:124,1,50.9999984436036,0|0,0:0|0:0,0:0:0:0:
148,124,105691,2,0,L|152:68,1,50.9999984436036,0|0,0:0|0:0,0:0:0:0:
264,36,105865,2,0,P|252:104|252:148,1,101.999996887207,8|0,0:0|0:0,0:0:0:0:
360,288,106212,1,2,3:0:0:0:
332,316,106298,1,0,0:0:0:0:
292,320,106385,1,0,0:0:0:0:
252,308,106472,1,0,0:0:0:0:
236,272,106558,2,0,P|228:232|232:208,1,50.9999984436036,8|0,0:0|0:0,0:0:0:0:
384,196,106732,2,0,L|456:188,1,50.9999984436036,8|0,3:0|0:0,0:0:0:0:
304,108,106905,6,0,P|236:112|184:92,1,101.999996887207,0|0,0:0|0:0,0:0:0:0:
88,260,107252,1,8,0:0:0:0:
140,40,107426,1,0,0:0:0:0:
216,304,107599,2,0,P|200:336|188:368,1,50.9999984436036,2|0,3:0|0:0,0:0:0:0:
304,248,107772,2,0,P|294:224|282:201,1,50.9999984436036,0|0,0:0|0:0,0:0:0:0:
324,356,107946,2,0,P|372:341|440:360,1,101.999996887207,8|0,0:0|0:0,0:0:0:0:
384,196,108293,5,0,0:0:0:0:
498,278,108466,2,0,L|508:216,1,50.9999984436036,0|0,0:0|0:0,0:0:0:0:
456,96,108639,2,0,P|400:104|340:104,1,101.999996887207,8|0,0:0|0:0,0:0:0:0:
156,192,108986,2,0,P|156:228|168:264,1,50.9999984436036,2|0,3:0|0:0,0:0:0:0:
280,288,109160,2,0,P|280:252|268:216,1,50.9999984436036,0|0,0:0|0:0,0:0:0:0:
120,356,109333,2,0,L|248:352,1,101.999996887207,8|0,0:0|0:0,0:0:0:0:
372,368,109680,6,0,P|376:300|376:236,1,101.999996887207,0|0,0:0|0:0,0:0:0:0:
456,96,110027,1,0,0:0:0:0:
200,92,110200,1,0,0:0:0:0:
208,132,110287,1,0,0:0:0:0:
216,172,110374,2,0,L|292:160,1,50.9999984436036,2|0,3:0|0:0,0:0:0:0:
176,264,110547,2,0,L|252:252,1,50.9999984436036,0|0,0:0|0:0,0:0:0:0:
120,356,110720,2,0,L|196:344,1,50.9999984436036,8|0,0:0|0:0,0:0:0:0:
16,304,110894,1,8,3:0:0:0:
48,276,110980,1,0,0:0:0:0:
64,240,111067,6,0,P|68:172|64:112,1,101.999996887207,0|0,0:0|0:0,0:0:0:0:
176,264,111414,1,2,0:0:0:0:
320,84,111587,1,2,0:0:0:0:
376,312,111761,2,0,P|328:316|272:320,1,101.999996887207,8|8,0:0|0:0,0:0:0:0:
208,132,112108,1,2,0:0:0:0:
344,240,112281,2,0,L|416:236,1,50.9999984436036,8|0,0:3|0:0,0:0:0:0:
488,232,112454,6,0,P|480:192|476:132,2,85,4|0|8,0:0|0:0|0:0,0:0:0:0:
380,36,112975,1,0,0:0:0:0:
348,12,113061,1,0,0:0:0:0:
308,9,113148,1,0,0:0:0:0:
270,24,113235,1,0,0:0:0:0:
248,58,113321,2,0,P|200:63|144:53,1,85,0|8,0:0|0:0,0:0:0:0:
68,124,113668,2,0,P|72:168|84:192,1,42.5,8|0,3:0|0:0,0:0:0:0:
16,224,113842,6,0,P|25:273|24:320,1,85,0|0,0:0|0:0,0:0:0:0:
136,368,114189,1,8,0:0:0:0:
256,276,114362,1,0,0:0:0:0:
224,260,114449,1,0,0:0:0:0:
192,244,114535,1,2,0:0:0:0:
380,120,114709,1,0,0:0:0:0:
352,308,114882,1,10,0:0:0:0:
364,272,114969,2,0,L|452:268,1,85,2|0,0:0|0:0,0:0:0:0:
448,268,115229,6,0,P|464:208|468:160,1,85,0|0,0:0|0:0,0:0:0:0:
464,56,115576,1,8,0:0:0:0:
300,168,115749,1,0,0:0:0:0:
296,136,115836,1,0,0:0:0:0:
292,104,115923,1,0,0:0:0:0:
288,72,116009,1,0,0:0:0:0:
284,40,116096,2,0,L|172:28,1,85,0|8,0:0|0:0,0:0:0:0:
56,200,116443,2,0,L|68:136,1,42.5,0|0,0:0|0:0,0:0:0:0:
80,72,116616,5,2,0:0:0:0:
152,216,116790,1,2,0:0:0:0:
292,104,116963,2,0,L|188:104,1,85,10|0,0:0|0:0,0:0:0:0:
56,200,117310,1,2,0:0:0:0:
196,352,117483,1,2,0:0:0:0:
296,308,117657,2,0,P|312:248|312:208,1,85,10|0,0:0|0:0,0:0:0:0:
288,200,117917,1,0,0:0:0:0:
288,200,118004,6,0,L|388:192,1,85,4|0,0:3|0:0,0:0:0:0:
468,256,118350,1,8,0:0:0:0:
208,260,118524,1,0,0:0:0:0:
208,260,118611,1,0,0:0:0:0:
208,260,118697,1,0,0:0:0:0:
208,260,118784,1,0,0:0:0:0:
208,260,118871,2,0,P|200:204|200:152,1,85,0|8,0:0|0:0,0:0:0:0:
328,48,119217,2,0,L|384:40,1,42.5,8|0,0:3|0:0,0:0:0:0:
484,148,119391,6,0,P|408:128|368:124,1,85,0|0,0:0|0:0,0:0:0:0:
252,116,119738,1,8,0:0:0:0:
416,288,119911,1,2,0:0:0:0:
396,316,119998,1,0,0:0:0:0:
368,332,120085,1,0,0:0:0:0:
336,336,120171,1,0,0:0:0:0:
304,324,120258,2,0,P|292:264|292:224,1,85,2|8,0:0|0:0,0:0:0:0:
320,200,120518,2,0,L|204:188,1,85,2|0,0:0|0:0,0:0:0:0:
196,220,120778,6,0,P|132:228|80:212,1,85,2|0,0:0|0:0,0:0:0:0:
32,116,121125,1,8,0:0:0:0:
56,296,121298,2,0,L|64:344,1,42.5,0|0,0:0|0:0,0:0:0:0:
144,316,121472,2,0,L|152:364,1,42.5,0|0,0:0|0:0,0:0:0:0:
244,372,121645,1,0,0:0:0:0:
360,268,121819,2,0,P|392:228|392:184,1,85,8|2,0:0|0:0,0:0:0:0:
388,160,122079,1,0,0:0:0:0:
384,128,122165,6,0,L|268:96,2,85,2|0|10,0:0|0:0|0:0,0:0:0:0:
120,200,122686,1,2,0:0:0:0:
108,168,122772,1,0,0:0:0:0:
96,136,122859,2,0,L|92:72,1,42.5,0|0,0:0|0:0,0:0:0:0:
192,28,123032,1,0,0:0:0:0:
280,188,123206,2,0,P|240:192|188:220,1,85,10|2,0:0|0:0,0:0:0:0:
392,336,123553,5,0,0:0:0:0:
456,224,123726,1,0,0:0:0:0:
392,336,123900,6,0,L|288:320,1,85,4|0,0:0|0:0,0:0:0:0:
208,372,124246,1,0,0:0:0:0:
44,272,124420,2,0,L|32:336,1,42.5,0|0,0:0|0:0,0:0:0:0:
120,228,124593,2,0,P|184:220|232:220,1,85,8|0,0:0|0:0,0:0:0:0:
232,240,124853,1,0,0:0:0:0:
252,268,124940,6,0,P|240:208|240:160,1,85,0|0,0:0|0:0,0:0:0:0:
404,60,125287,2,0,P|360:92|312:80,1,85,8|0,0:0|0:0,0:0:0:0:
304,72,125547,1,0,0:0:0:0:
276,52,125634,2,0,B|260:48|260:48|216:48,1,42.5,0|0,0:0|0:0,0:0:0:0:
136,128,125807,2,0,L|20:128,1,85,2|8,0:0|0:0,0:0:0:0:
28,104,126067,2,0,P|40:160|40:212,1,85,2|0,0:0|0:0,0:0:0:0:
48,228,126327,5,2,0:0:0:0:
140,336,126501,1,0,0:0:0:0:
252,268,126674,2,0,P|244:216|244:164,1,85,8|0,0:0|0:0,0:0:0:0:
264,156,126934,1,0,0:0:0:0:
288,132,127021,2,0,L|356:124,1,42.5,0|0,0:0|0:0,0:0:0:0:
464,160,127194,2,0,P|480:176|492:208,1,42.5,0|0,0:0|0:0,0:0:0:0:
456,280,127368,1,8,0:0:0:0:
404,60,127541,1,2,0:0:0:0:
404,60,127628,1,0,0:0:0:0:
404,60,127715,6,0,L|308:44,1,85,2|2,0:0|0:0,0:0:0:0:
168,152,128061,1,8,0:0:0:0:
232,16,128235,1,0,0:0:0:0:
44,96,128408,1,2,0:0:0:0:
232,96,128582,1,2,0:0:0:0:
112,8,128755,1,10,0:0:0:0:
232,96,128928,1,8,0:0:0:0:
72,196,129102,6,0,P|68:252|72:300,1,85,2|0,1:0|0:0,0:0:0:0:
440,188,129449,2,0,P|444:132|440:84,1,85,2|2,1:0|0:0,0:0:0:0:
232,96,129795,2,0,L|147:99,1,85,2|2,1:0|0:0,0:0:0:0:
280,288,130142,2,0,L|364:284,1,85,2|4,1:0|0:0,0:0:0:0:
316,28,130489,6,0,P|328:84|336:128,1,85,2|0,1:0|0:0,0:0:0:0:
160,196,130836,2,0,P|148:252|140:296,1,85,2|2,1:0|0:0,0:0:0:0:
368,284,131183,2,0,L|472:280,1,85,2|2,1:0|0:0,0:0:0:0:
144,100,131530,2,0,L|40:104,1,85,2|4,1:0|0:0,0:0:0:0:
244,300,131876,5,2,1:0:0:0:
348,112,132050,1,2,1:0:0:0:
160,196,132223,1,2,1:0:0:0:
368,280,132397,1,2,1:0:0:0:
248,88,132570,1,2,1:0:0:0:
136,308,132743,1,2,1:0:0:0:
44,196,132917,1,2,1:0:0:0:
280,184,133090,1,2,1:0:0:0:
100,132,133264,6,0,L|96:52,2,56.6666666666667,2|2|8,0:0|0:0|0:0,0:0:0:0:
224,200,133611,2,0,L|221:256,2,56.6666666666667,8|0|2,0:0|0:0|0:0,0:0:0:0:
348,112,133957,6,0,P|404:100|428:100,1,63.7500024318696,6|0,0:0|0:0,0:0:0:0:
476,156,134304,2,0,L|480:176,4,15.9375006079674,0|0|0|0|0,0:0|0:0|0:0|0:0|0:0,0:0:0:0:
360,296,134651,5,4,1:0:0:0:
