osu file format v14

[General]
AudioFilename: sgd-bms.mp3
AudioLeadIn: 0
PreviewTime: 89911
Countdown: 0
SampleSet: Soft
StackLeniency: 0.4
Mode: 0
LetterboxInBreaks: 0
WidescreenStoryboard: 0

[Editor]
DistanceSpacing: 1.5
BeatDivisor: 4
GridSize: 4
TimelineZoom: 2.4

[Metadata]
Title:Sun Goes Down (BMS edit)
TitleUnicode:Sun Goes Down (BMS edit)
Artist:void
ArtistUnicode:void
Creator:Frey
Version:Collab Hard
Source:BMS
Tags:Kazuto HootOwlStar dnb drum'n'bass drum and bass OUTERSIDE #03 everclusion C79
BeatmapID:864381
BeatmapSetID:382413

[Difficulty]
HPDrainRate:6
CircleSize:4
OverallDifficulty:6
ApproachRate:7.5
SliderMultiplier:1.4
SliderTickRate:1

[Events]
//Background and Video events
0,0,"s.jpg",0,0
//Break Periods
2,68261,72786
//Storyboard Layer 0 (Background)
//Storyboard Layer 1 (Fail)
//Storyboard Layer 2 (Pass)
//Storyboard Layer 3 (Foreground)
//Storyboard Sound Samples

[TimingPoints]
85,346.820809248555,4,2,0,70,1,0
1472,-125,4,2,0,65,0,0
12570,-111.111111111111,4,2,0,70,0,0
22281,-111.111111111111,4,1,0,65,0,0
23668,-100,4,2,0,75,0,0
45865,-117.647058823529,4,2,0,70,0,0
56963,-153.846153846154,4,2,0,70,0,0
57310,-111.111111111111,4,2,0,70,0,0
68061,-142.857142857143,4,2,0,70,0,0
73611,-166.666666666667,4,2,0,65,0,0
79160,-111.111111111111,4,2,0,70,0,0
88871,-111.111111111111,4,1,0,65,0,0
90258,-95.2380952380952,4,2,0,75,0,1
112454,-100,4,2,0,75,0,0

[Colours]
Combo1 : 255,149,202
Combo2 : 128,128,255
Combo3 : 254,199,84

[HitObjects]
432,272,85,6,0,P|368:248|284:272,1,140,0|0,0:0|0:0,0:0:0:0:
216,316,605,2,0,B|208:244|208:244|232:176,1,140
308,116,1125,2,0,L|388:112,1,70,2|0,0:0|0:0,0:0:0:0:
496,196,1472,6,0,L|368:192,1,112,0|2,0:0|0:0,0:0:0:0:
304,256,1992,2,0,P|256:292|200:276,1,112,0|0,0:0|0:0,0:0:0:0:
120,248,2512,2,0,L|116:176,1,56,2|0,0:0|0:0,0:0:0:0:
220,80,2859,6,0,L|216:200,1,112,0|2,0:0|0:0,0:0:0:0:
312,128,3379,2,0,P|360:108|424:128,1,112
488,188,3900,1,2,0:0:0:0:
440,272,4073,1,0,0:0:0:0:
352,240,4246,6,0,B|304:224|264:236|264:236|280:212,1,112,0|2,0:0|0:0,0:0:0:0:
340,140,4767,2,0,B|356:96|340:48|340:48|328:76,1,112
248,120,5287,2,0,P|220:128|184:120,1,56,2|0,0:0|0:0,0:0:0:0:
108,68,5634,5,0,0:0:0:0:
140,192,5807,1,0,0:0:0:0:
248,120,5980,1,2,0:0:0:0:
248,120,6154,2,0,L|244:240,1,112
156,280,6674,2,0,P|124:288|92:280,1,56,2|0,0:0|0:0,0:0:0:0:
244,231,7021,6,0,P|300:223|360:243,1,112,0|2,0:0|0:0,0:0:0:0:
440,320,7541,2,0,L|312:312,1,112,0|0,0:0|0:0,0:0:0:0:
243,230,8061,2,0,P|229:207|226:179,1,56,2|0,0:0|0:0,0:0:0:0:
332,168,8408,6,0,P|352:220|332:288,1,112,0|2,0:0|0:0,0:0:0:0:
256,344,8928,2,0,L|128:348,1,112,0|0,0:0|0:0,0:0:0:0:
48,276,9449,2,0,B|76:268|76:268|112:276,1,56,2|0,0:0|0:0,0:0:0:0:
208,308,9795,6,0,B|288:320|288:320|340:312,1,112,0|2,0:0|0:0,0:0:0:0:
404,288,10316,2,0,P|424:232|396:180,1,112
328,128,10836,1,2,0:0:0:0:
236,160,11009,1,0,0:0:0:0:
168,92,11183,6,0,P|116:68|56:84,1,112,0|2,0:0|0:0,0:0:0:0:
156,200,11703,2,0,L|266:180,1,112
168,92,12223,1,2,0:0:0:0:
156,296,12570,6,0,P|216:312|288:288,1,125.999996154785,4|0,1:2|1:0,0:0:0:0:
352,228,13090,1,8,1:2:0:0:
428,160,13264,1,0,0:0:0:0:
332,128,13437,1,0,1:0:0:0:
256,196,13611,2,0,P|272:256|280:272,1,62.9999980773926,8|0,1:2|0:0,0:0:0:0:
196,324,13957,6,0,P|132:328|84:292,1,125.999996154785,4|0,1:2|1:0,0:0:0:0:
68,192,14478,2,0,L|72:124,1,62.9999980773926,8|0,1:2|0:0,0:0:0:0:
164,196,14824,1,0,1:0:0:0:
71,129,14998,1,8,1:2:0:0:
0,220,15171,1,0,0:0:0:0:
84,301,15345,6,0,P|144:289|212:301,1,125.999996154785,4|0,1:2|1:0,0:0:0:0:
284,344,15865,1,8,1:2:0:0:
372,364,16038,1,0,0:0:0:0:
456,332,16212,1,0,1:0:0:0:
508,260,16385,2,0,L|512:167,1,62.9999980773926,8|0,1:2|0:0,0:0:0:0:
428,128,16732,6,0,L|424:264,1,125.999996154785,4|0,1:2|1:0,0:0:0:0:
297,325,17252,2,0,P|275:267|297:210,1,125.999996154785,8|0,1:2|1:0,0:0:0:0:
424,253,17772,2,0,P|396:267|365:267,1,62.9999980773926,8|0,1:2|0:0,0:0:0:0:
297,210,18119,6,0,L|293:126,1,62.9999980773926,12|0,1:2|1:0,0:0:0:0:
264,64,18466,1,8,1:2:0:0:
208,132,18639,1,0,1:0:0:0:
178,49,18813,1,8,1:2:0:0:
122,117,18987,1,0,1:0:0:0:
92,34,19160,2,0,L|0:18,1,62.9999980773926,8|0,1:2|0:0,0:0:0:0:
3,174,19506,6,0,L|66:185,1,62.9999980773926,12|0,1:2|1:0,0:0:0:0:
122,117,19853,1,8,1:2:0:0:
152,200,20027,1,0,1:0:0:0:
208,132,20200,1,8,1:2:0:0:
238,215,20374,1,0,1:0:0:0:
294,147,20547,2,0,P|292:108|268:60,1,62.9999980773926,8|0,1:2|1:0,0:0:0:0:
340,16,20894,6,0,P|392:24|432:28,1,62.9999980773926,8|8,1:2|1:2,0:0:0:0:
440,108,21241,2,0,L|512:100,1,62.9999980773926,8|8,1:2|1:2,0:0:0:0:
448,196,21587,2,0,L|452:248,3,31.4999990386963,8|0|0|0,1:2|1:0|1:0|1:0,0:0:0:0:
420,260,21934,2,0,L|368:264,3,31.4999990386963,8|0|0|0,1:2|1:0|1:0|1:0,0:0:0:0:
348,244,22281,6,0,P|340:208|344:164,2,62.9999980773926,0|0|8,0:0|0:0|0:2,0:0:0:0:
376,344,22801,2,0,P|376:368|372:384,2,31.4999990386963,2|0|0,2:0|2:0|2:0,0:0:0:0:
472,284,23148,1,0,0:0:0:0:
472,284,23235,1,0,2:0:0:0:
472,284,23321,1,8,1:2:0:0:
492,172,23495,1,0,2:0:0:0:
492,172,23668,6,0,L|408:176,1,70,4|0,1:2|0:0,0:0:0:0:
324,216,24015,2,2,P|288:224|248:212,1,70,8|0,1:2|0:0,0:0:0:0:
168,160,24362,2,0,L|164:0,1,140,2|8,0:0|1:2,0:0:0:0:
68,56,24882,1,0,0:0:0:0:
68,56,25056,6,0,L|-4:52,1,70,0|0,1:0|0:0,0:0:0:0:
40,148,25402,2,0,L|112:144,1,70,8|0,1:2|0:0,0:0:0:0:
196,80,25749,1,0,0:0:0:0:
288,128,25923,2,0,L|408:124,2,105,0|2|0,1:0|0:0|1:0,0:0:0:0:
204,192,26616,5,0,0:0:0:0:
288,128,26790,2,0,L|284:44,1,70,8|0,1:2|0:0,0:0:0:0:
404,24,27137,2,0,L|396:168,1,140,2|8,0:0|1:2,0:0:0:0:
324,240,27657,1,0,0:0:0:0:
220,240,27830,5,2,1:2:0:0:
132,180,28004,2,0,P|96:168|60:172,1,70,0|8,0:0|1:2,0:0:0:0:
12,80,28350,2,0,P|80:88|156:56,1,140,2|0,0:2|1:0,0:0:0:0:
64,170,28871,2,0,P|48:202|56:250,1,70,8|0,1:2|0:0,0:0:0:0:
116,320,29217,6,0,P|148:336|196:328,1,70,0|0,1:0|0:0,0:0:0:0:
276,288,29564,2,0,L|280:208,1,70,8|0,1:2|0:0,0:0:0:0:
216,132,29911,2,0,B|180:128|180:128|116:104|116:104|76:100,1,140,2|8,0:0|1:2,0:0:0:0:
24,188,30431,1,0,0:0:0:0:
44,292,30605,6,0,L|48:368,1,70,0|0,1:0|0:0,0:0:0:0:
156,312,30952,2,0,P|192:308|236:316,1,70,8|0,1:2|0:0,0:0:0:0:
324,356,31298,1,0,0:0:0:0:
416,304,31472,2,0,P|440:256|420:196,2,105,0|2|0,1:0|0:0|1:0,0:0:0:0:
324,356,32165,5,0,0:0:0:0:
284,256,32339,2,0,L|353:248,1,70,8|0,1:2|0:0,0:0:0:0:
476,160,32686,2,0,B|408:168|408:168|316:148,1,140,2|8,0:0|1:2,0:0:0:0:
268,72,33206,1,0,0:0:0:0:
196,152,33379,6,0,L|200:240,1,70,0|0,1:0|0:0,0:0:0:0:
312,221,33726,2,0,L|316:152,1,70,8|0,1:2|0:0,0:0:0:0:
196,151,34073,6,0,P|161:159|126:160,1,70,2|0,0:0|1:0,0:0:0:0:
243,230,34420,2,0,P|278:222|313:221,1,70,8|0,1:2|0:0,0:0:0:0:
224,320,34767,6,0,P|188:328|148:328,1,70,4|0,1:2|0:0,0:0:0:0:
76,260,35113,2,0,P|40:252|0:260,1,70,8|0,1:2|0:0,0:0:0:0:
48,144,35460,2,0,P|104:172|196:152,1,140,2|8,0:0|1:2,0:0:0:0:
224,68,35980,1,0,0:0:0:0:
320,24,36154,6,0,L|396:20,1,70,0|0,1:0|0:0,0:0:0:0:
484,100,36501,2,0,L|400:96,1,70,8|0,1:2|0:0,0:0:0:0:
324,152,36848,1,0,0:0:0:0:
248,76,37021,2,0,P|192:60|144:64,2,105,0|2|0,1:0|0:0|1:0,0:0:0:0:
324,152,37715,6,0,P|356:164|392:160,1,70,0|8,0:0|1:2,0:0:0:0:
476,96,38061,1,0,0:0:0:0:
391,160,38235,2,0,L|387:304,1,140,2|8,0:0|1:2,0:0:0:0:
296,352,38755,1,0,0:0:0:0:
200,312,38928,5,0,1:0:0:0:
152,220,39102,2,0,L|156:144,1,70,0|8,0:0|1:2,0:0:0:0:
228,76,39449,2,0,P|292:52|372:64,1,140,2|0,0:0|1:0,0:0:0:0:
344,164,39969,1,8,1:2:0:0:
380,264,40142,1,0,0:0:0:0:
484,276,40316,6,0,L|493:171,2,105,0|2|0,1:0|0:0|0:0,0:0:0:0:
404,344,41009,2,0,P|328:360|272:320,1,140,2|8,0:0|1:2,0:0:0:0:
256,224,41530,1,0,0:0:0:0:
360,156,41703,6,0,L|348:284,2,105,0|2|0,1:0|0:0|0:0,0:0:0:0:
296,68,42397,2,0,B|220:56|220:56|144:76,1,140,2|8,0:0|1:2,0:0:0:0:
80,144,42917,1,0,0:0:0:0:
220,128,43090,6,0,P|240:80|220:16,2,105,0|2|0,1:0|0:0|0:0,0:0:0:0:
140,176,43784,2,0,P|195:216|263:208,2,140,2|8|2,0:0|1:2|1:2,0:0:0:0:
88,80,44651,6,0,P|124:72|168:76,1,70,0|8,0:0|1:2,0:0:0:0:
240,120,44998,1,0,0:0:0:0:
240,120,45171,2,0,P|284:132|316:128,1,70,2|0,0:0|1:0,0:0:0:0:
404,96,45518,1,8,1:2:0:0:
404,96,45691,1,0,0:0:0:0:
472,168,45865,6,0,P|496:232|472:304,1,119.000002269745,4|8,1:2|1:2,0:0:0:0:
486,280,46558,2,0,P|457:288|428:295,1,59.5000011348725,2|0,0:0|1:0,0:0:0:0:
344,264,46905,1,8,1:2:0:0:
348,176,47079,1,0,0:0:0:0:
436,156,47252,6,0,L|440:32,1,119.000002269745,0|8,1:0|1:2,0:0:0:0:
439,37,47946,2,0,P|383:45|367:53,1,59.5000011348725,2|0,0:0|1:0,0:0:0:0:
312,120,48293,2,0,P|272:120|240:108,1,59.5000011348725,8|0,1:2|0:0,0:0:0:0:
204,28,48639,6,0,P|140:16|80:32,1,119.000002269745,0|8,1:0|1:2,0:0:0:0:
88,28,49333,2,0,L|24:24,1,59.5000011348725,2|0,0:0|1:0,0:0:0:0:
0,108,49680,1,8,1:2:0:0:
0,108,49853,1,0,0:0:0:0:
72,160,50027,6,0,P|117:124|179:128,1,119.000002269745,0|8,1:0|1:2,0:0:0:0:
176,127,50720,1,2,0:0:0:0:
244,188,50894,1,0,1:0:0:0:
208,268,51067,1,8,1:2:0:0:
120,260,51241,1,0,0:0:0:0:
100,172,51414,5,0,1:0:0:0:
248,76,51761,1,8,1:2:0:0:
360,214,52108,2,0,P|376:186|372:150,1,59.5000011348725,2|0,0:0|1:2,0:0:0:0:
360,20,52454,2,0,P|344:48|348:84,1,59.5000011348725,8|0,1:2|0:0,0:0:0:0:
376,160,52801,6,0,P|424:180|488:144,1,119.000002269745,0|8,1:0|1:2,0:0:0:0:
481,153,53495,2,0,L|449:81,1,59.5000011348725,2|0,0:0|1:0,0:0:0:0:
360,20,53842,2,0,L|284:24,1,59.5000011348725,8|0,1:2|0:0,0:0:0:0:
176,32,54189,6,0,P|164:104|184:148,1,119.000002269745,0|8,1:0|1:2,0:0:0:0:
181,144,54882,2,0,P|213:148|249:140,1,59.5000011348725,2|0,0:0|1:0,0:0:0:0:
390,128,55229,2,0,P|361:120|332:119,1,59.5000011348725,8|0,1:2|0:0,0:0:0:0:
276,224,55576,6,0,P|216:237|140:228,1,119.000002269745,0|8,1:0|1:2,0:0:0:0:
159,233,56269,2,0,P|147:285|147:309,1,59.5000011348725,2|0,0:0|1:0,0:0:0:0:
52,296,56616,2,0,P|55:266|64:238,1,59.5000011348725,8|0,1:2|0:0,0:0:0:0:
46,116,56963,6,0,P|74:140|114:148,1,68.2499968757631
104,148,57310,6,0,P|147:131|224:156,1,125.999996154785,4|2,1:2|0:0,0:0:0:0:
248,252,57830,2,0,P|308:240|336:232,1,62.9999980773926,0|8,1:0|1:2,0:0:0:0:
384,172,58177,1,0,0:0:0:0:
354,62,58350,6,0,P|293:76|231:87,1,125.999996154785,0|8,1:0|1:2,0:0:0:0:
119,73,58871,2,0,L|115:1,1,62.9999980773926,0|2,0:0|0:0,0:0:0:0:
232,88,59217,2,0,L|228:172,1,62.9999980773926,0|8,1:0|1:2,0:0:0:0:
180,240,59564,1,0,0:0:0:0:
100,176,59738,6,0,P|80:120|124:72,1,125.999996154785,0|8,1:0|1:2,0:0:0:0:
232,88,60258,2,0,P|288:96|324:96,1,62.9999980773926,0|2,0:0|0:0,0:0:0:0:
396,100,60605,1,0,1:0:0:0:
420,200,60778,1,8,1:2:0:0:
336,256,60952,1,0,0:0:0:0:
256,192,61125,6,0,P|196:172|120:188,1,125.999996154785,0|8,1:0|1:2,0:0:0:0:
60,252,61645,1,0,0:0:0:0:
160,276,61819,1,2,0:0:0:0:
135,180,61992,1,0,1:0:0:0:
160,276,62165,2,0,L|164:352,1,62.9999980773926,8|0,1:2|0:0,0:0:0:0:
255,284,62512,6,0,P|312:259|373:271,2,125.999996154785,0|0|0,1:0|1:0|1:0,0:0:0:0:
324,376,63553,1,0,1:0:0:0:
420,200,63900,2,0,P|432:136|416:68,1,125.999996154785,0|0,1:0|1:0,0:0:0:0:
256,20,64593,1,0,1:0:0:0:
132,148,64940,1,0,1:0:0:0:
312,204,65287,6,0,L|244:200,3,62.9999980773926,0|0|8|0,1:0|1:0|1:2|1:0,0:0:0:0:
284,108,65980,2,0,L|216:104,3,62.9999980773926,0|0|8|0,1:0|1:0|1:2|1:0,0:0:0:0:
136,48,66674,6,0,L|68:44,2,41.9999987182618,0|0|0,1:0|1:0|1:0,0:0:0:0:
128,132,67021,2,0,L|125:173,2,41.9999987182618,8|0|0,1:2|1:0|1:0,0:0:0:0:
44,128,67368,6,0,L|40:190,2,62.9999980773926,0|0|8,1:0|0:0|1:2,0:0:0:0:
136,48,67888,1,0,1:0:0:0:
216,140,68061,5,4,1:2:0:0:
412,308,73611,6,0,B|420:236|420:236|412:176,2,125.999996154785,0|2|0,0:0|0:0|0:0,0:0:0:0:
304,336,74998,2,0,B|256:316|208:336|208:336|236:352,2,125.999996154785,0|2|0,0:0|0:0|0:0,0:0:0:0:
304,336,76385,5,0,0:0:0:0:
428,264,76732,2,0,P|436:220|424:172,2,83.9999974365235,2|0|2,0:0|0:0|0:0,0:0:0:0:
332,308,77772,6,0,B|288:292|288:292|240:296|240:296|208:320|160:316|140:288|128:256|136:220,1,251.999992309571,0|2,0:0|0:0,0:0:0:0:
256,88,79160,6,0,P|317:82|365:120,1,125.999996154785,4|0,1:2|1:0,0:0:0:0:
380,220,79680,1,8,1:2:0:0:
472,256,79853,1,0,0:0:0:0:
472,256,80027,2,0,L|476:188,2,62.9999980773926,0|8|0,1:0|1:2|0:0,0:0:0:0:
368,340,80547,6,0,P|359:278|380:220,1,125.999996154785,4|0,1:2|1:0,0:0:0:0:
424,128,81067,1,8,1:2:0:0:
424,128,81241,2,0,L|426:65,2,62.9999980773926,0|0|8,0:0|1:0|1:2,0:0:0:0:
363,208,81761,1,0,0:0:0:0:
287,143,81934,6,0,P|227:111|155:143,1,125.999996154785,4|0,1:2|1:0,0:0:0:0:
104,200,82454,2,0,L|104:264,2,62.9999980773926,8|0|0,1:2|0:0|1:0,0:0:0:0:
174,126,82975,2,0,P|232:132|248:132,1,62.9999980773926,8|0,1:2|0:0,0:0:0:0:
336,136,83321,6,0,P|359:205|344:284,1,125.999996154785,4|0,1:2|1:0,0:0:0:0:
256,280,83842,2,0,B|192:288|192:288|120:252,1,125.999996154785,8|0,1:2|1:0,0:0:0:0:
76,180,84362,2,0,L|72:108,1,62.9999980773926,8|0,1:2|0:0,0:0:0:0:
112,24,84709,6,0,P|156:40|192:48,1,62.9999980773926,8|0,1:2|1:2,1:2:0:0:
256,68,85056,1,8,1:2:0:0:
256,68,85229,1,0,1:2:0:0:
340,44,85402,2,0,P|370:35|400:24,1,62.9999980773926,8|0,1:2|1:2,1:2:0:0:
480,64,85749,1,8,1:2:0:0:
404,112,85923,1,0,1:0:0:0:
320,136,86096,6,0,P|308:188|312:224,1,62.9999980773926,8|8,1:2|1:2,0:0:0:0:
396,304,86443,2,0,P|393:272|384:242,1,62.9999980773926,8|8,1:2|1:2,0:0:0:0:
308,197,86790,2,0,L|216:188,1,62.9999980773926,8|8,1:2|1:2,0:0:0:0:
165,286,87137,2,0,L|228:280,1,62.9999980773926,8|8,1:2|1:2,0:0:0:0:
333,310,87483,6,0,L|395:303,1,62.9999980773926,8|8,1:2|1:2,0:0:0:0:
452,220,87830,2,0,P|428:184|412:144,1,62.9999980773926,8|8,1:2|1:2,0:0:0:0:
376,76,88177,2,0,P|328:68|316:64,3,31.4999990386963,8|0|0|0,1:2|1:0|1:0|1:0,0:0:0:0:
308,96,88524,2,0,P|300:144|296:156,3,31.4999990386963,8|0|0|0,1:2|1:0|1:0|1:0,0:0:0:0:
296,164,88871,6,0,P|236:176|208:176,2,62.9999980773926,0|0|8,0:0|0:0|0:2,0:0:0:0:
280,260,89391,2,0,P|277:275|276:291,2,31.4999990386963,2|0|0,2:0|2:0|2:0,0:0:0:0:
168,288,89738,1,0,0:0:0:0:
168,288,89824,1,0,2:0:0:0:
168,288,89911,1,8,0:2:0:0:
80,212,90085,1,2,2:0:0:0:
80,212,90258,6,0,P|64:172|76:132,1,73.4999977569581,4|0,1:2|0:0,0:0:0:0:
136,56,90605,1,8,1:2:0:0:
136,56,90778,1,0,0:0:0:0:
236,104,90952,2,0,P|304:124|392:104,1,146.999995513916,2|8,0:0|1:2,0:0:0:0:
464,44,91472,1,0,0:0:0:0:
377,111,91645,6,0,L|381:187,1,73.4999977569581,0|0,1:0|0:0,0:0:0:0:
472,260,91992,2,0,L|476:184,1,73.4999977569581,8|0,1:2|0:0,0:0:0:0:
377,111,92339,2,0,B|341:91|341:91|285:123|233:99,1,146.999995513916,2|8,0:0|1:2,0:0:0:0:
136,56,92859,1,0,0:0:0:0:
176,164,93032,6,0,L|172:248,1,73.4999977569581,0|0,1:0|0:0,0:0:0:0:
260,317,93379,2,0,L|264:244,1,73.4999977569581,8|0,1:2|0:0,0:0:0:0:
176,164,93726,2,0,B|124:152|72:172|72:172|84:148|96:120,1,146.999995513916,2|8,0:0|1:2,0:0:0:0:
156,44,94246,1,0,0:0:0:0:
260,80,94420,6,0,L|256:153,1,73.4999977569581,0|0,1:0|0:0,0:0:0:0:
248,288,94767,1,8,1:2:0:0:
148,308,94940,1,0,0:0:0:0:
180,212,95113,2,0,P|248:184|316:212,1,146.999995513916,2|8,0:0|1:2,0:0:0:0:
356,304,95634,1,0,0:0:0:0:
448,256,95807,6,0,P|432:200|428:156,1,73.4999977569581,0|0,1:0|0:0,0:0:0:0:
488,44,96154,1,8,1:2:0:0:
500,148,96327,1,0,0:0:0:0:
404,108,96501,2,0,B|364:104|364:104|300:112|300:112|248:108,1,146.999995513916,2|8,0:0|1:2,0:0:0:0:
176,36,97021,1,0,0:0:0:0:
108,120,97194,6,0,P|96:156|104:196,1,73.4999977569581,0|0,1:0|0:0,0:0:0:0:
204,264,97541,2,0,P|216:232|208:192,1,73.4999977569581,8|0,1:2|0:0,0:0:0:0:
108,120,97888,2,0,B|44:84|44:84|116:36,1,146.999995513916,2|8,0:0|1:2,0:0:0:0:
204,112,98408,1,0,0:0:0:0:
312,64,98582,6,0,P|320:108|312:148,1,73.4999977569581,0|0,1:0|0:0,0:0:0:0:
412,216,98928,2,0,P|404:176|416:132,1,73.4999977569581,8|0,1:2|0:0,0:0:0:0:
447,32,99275,2,0,P|384:68|312:64,1,146.999995513916,2|8,0:0|1:2,0:0:0:0:
268,176,99795,1,0,0:0:0:0:
336,272,99969,6,0,B|276:252|236:272|236:272|184:256,1,146.999995513916,0|8,1:0|1:2,0:0:0:0:
96,204,100489,2,0,P|64:144|96:76,1,146.999995513916,2|0,0:0|1:0,0:0:0:0:
200,32,101009,2,0,L|280:28,1,73.4999977569581,8|0,1:2|0:0,0:0:0:0:
273,28,101269,1,0,1:0:0:0:
273,28,101356,6,0,P|312:56|344:68,1,73.4999977569581,4|0,1:2|0:0,0:0:0:0:
426,176,101703,2,0,P|419:140|420:104,1,73.4999977569581,8|0,1:2|0:2,0:2:0:0:
344,216,102050,2,0,P|276:242|206:226,1,146.999995513916,2|8,0:0|1:2,0:0:0:0:
128,160,102570,1,0,0:0:0:0:
108,260,102743,6,0,L|104:333,1,73.4999977569581,0|0,1:0|0:0,0:0:0:0:
205,225,103090,2,0,L|201:149,1,73.4999977569581,8|0,1:2|0:0,0:0:0:0:
104,112,103437,2,0,B|60:96|12:112|12:112|36:88|36:56,1,146.999995513916,2|8,0:0|1:2,0:0:0:0:
132,12,103957,1,0,0:0:0:0:
232,64,104131,6,0,B|268:80|268:80|324:76,1,73.4999977569581,0|0,1:0|0:0,0:0:0:0:
404,72,104478,2,0,L|408:160,1,73.4999977569581,8|0,1:2|0:0,0:0:0:0:
480,220,104824,2,0,P|424:248|332:220,1,146.999995513916,2|8,0:0|1:2,0:0:0:0:
407,145,105345,1,0,0:0:0:0:
480,220,105518,6,0,L|483:146,1,73.4999977569581,0|0,1:0|0:0,0:0:0:0:
404,72,105865,2,0,P|336:68|312:64,1,73.4999977569581,8|0,1:2|0:0,1:0:0:0:
336,176,106212,2,0,B|332:206|364:242|364:242|360:315,1,146.999995513916,2|8,0:0|1:2,0:0:0:0:
248,312,106732,1,0,0:0:0:0:
248,312,106905,6,0,L|251:238,1,73.4999977569581,0|0,1:0|0:0,0:0:0:0:
336,176,107252,2,0,P|370:165|407:163,1,73.4999977569581,8|0,1:2|0:0,0:0:0:0:
308,71,107599,2,0,P|241:100|171:83,1,146.999995513916,2|8,0:0|1:2,0:0:0:0:
171,83,108119,1,0,0:0:0:0:
96,164,108293,6,0,L|22:160,1,73.4999977569581,0|0,1:0|0:0,0:0:0:0:
80,276,108639,2,0,L|153:272,1,73.4999977569581,8|0,1:2|0:0,0:0:0:0:
248,212,108986,2,0,B|280:160|260:100|260:100|232:80,1,146.999995513916,2|8,0:0|1:2,0:0:0:0:
172,164,109506,1,0,0:0:0:0:
235,82,109680,6,0,P|271:74|307:78,1,73.4999977569581,0|0,1:0|0:0,0:0:0:0:
404,128,110027,2,0,L|408:212,1,73.4999977569581,8|0,1:2|0:0,0:0:0:0:
316,264,110374,2,0,P|252:228|168:256,1,146.999995513916,2|8,0:0|1:2,0:0:0:0:
100,312,110894,1,0,0:0:0:0:
36,224,111067,6,0,L|28:128,1,73.4999977569581,0|0,1:0|0:0,0:0:0:0:
20,48,111414,1,8,1:2:0:0:
20,48,111587,1,0,0:0:0:0:
112,4,111761,1,2,0:0:0:0:
112,4,111934,1,0,1:0:0:0:
196,64,112108,2,0,L|192:152,1,73.4999977569581,8|0,1:2|0:0,0:0:0:0:
268,188,112454,6,0,L|264:264,1,70,4|0,1:2|0:0,0:0:0:0:
336,332,112801,1,8,1:2:0:0:
264,257,112975,1,0,0:0:0:0:
184,320,113148,2,0,P|120:336|48:304,1,140,2|8,0:0|1:2,0:0:0:0:
12,212,113668,1,0,0:0:0:0:
96,148,113842,6,0,L|180:152,1,70,0|0,1:0|0:0,0:0:0:0:
212,248,114189,2,0,L|284:252,1,70,8|0,1:2|0:0,0:0:0:0:
376,208,114535,1,0,0:0:0:0:
456,140,114709,2,0,P|468:84|444:40,2,105,0|2|0,1:0|0:0|1:0,0:0:0:0:
376,208,115402,5,0,0:0:0:0:
308,128,115576,2,0,L|232:124,1,70,8|0,1:2|0:0,0:0:0:0:
139,227,115923,2,0,B|207:247|207:247|273:228,1,140,2|8,0:0|1:2,0:0:0:0:
376,208,116443,1,0,0:0:0:0:
308,128,116616,5,2,1:2:0:0:
274,229,116790,2,0,L|270:309,1,70,0|8,0:0|1:2,0:0:0:0:
344,372,117137,2,0,P|405:340|472:351,1,140,2|0,0:0|1:0,0:0:0:0:
512,256,117657,1,8,1:2:0:0:
448,176,117830,1,0,0:0:0:0:
448,176,118004,6,0,P|408:177|368:172,1,70,0|0,1:0|0:0,0:0:0:0:
276,148,118350,2,0,P|241:145|210:160,1,70,8|0,1:2|0:0,0:0:0:0:
140,236,118697,2,0,P|68:236|24:168,1,140,2|8,0:0|1:2,0:0:0:0:
52,84,119217,1,0,0:0:0:0:
142,32,119391,6,0,L|212:36,1,70,0|0,1:0|0:0,0:0:0:0:
268,128,119738,2,0,L|337:124,1,70,8|0,1:2|0:0,0:0:0:0:
412,48,120085,1,0,0:0:0:0:
480,128,120258,2,0,L|476:240,2,105,0|2|0,1:0|0:0|1:0,0:0:0:0:
412,48,120952,5,0,0:0:0:0:
376,148,121125,1,8,1:2:0:0:
480,128,121298,1,0,0:0:0:0:
412,48,121472,2,0,P|344:32|280:72,1,140,2|8,0:0|1:2,0:0:0:0:
228,168,121992,1,0,0:0:0:0:
276,276,122165,6,0,L|364:272,1,70,0|0,1:0|0:0,0:0:0:0:
461,183,122512,2,0,L|392:180,1,70,8|0,1:2|0:0,0:0:0:0:
345,272,122859,2,0,P|351:306|353:341,1,70,2|0,0:0|1:0,0:0:0:0:
264,204,123206,2,0,P|265:169|272:134,1,70,8|0,1:2|0:0,0:0:0:0:
319,39,123553,6,0,P|271:23|223:43,1,105
223,43,123900,6,0,P|188:48|128:52,1,70,4|0,1:2|0:0,0:0:0:0:
72,116,124246,1,2,0:0:0:0:
100,216,124420,1,0,1:0:0:0:
199,239,124593,2,0,P|244:248|284:248,1,70,8|0,1:2|0:0,0:0:0:0:
360,200,124940,6,0,L|364:124,1,70,0|0,1:0|0:0,0:0:0:0:
452,76,125287,1,8,1:2:0:0:
363,130,125460,1,0,0:0:0:0:
292,52,125634,1,0,0:0:0:0:
292,52,125807,2,0,B|220:44|220:44|164:56,2,105,0|2|0,1:0|0:0|1:0,0:0:0:0:
363,130,126501,5,0,0:0:0:0:
260,152,126674,2,0,P|216:160|168:160,1,70,8|0,1:2|0:0,0:0:0:0:
276,256,127021,2,0,P|340:240|417:273,1,140,2|8,0:0|1:2,0:0:0:0:
488,332,127541,1,0,0:0:0:0:
504,228,127715,5,2,1:2:0:0:
407,264,127888,2,0,L|327:260,1,70,0|8,0:0|1:2,0:0:0:0:
256,192,128235,2,0,P|236:136|276:64,1,140,2|0,0:0|1:0,0:0:0:0:
356,8,128755,2,0,L|440:4,1,70,8|0,1:2|0:0,0:0:0:0:
492,88,129102,6,0,L|488:240,1,140,0|0,1:0|1:2,0:0:0:0:
300,360,129795,2,0,L|296:212,1,140,0|0,1:0|1:2,0:0:0:0:
424,148,130489,6,0,P|356:161|288:121,1,140,0|0,1:0|1:2,0:0:0:0:
88,236,131183,2,0,P|156:223|224:263,1,140,0|0,1:0|1:2,0:0:0:0:
12,312,131876,6,0,L|8:228,3,70,0|0|8|0,1:0|1:0|1:2|1:0,0:0:0:0:
4,144,132570,2,0,L|73:140,3,70,0|0|8|0,1:0|1:0|1:2|1:0,0:0:0:0:
168,204,133264,6,0,P|191:206|214:202,2,46.6666666666667,0|0|0,1:0|1:0|1:0,0:0:0:0:
184,112,133611,2,0,P|180:89|182:65,2,46.6666666666667,8|0|0,1:2|1:0|1:0,0:0:0:0:
276,132,133957,6,0,P|312:132|368:120,2,70,0|0|8,1:0|0:0|1:2,0:0:0:0:
168,204,134478,1,0,1:0:0:0:
284,260,134651,5,4,1:2:0:0:
