osu file format v14

[General]
AudioFilename: sgd-bms.mp3
AudioLeadIn: 0
PreviewTime: 89911
Countdown: 0
SampleSet: Soft
StackLeniency: 0.4
Mode: 0
LetterboxInBreaks: 0
WidescreenStoryboard: 0

[Editor]
DistanceSpacing: 1.4
BeatDivisor: 4
GridSize: 4
TimelineZoom: 1.5

[Metadata]
Title:Sun Goes Down (BMS edit)
TitleUnicode:Sun Goes Down (BMS edit)
Artist:void
ArtistUnicode:void
Creator:Frey
Version:Advanced
Source:BMS
Tags:Kazuto HootOwlStar dnb drum'n'bass drum and bass OUTERSIDE #03 everclusion C79
BeatmapID:860426
BeatmapSetID:382413

[Difficulty]
HPDrainRate:5
CircleSize:3.5
OverallDifficulty:5
ApproachRate:6
SliderMultiplier:1.2
SliderTickRate:1

[Events]
//Background and Video events
0,0,"s.jpg",0,0
//Break Periods
2,68261,72214
//Storyboard Layer 0 (Background)
//Storyboard Layer 1 (Fail)
//Storyboard Layer 2 (Pass)
//Storyboard Layer 3 (Foreground)
//Storyboard Sound Samples

[TimingPoints]
85,346.820809248555,4,2,0,75,1,0
90258,-100,4,2,0,75,0,1
112454,-100,4,2,0,75,0,0

[Colours]
Combo1 : 255,149,202
Combo2 : 128,128,255
Combo3 : 254,199,84

[HitObjects]
368,144,85,6,0,P|332:204|400:292,1,180
452,132,952,1,0,0:0:0:0:
400,68,1125,2,0,P|356:64|324:60,1,60,2|0,0:0|0:0,0:0:0:0:
276,116,1472,6,0,P|216:124|156:129,1,120,0|2,0:0|0:0,0:0:0:0:
80,92,1992,2,0,P|20:124|40:224,1,180,0|2,0:0|0:0,0:0:0:0:
164,332,2859,2,0,P|156:244|152:188,1,120,0|2,0:0|0:0,0:0:0:0:
156,128,3379,2,0,P|196:96|308:152,1,180,0|2,0:0|0:0,0:0:0:0:
153,212,4246,5,0,0:0:0:0:
288,308,4593,1,2,0:0:0:0:
368,284,4767,2,0,P|372:205|384:80,1,180,0|2,0:0|0:0,0:0:0:0:
448,260,5634,2,0,P|444:318|403:360,1,120,0|2,0:0|0:0,0:0:0:0:
320,384,6154,2,0,P|252:332|140:360,1,180,0|2,0:0|0:0,0:0:0:0:
32,236,7021,6,0,L|152:224,1,120,0|2,0:0|0:0,0:0:0:0:
208,160,7541,2,0,P|144:96|180:8,1,180,0|2,0:0|0:0,0:0:0:0:
300,120,8408,2,0,P|287:191|280:260,1,120,0|2,0:0|0:0,0:0:0:0:
364,252,8928,2,0,P|444:216|440:112,1,180,0|2,0:0|0:0,0:0:0:0:
316,32,9795,6,0,L|172:48,1,120,0|2,0:0|0:0,0:0:0:0:
112,40,10316,2,0,P|100:105|92:240,1,180,0|2,0:0|0:0,0:0:0:0:
256,240,11183,2,0,P|267:174|276:96,1,120,0|2,0:0|0:0,0:0:0:0:
336,64,11703,2,0,P|256:37|192:96,1,180,0|2,0:0|0:0,0:0:0:0:
352,148,12570,5,4,1:2:0:0:
480,36,12917,1,0,1:0:0:0:
416,92,13090,2,0,P|445:155|468:200,1,120,8|0,1:2|1:0,0:0:0:0:
508,276,13611,1,8,1:2:0:0:
372,372,13957,6,0,P|312:344|256:344,1,120,4|0,1:2|1:0,0:0:0:0:
180,376,14478,2,0,P|116:360|88:296,1,120,8|0,1:2|1:0,0:0:0:0:
100,232,14998,1,8,1:2:0:0:
244,148,15345,1,4,1:2:0:0:
100,66,15691,1,0,1:0:0:0:
44,128,15865,2,0,P|99:148|154:129,1,120,8|0,1:2|1:0,0:0:0:0:
184,52,16385,1,8,1:2:0:0:
352,76,16732,6,0,P|336:184|332:216,1,120,4|0,1:2|1:0,0:0:0:0:
380,268,17252,2,0,P|439:276|498:285,1,120,8|0,1:2|1:0,0:0:0:0:
508,200,17772,1,8,1:2:0:0:
334,194,18119,6,0,L|248:216,2,60,12|0|8,1:2|1:0|1:2,0:0:0:0:
256,344,18813,2,0,L|197:329,2,60,8|0|8,1:2|1:0|1:2,0:0:0:0:
416,296,19506,2,0,P|420:260|412:228,2,60,12|0|8,1:2|1:0|1:2,0:0:0:0:
275,208,20200,2,0,P|271:172|279:140,2,60,8|0|8,1:2|1:0|1:2,0:0:0:0:
392,88,20894,6,0,P|328:72|312:64,1,60,8|8,1:2|1:2,1:0:0:0:
252,56,21241,2,0,P|223:65|193:69,1,60,8|8,1:2|1:2,1:0:0:0:
112,60,21587,2,0,P|56:100|64:160,1,120,8|8,1:2|1:2,0:0:0:0:
88,312,22281,2,0,P|104:268|116:236,1,60,0|0,1:0|1:0,0:0:0:0:
192,240,22628,2,0,L|296:220,2,90,8|2|0,1:2|0:0|1:2,0:0:0:0:
136,176,23321,1,8,1:2:0:0:
188,336,23668,6,0,L|320:356,1,120,4|8,1:2|1:2,0:0:0:0:
384,324,24189,2,0,P|356:272|376:196,1,120,2|0,0:0|1:0,0:0:0:0:
404,140,24709,1,8,1:2:0:0:
468,296,25056,1,0,1:0:0:0:
306,353,25402,1,8,1:2:0:0:
256,284,25576,2,0,P|265:227|292:144,1,120,2|0,0:0|1:0,0:0:0:0:
232,100,26096,1,8,1:2:0:0:
84,20,26443,6,0,P|52:80|80:148,1,120,0|8,1:0|1:2,0:0:0:0:
100,204,26963,2,0,P|160:208|236:224,1,120,2|0,0:0|1:0,0:0:0:0:
284,168,27483,1,8,1:2:0:0:
452,148,27830,2,0,P|468:220|460:284,1,120,0|8,1:0|1:2,0:0:0:0:
328,364,28524,2,0,P|276:356|252:348,1,60,2|0,0:0|1:0,0:0:0:0:
196,310,28871,1,8,1:2:0:0:
57,220,29217,6,0,P|42:276|70:328,1,120,0|8,1:0|1:2,0:0:0:0:
128,268,29738,2,0,P|143:211|115:159,1,120,2|0,0:0|1:0,0:0:0:0:
32,140,30258,1,8,1:2:0:0:
148,20,30605,2,0,L|292:32,1,120,0|8,1:0|1:2,0:0:0:0:
260,112,31125,2,0,L|379:102,1,120,2|0,0:0|1:0,0:0:0:0:
392,184,31645,1,8,1:2:0:0:
508,64,31992,5,0,1:0:0:0:
348,20,32339,1,8,1:2:0:0:
264,28,32512,2,0,L|144:37,1,120,2|0,0:0|1:0,0:0:0:0:
88,104,33032,1,8,1:2:0:0:
196,236,33379,6,0,P|180:176|196:120,1,120,0|8,1:0|1:2,0:0:0:0:
316,236,34073,2,0,P|328:264|332:300,1,60,2|0,0:0|1:0,0:0:0:0:
320,376,34420,1,8,1:2:0:0:
460,288,34767,1,4,1:2:0:0:
364,152,35113,1,8,1:2:0:0:
280,156,35287,2,0,P|216:152|144:136,1,120,2|0,0:0|1:0,0:0:0:0:
92,188,35807,1,8,1:2:0:0:
12,40,36154,6,0,P|88:40|124:72,1,120,0|8,1:0|1:2,0:0:0:0:
161,140,36674,2,0,P|172:210|176:260,1,120,2|0,0:0|1:0,0:0:0:0:
92,272,37194,1,8,1:2:0:0:
260,252,37541,2,0,P|316:284|380:272,1,120,0|8,1:0|1:2,0:0:0:0:
420,212,38061,2,0,P|448:256|436:328,1,120,2|0,0:0|1:0,0:0:0:0:
364,360,38582,1,8,1:2:0:0:
328,196,38928,6,0,P|320:136|328:76,1,120,0|8,1:0|1:2,0:0:0:0:
488,124,39622,2,0,L|500:212,1,60,2|0,0:0|1:0,0:0:0:0:
508,268,39969,1,8,1:2:0:0:
364,360,40316,2,0,L|236:340,1,120,0|8,1:0|1:2,0:0:0:0:
328,196,41009,2,0,L|404:208,2,60,2|0|8,0:0|1:0|1:2,0:0:0:0:
164,164,41703,5,0,1:0:0:0:
292,268,42050,1,8,1:2:0:0:
319,106,42397,2,0,P|312:68|296:28,1,60,2|0,0:0|1:0,0:0:0:0:
228,12,42743,1,8,1:2:0:0:
164,164,43090,2,0,P|148:232|156:296,1,120,0|8,1:0|1:2,0:0:0:0:
248,144,43784,2,0,P|216:96|196:84,1,60,2|0,0:0|1:0,0:0:0:0:
132,84,44131,1,8,1:2:0:0:
224,224,44478,6,0,P|281:216|348:212,1,120,2|8,1:2|1:2,0:0:0:0:
400,148,44998,1,0,0:0:0:0:
480,168,45171,2,0,P|492:216|492:240,1,60,2|0,0:0|1:0,0:0:0:0:
476,308,45518,2,0,P|460:344|436:376,1,60,8|0,1:2|0:0,0:0:0:0:
364,360,45865,6,0,P|304:355|244:348,2,120,4|8|0,1:2|1:2|0:0,0:0:0:0:
396,280,46732,1,0,1:0:0:0:
340,216,46905,1,8,1:2:0:0:
172,216,47252,2,0,P|144:157|140:88,1,120,0|8,1:0|1:2,0:0:0:0:
256,224,47946,2,0,P|240:280|240:300,1,60,0|0,0:0|1:0,0:0:0:0:
160,308,48293,2,0,P|104:292|84:292,1,60,8|0,1:2|0:0,0:0:0:0:
52,224,48639,5,0,1:0:0:0:
176,112,48986,1,8,1:2:0:0:
16,60,49333,2,0,L|-8:136,1,60,0|0,0:0|1:0,0:0:0:0:
80,140,49680,1,8,1:2:0:0:
216,40,50027,2,0,P|149:32|100:72,1,120,0|8,1:0|1:2,0:0:0:0:
176,112,50547,2,0,P|242:119|292:80,1,120,0|0,0:0|1:0,0:0:0:0:
333,21,51067,2,0,P|355:42|366:70,1,60,8|0,1:2|0:0,0:0:0:0:
340,152,51414,6,0,P|332:212|344:284,1,120,0|8,1:0|1:2,0:0:0:0:
460,152,52108,2,0,L|444:88,1,60,0|0,0:0|1:0,0:0:0:0:
365,69,52454,1,8,1:2:0:0:
256,196,52801,2,0,P|192:189|128:180,1,120,0|8,1:0|1:2,0:0:0:0:
8,288,53495,2,0,P|45:276|92:268,1,60,0|0,0:0|1:0,0:0:0:0:
148,264,53842,2,0,P|159:301|168:348,1,60,8|0,1:2|0:0,0:0:0:0:
86,354,54189,5,0,1:0:0:0:
16,200,54535,2,0,P|16:136|40:68,1,120,8|0,1:2|0:0,0:0:0:0:
92,24,55056,1,0,1:0:0:0:
160,72,55229,1,8,1:2:0:0:
180,240,55576,2,0,L|320:220,1,120,0|8,1:0|1:2,0:0:0:0:
453,279,56269,2,0,P|451:309|443:338,1,60,0|0,0:0|1:0,0:0:0:0:
364,364,56616,2,0,L|284:352,1,60,8|0,1:2|0:0,0:0:0:0:
220,340,56963,5,0,0:0:0:0:
144,188,57310,1,4,1:2:0:0:
292,112,57657,2,0,P|298:80|296:32,1,60,2|0,0:0|1:0,0:0:0:0:
232,0,58004,1,8,1:2:0:0:
228,168,58350,2,0,P|279:195|337:183,1,120,0|8,1:0|1:2,0:0:0:0:
200,88,59044,2,0,P|170:94|140:97,1,60,2|0,0:0|1:0,0:0:0:0:
56,108,59391,2,0,P|49:78|46:48,1,60,8|0,1:2|0:0,0:0:0:0:
124,16,59738,5,0,1:0:0:0:
96,180,60085,1,8,1:2:0:0:
260,208,60431,2,0,P|312:200|344:196,1,60,2|0,0:0|1:0,0:0:0:0:
364,128,60778,1,8,1:2:0:0:
200,88,61125,2,0,L|68:108,1,120,0|8,1:0|1:2,0:0:0:0:
20,164,61645,2,0,P|0:216|16:284,1,120,2|0,0:0|1:0,0:0:0:0:
68,340,62165,2,0,P|104:344|148:344,1,60,8|0,1:2|0:0,0:0:0:0:
196,296,62512,5,0,1:0:0:0:
152,132,62859,1,0,1:0:0:0:
316,88,63206,1,0,1:0:0:0:
360,252,63553,1,0,1:0:0:0:
200,208,63900,2,0,P|124:220|68:236,1,120,0|0,1:0|1:0,0:0:0:0:
0,84,64593,2,0,P|56:124|116:124,1,120,0|0,1:0|1:0,0:0:0:0:
164,288,65287,6,0,P|228:292|244:296,1,60,0|0,1:0|1:0,0:0:0:0:
288,236,65634,2,0,P|352:232|368:228,1,60,8|0,1:2|1:0,0:0:0:0:
432,224,65980,2,0,P|428:194|428:164,1,60,0|0,1:0|1:0,0:0:0:0:
424,80,66327,2,0,P|394:83|364:83,1,60,8|0,1:2|1:0,0:0:0:0:
284,60,66674,6,0,P|176:60|160:184,1,240,0|0,1:0|1:0,0:0:0:0:
256,304,67715,2,0,B|260:272|252:272|256:244,1,60,8|0,1:2|1:0,0:0:0:0:
256,160,68061,5,4,1:2:0:0:
124,308,73264,5,0,0:0:0:0:
40,164,73611,2,0,P|184:144|240:140,2,180,0|2|0,0:0|0:0|0:0,0:0:0:0:
160,48,74998,2,0,P|304:68|360:72,2,180,0|2|0,0:0|0:0|0:0,0:0:0:0:
40,164,76385,6,0,P|52:224|56:288,1,120
120,336,76905,2,0,P|164:304|232:312,1,120,2|0,0:0|0:0,0:0:0:0:
284,372,77426,1,0,0:0:0:0:
432,299,77772,2,0,L|312:290,1,120
256,228,78293,2,0,L|246:108,1,120,2|0,0:0|0:0,0:0:0:0:
304,48,78813,1,0,0:0:0:0:
464,104,79160,6,0,P|476:164|452:244,1,120,4|0,1:2|1:0,0:0:0:0:
432,300,79680,2,0,L|312:290,1,120,8|0,1:2|1:0,0:0:0:0:
240,332,80200,1,8,1:2:0:0:
152,192,80547,2,0,L|32:182,1,120,4|0,1:2|1:0,0:0:0:0:
44,268,81067,1,8,1:2:0:0:
212,252,81414,1,0,1:0:0:0:
236,172,81587,1,8,1:2:0:0:
404,188,81934,6,0,P|399:128|397:68,1,120,4|0,1:2|1:0,0:0:0:0:
324,24,82454,2,0,P|280:64|212:64,1,120,8|0,1:2|1:0,0:0:0:0:
148,28,82975,1,8,1:2:0:0:
12,124,83321,2,0,L|24:268,1,120,4|0,1:2|1:0,0:0:0:0:
104,264,83842,2,0,L|94:144,1,120,8|0,1:2|1:0,0:0:0:0:
168,104,84362,1,8,1:2:0:0:
272,236,84709,6,0,P|301:238|331:243,2,60,12|0|8,1:2|1:0|1:2,0:0:0:0:
104,264,85402,2,0,P|74:261|44:256,2,60,8|0|8,1:2|1:0|1:2,0:0:0:0:
240,368,86096,2,0,L|224:284,1,60,8|8,1:2|1:2,0:0:0:0:
272,236,86443,2,0,L|256:152,1,60,8|8,1:2|1:2,0:0:0:0:
196,124,86790,2,0,P|192:124|112:104,3,60,8|8|8|8,1:2|1:2|1:2|1:2,0:0:0:0:
80,176,87483,6,0,P|93:202|101:231,1,60,8|8,1:2|1:2,0:0:0:0:
184,252,87830,2,0,P|186:248|243:189,1,60,8|8,1:2|1:2,0:0:0:0:
196,124,88177,2,0,P|240:76|268:24,1,120,8|8,1:2|1:2,0:0:0:0:
308,191,88871,2,0,P|312:221|323:249,1,60,0|0,1:0|1:0,0:0:0:0:
408,235,89217,2,0,P|407:191|385:153,2,90,8|2|0,1:2|0:0|1:2,0:0:0:0:
380,316,89911,1,8,1:2:0:0:
232,232,90258,6,0,P|160:220|100:224,1,120,4|8,1:2|1:2,0:0:0:0:
32,248,90778,2,0,P|12:184|56:132,1,120,2|0,0:0|1:0,0:0:0:0:
124,136,91298,1,8,1:2:0:0:
156,300,91645,1,0,1:0:0:0:
320,328,91992,1,8,1:2:0:0:
384,272,92165,2,0,P|304:244|260:268,1,120,2|0,0:0|1:0,0:0:0:0:
236,332,92686,1,8,1:2:0:0:
400,356,93032,6,0,L|520:340,1,120,0|8,1:0|1:2,0:0:0:0:
496,168,93726,2,0,L|488:240,1,60,2|0,0:0|1:0,0:0:0:0:
404,240,94073,1,8,1:2:0:0:
256,156,94420,2,0,L|274:8,1,120,0|8,1:0|1:2,0:0:0:0:
328,196,95113,2,0,P|304:224|272:240,1,60,2|0,0:0|1:0,0:0:0:0:
200,220,95460,2,0,P|176:188|172:144,1,60,8|0,1:2|0:0,0:0:0:0:
152,88,95807,6,0,P|100:120|88:184,1,120,0|8,1:0|1:2,0:0:0:0:
120,252,96327,2,0,P|124:312|88:360,1,120,2|0,0:0|1:0,0:0:0:0:
44,288,96848,1,8,1:2:0:0:
200,348,97194,2,0,P|272:340|348:336,1,120,0|8,1:0|1:2,0:0:0:0:
384,280,97715,2,0,P|396:224|356:160,1,120,2|0,0:0|1:0,0:0:0:0:
284,160,98235,1,8,1:2:0:0:
384,24,98582,6,0,P|443:30|503:35,1,120,0|8,1:0|1:2,0:0:0:0:
425,186,99275,2,0,P|404:176|368:169,1,60,2|0,0:0|1:0,0:0:0:0:
284,160,99622,1,8,1:2:0:0:
184,292,99969,2,0,L|44:312,2,120,0|8|2,1:0|1:2|0:0,0:0:0:0:
208,212,100836,1,0,1:0:0:0:
124,196,101009,2,0,P|116:140|116:112,1,60,8|0,1:2|0:0,0:0:0:0:
136,56,101356,6,0,P|200:40|248:72,1,120,4|8,1:2|1:2,0:0:0:0:
300,132,101876,2,0,P|351:159|407:142,1,120,2|0,0:2|1:0,0:0:0:0:
472,88,102397,1,8,1:2:0:0:
448,252,102743,2,0,L|316:268,1,120,0|8,1:0|1:2,0:0:0:0:
268,208,103264,2,0,L|148:193,1,120,2|0,0:0|1:0,0:0:0:0:
76,236,103784,1,8,1:2:0:0:
20,76,104131,6,0,P|-4:120|8:188,1,120,0|8,1:0|1:2,0:0:0:0:
148,96,104824,2,0,P|140:52|136:16,1,60,2|0,0:0|1:0,0:0:0:0:
216,0,105171,1,8,1:2:0:0:
320,136,105518,2,0,L|301:254,1,120,0|8,1:0|1:2,0:0:0:0:
136,224,106212,2,0,L|106:219|76:214,1,60,2|0,0:0|1:0,0:0:0:0:
84,300,106558,2,0,P|113:304|143:309,1,60,8|0,1:2|0:0,0:0:0:0:
208,360,106905,6,0,P|272:344|344:348,1,120,0|8,1:0|1:2,0:0:0:0:
408,368,107426,2,0,P|472:372|516:308,1,120,2|0,0:0|1:0,0:0:0:0:
512,252,107946,1,8,1:2:0:0:
412,120,108293,2,0,P|328:132|276:136,1,120,0|8,1:0|1:2,0:0:0:0:
232,192,108813,2,0,P|248:228|240:316,1,120,2|0,0:0|1:0,0:0:0:0:
160,292,109333,1,8,1:2:0:0:
76,148,109680,6,0,P|68:89|87:32,1,120,0|8,1:0|1:2,0:0:0:0:
220,133,110374,2,0,L|236:217,1,60,2|0,0:0|1:0,0:0:0:0:
312,216,110720,1,8,1:2:0:0:
420,88,111067,6,0,P|340:76|288:64,1,120,0|8,1:0|1:2,0:0:0:0:
220,48,111587,1,0,0:0:0:0:
148,92,111761,2,0,P|136:136|136:152,1,60,2|0,0:0|1:0,0:0:0:0:
172,228,112108,2,0,P|188:280|188:312,1,60,8|0,1:2|0:0,0:0:0:0:
128,344,112454,6,0,P|181:368|237:352,1,120,4|8,1:2|1:2,0:0:0:0:
272,276,112975,2,0,P|325:251|381:267,1,120,2|0,0:0|1:0,0:0:0:0:
332,336,113495,1,8,1:2:0:0:
312,172,113842,2,0,P|304:104|300:32,1,120,0|8,1:0|1:2,0:0:0:0:
376,16,114362,2,0,P|428:40|444:100,1,120,2|0,0:0|1:0,0:0:0:0:
396,164,114882,1,8,1:2:0:0:
228,180,115229,6,0,L|88:168,1,120,0|8,1:0|1:2,0:0:0:0:
52,108,115749,2,0,P|32:140|44:224,1,120,2|0,0:0|1:0,0:0:0:0:
116,256,116269,1,8,1:2:0:0:
284,280,116616,1,0,1:0:0:0:
224,124,116963,1,8,1:2:0:0:
202,292,117310,2,0,L|207:322|212:352,1,60,2|0,0:0|1:0,0:0:0:0:
296,364,117657,1,8,1:2:0:0:
424,252,118004,6,0,P|436:192|424:136,1,120,0|8,1:0|1:2,0:0:0:0:
376,64,118524,2,0,L|236:80,1,120,2|0,0:0|1:0,0:0:0:0:
196,136,119044,1,8,1:2:0:0:
304,265,119391,2,0,L|423:251,1,120,0|8,1:0|1:2,0:0:0:0:
492,204,119911,2,0,P|504:256|472:320,1,120,2|0,0:0|1:0,0:0:0:0:
420,376,120431,1,8,1:2:0:0:
254,334,120778,6,0,P|223:284|228:225,1,120,0|8,1:0|1:2,0:0:0:0:
300,180,121298,2,0,P|312:120|308:56,1,120,2|0,0:0|1:0,0:0:0:0:
248,4,121819,1,8,1:2:0:0:
144,136,122165,2,0,P|132:194|134:254,1,120,0|8,1:0|1:2,0:0:0:0:
304,264,122859,2,0,P|360:256|388:248,1,60,2|0,0:0|1:0,0:0:0:0:
388,172,123206,1,8,1:2:0:0:
224,192,123553,5,0,0:0:0:0:
148,40,123900,1,4,1:2:0:0:
76,84,124073,2,0,P|76:156|64:228,1,120,2|0,0:0|1:0,0:0:0:0:
4,256,124593,1,8,1:2:0:0:
136,356,124940,2,0,P|188:336|272:344,1,120,0|8,1:0|1:2,0:0:0:0:
324,380,125460,2,0,L|468:364,1,120,2|0,0:0|1:0,0:0:0:0:
486,293,125980,1,8,1:2:0:0:
404,144,126327,5,0,1:0:0:0:
256,228,126674,1,8,1:2:0:0:
333,259,126848,2,0,P|335:200|298:155,1,120,2|0,0:0|1:0,0:0:0:0:
214,155,127368,1,8,1:2:0:0:
72,244,127715,2,0,P|56:164|40:108,1,120,0|8,1:0|1:2,0:0:0:0:
176,16,128408,2,0,P|188:68|196:92,1,60,2|0,0:0|1:0,0:0:0:0:
214,155,128755,1,8,1:2:0:0:
72,244,129102,5,0,1:0:0:0:
24,84,129449,1,0,1:2:0:0:
176,16,129795,2,0,P|260:28|312:32,1,120,0|0,1:0|1:2,0:0:0:0:
424,136,130489,2,0,P|364:141|316:176,1,120,0|0,1:0|1:2,0:0:0:0:
424,308,131183,1,0,1:0:0:0:
508,160,131530,1,0,1:2:0:0:
372,56,131876,6,0,P|320:64|300:64,1,60,0|0,1:0|1:0,0:0:0:0:
256,124,132223,2,0,P|264:176|264:196,1,60,8|0,1:2|1:0,0:0:0:0:
208,248,132570,2,0,P|156:256|136:256,1,60,0|0,1:0|1:0,0:0:0:0:
76,212,132917,2,0,P|68:160|68:140,1,60,8|0,1:2|1:0,0:0:0:0:
91,70,133264,6,0,B|171:138|211:-5|313:64,1,240,0|0,1:0|1:0,0:0:0:0:
416,196,134304,2,0,P|408:252|400:280,1,60,8|0,1:2|1:0,0:0:0:0:
328,280,134651,5,4,1:2:0:0:
