osu file format v14

[General]
AudioFilename: Just Hold on (To All Fighters) void.mp3
AudioLeadIn: 0
PreviewTime: 145522
Countdown: 0
SampleSet: Soft
StackLeniency: 0.7
Mode: 3
LetterboxInBreaks: 0
SpecialStyle: 0
WidescreenStoryboard: 0

[Editor]
Bookmarks: 23140,77316
DistanceSpacing: 1
BeatDivisor: 4
GridSize: 4
TimelineZoom: 2.1

[Metadata]
Title:Just Hold on (To All Fighters)
TitleUnicode:Just Hold on (To All Fighters)
Artist:void
ArtistUnicode:void
Creator:Blocko
Version:Pew's Another
Source:
Tags:the diverse system pump it up prime 2015 hard trance expew soul evans collab collaboration
BeatmapID:888791
BeatmapSetID:409440

[Difficulty]
HPDrainRate:8.5
CircleSize:7
OverallDifficulty:8
ApproachRate:9
SliderMultiplier:1.4
SliderTickRate:1

[Events]
//Background and Video events
0,0,"justholdon_bg.jpg",0,0
//Break Periods
//Storyboard Layer 0 (Background)
//Storyboard Layer 1 (Fail)
//Storyboard Layer 2 (Pass)
//Storyboard Layer 3 (Foreground)
//Storyboard Sound Samples

[TimingPoints]
111,352.941176470588,4,2,0,15,1,0
5758,-100,4,2,0,17,0,0
8581,-100,4,2,0,19,0,0
11405,-100,4,2,0,21,0,0
14228,-100,4,2,0,23,0,0
17052,-100,4,2,0,24,0,0
19875,-100,4,2,0,25,0,0
22699,-100,4,2,0,20,0,0
79169,-100,4,2,0,25,0,0
79522,-100,4,2,0,21,0,0
79699,-100,4,2,0,18,0,0
80052,-100,4,2,0,15,0,0
90463,-100,4,2,0,18,0,0
93287,-100,4,2,0,21,0,0
96110,-100,4,2,0,23,0,0
98934,-100,4,2,0,25,0,0
146934,-100,4,2,0,25,0,1
168110,-100,4,2,0,25,0,0
169522,-100,4,2,0,25,0,1
180816,-100,4,2,0,25,0,0
192110,-100,4,2,0,25,0,1
192199,-100,4,2,0,25,0,0
214699,-100,4,2,0,25,0,1
237199,-100,4,2,0,25,0,0
237287,-100,4,2,0,20,0,1
237375,-100,4,2,0,20,0,0

[HitObjects]
36,192,111,128,0,463:0:0:0:0:
182,192,463,128,0,816:0:0:0:0:
329,192,640,128,0,816:0:0:0:0:
475,192,993,128,0,1346:0:0:0:0:
36,192,1522,128,0,1875:0:0:0:0:
182,192,1875,128,0,2228:0:0:0:0:
402,192,2052,128,0,2228:0:0:0:0:
329,192,2405,128,0,2758:0:0:0:0:
36,192,2934,128,0,3287:0:0:0:0:
182,192,3287,128,0,3640:0:0:0:0:
329,192,3463,128,0,3640:0:0:0:0:
475,192,3816,128,0,4169:0:0:0:0:
36,192,4346,128,0,4699:0:0:0:0:
182,192,4699,128,0,5052:0:0:0:0:
475,192,4875,128,0,5052:0:0:0:0:
329,192,5228,128,0,5581:0:0:0:0:
182,192,5758,128,0,6110:0:0:0:0:
36,192,6110,128,0,6463:0:0:0:0:
329,192,6287,128,0,6463:0:0:0:0:
475,192,6640,128,0,6993:0:0:0:0:
109,192,7169,128,0,7522:0:0:0:0:
256,192,7522,128,0,7875:0:0:0:0:
475,192,7699,128,0,7875:0:0:0:0:
329,192,8052,128,0,8405:0:0:0:0:
256,192,8581,128,0,8934:0:0:0:0:
36,192,8934,128,0,9287:0:0:0:0:
182,192,9110,128,0,9287:0:0:0:0:
475,192,9463,128,0,9816:0:0:0:0:
329,192,9993,128,0,10346:0:0:0:0:
109,192,10346,128,0,10699:0:0:0:0:
256,192,10522,128,0,10699:0:0:0:0:
402,192,10875,128,0,11228:0:0:0:0:
36,192,11405,128,0,11758:0:0:0:0:
475,192,11758,1,0,0:0:0:60:jingle.wav
109,192,11758,128,0,12110:0:0:0:0:
329,192,11934,128,0,12110:0:0:0:0:
402,192,12110,1,0,0:0:0:60:jingle.wav
182,192,12287,128,0,12640:0:0:0:0:
475,192,12463,128,0,14228:0:0:0:60:jingle.wav
109,192,12816,128,0,13169:0:0:0:0:
182,192,13169,128,0,13522:0:0:0:0:
402,192,13346,128,0,13522:0:0:0:0:
256,192,13699,128,0,14052:0:0:0:0:
182,192,14228,128,0,14581:0:0:0:0:
329,192,14581,128,0,14934:0:0:0:0:
475,192,14758,128,0,14934:0:0:0:0:
182,192,15110,128,0,15463:0:0:0:0:
109,192,15640,128,0,15993:0:0:0:0:
256,192,15993,128,0,16346:0:0:0:0:
402,192,16169,128,0,16346:0:0:0:0:
109,192,16522,128,0,16875:0:0:0:0:
475,192,17052,1,0,0:0:0:18:snare.wav
329,192,17140,1,0,0:0:0:18:snare.wav
182,192,17228,1,0,0:0:0:18:snare.wav
36,192,17316,1,0,0:0:0:19:snare.wav
475,192,17405,1,0,0:0:0:60:jingle.wav
329,192,17405,1,0,0:0:0:19:snare.wav
182,192,17493,1,0,0:0:0:19:snare.wav
36,192,17581,1,0,0:0:0:20:snare.wav
256,192,17669,1,0,0:0:0:20:snare.wav
402,192,17758,1,0,0:0:0:60:jingle.wav
109,192,17758,1,0,0:0:0:20:snare.wav
256,192,17846,1,0,0:0:0:21:snare.wav
36,192,17934,1,0,0:0:0:21:snare.wav
182,192,18022,1,0,0:0:0:21:snare.wav
475,192,18110,128,0,19875:0:0:0:60:jingle.wav
329,192,18110,1,0,0:0:0:22:snare.wav
182,192,18199,1,0,0:0:0:22:snare.wav
36,192,18287,1,0,0:0:0:22:snare.wav
402,192,18375,1,0,0:0:0:23:snare.wav
256,192,18463,1,0,0:0:0:23:snare.wav
109,192,18552,1,0,0:0:0:23:snare.wav
256,192,18640,1,0,0:0:0:24:snare.wav
402,192,18728,1,0,0:0:0:24:snare.wav
36,192,18816,1,0,0:0:0:24:snare.wav
182,192,18905,1,0,0:0:0:25:snare.wav
329,192,18993,1,0,0:0:0:25:snare.wav
182,192,19081,1,0,0:0:0:25:snare.wav
36,192,19169,1,0,0:0:0:26:snare.wav
402,192,19258,1,0,0:0:0:26:snare.wav
256,192,19346,1,0,0:0:0:26:snare.wav
109,192,19434,1,0,0:0:0:27:snare.wav
256,192,19522,1,0,0:0:0:27:snare.wav
402,192,19610,1,0,0:0:0:27:snare.wav
36,192,19699,1,0,0:0:0:28:snare.wav
182,192,19787,1,0,0:0:0:28:snare.wav
329,192,19875,1,0,0:0:0:28:snare.wav
109,192,19963,1,0,0:0:0:29:snare.wav
402,192,20052,1,0,0:0:0:29:snare.wav
182,192,20140,1,0,0:0:0:29:snare.wav
475,192,20228,1,0,0:0:0:30:snare.wav
256,192,20316,1,0,0:0:0:30:snare.wav
36,192,20405,1,0,0:0:0:30:snare.wav
256,192,20493,1,0,0:0:0:31:snare.wav
475,192,20581,1,0,0:0:0:31:snare.wav
182,192,20669,1,0,0:0:0:31:snare.wav
402,192,20758,1,0,0:0:0:32:snare.wav
109,192,20846,1,0,0:0:0:32:snare.wav
329,192,20934,1,0,0:0:0:32:snare.wav
36,192,21022,1,0,0:0:0:33:snare.wav
256,192,21110,1,0,0:0:0:33:snare.wav
475,192,21199,1,0,0:0:0:33:snare.wav
36,192,21287,1,0,0:0:0:50:finish1.wav
109,192,21287,1,0,0:0:0:0:
182,192,21640,128,4,21993:3:0:0:30:
475,192,21816,128,4,21993:3:0:0:30:
36,192,21993,1,0,0:0:0:0:
329,192,21993,1,8,3:0:0:40:
256,192,22169,128,4,22522:3:0:0:30:
329,192,22699,1,0,0:0:0:60:kick.wav
36,192,22699,1,0,0:0:0:0:
182,192,22787,1,0,0:0:0:0:
402,192,22875,1,0,0:0:0:0:
256,192,22963,1,0,0:0:0:0:
182,192,23052,1,0,0:0:0:60:kick.wav
475,192,23052,1,0,0:0:0:0:
329,192,23140,1,0,0:0:0:0:
109,192,23228,1,0,0:0:0:0:
256,192,23316,1,0,0:0:0:0:
329,192,23405,1,0,0:0:0:60:kick.wav
36,192,23405,1,0,0:0:0:0:
182,192,23493,1,0,0:0:0:0:
402,192,23581,1,0,0:0:0:0:
256,192,23669,1,0,0:0:0:0:
475,192,23758,1,0,0:0:0:60:kick.wav
182,192,23758,1,0,0:0:0:0:
329,192,23846,1,0,0:0:0:0:
109,192,23934,1,0,0:0:0:0:
256,192,24022,1,0,0:0:0:0:
36,192,24110,1,0,0:0:0:60:kick.wav
402,192,24110,1,0,0:0:0:0:
109,192,24199,1,0,0:0:0:0:
256,192,24287,1,0,0:0:0:0:
182,192,24375,1,0,0:0:0:0:
109,192,24463,1,0,0:0:0:60:kick.wav
475,192,24463,1,0,0:0:0:0:
36,192,24552,1,0,0:0:0:0:
182,192,24640,1,0,0:0:0:0:
256,192,24728,1,0,0:0:0:0:
475,192,24816,1,0,0:0:0:60:kick.wav
109,192,24816,1,0,0:0:0:0:
402,192,24905,1,0,0:0:0:0:
256,192,24993,1,0,0:0:0:0:
329,192,25081,1,0,0:0:0:0:
402,192,25169,1,0,0:0:0:60:kick.wav
36,192,25169,1,0,0:0:0:0:
475,192,25258,1,0,0:0:0:0:
329,192,25346,1,0,0:0:0:0:
256,192,25434,1,0,0:0:0:0:
329,192,25522,1,0,0:0:0:60:kick.wav
36,192,25522,1,0,0:0:0:0:
182,192,25610,1,0,0:0:0:0:
402,192,25699,1,0,0:0:0:0:
256,192,25787,1,0,0:0:0:0:
475,192,25875,1,0,0:0:0:60:kick.wav
182,192,25875,1,0,0:0:0:0:
329,192,25963,1,0,0:0:0:0:
109,192,26052,1,0,0:0:0:0:
256,192,26140,1,0,0:0:0:0:
36,192,26228,1,0,0:0:0:60:kick.wav
329,192,26228,1,0,0:0:0:0:
182,192,26316,1,0,0:0:0:0:
402,192,26405,1,0,0:0:0:0:
256,192,26493,1,0,0:0:0:0:
475,192,26581,1,0,0:0:0:60:kick.wav
182,192,26581,1,0,0:0:0:0:
329,192,26669,1,0,0:0:0:0:
109,192,26758,1,0,0:0:0:0:
256,192,26846,1,0,0:0:0:0:
36,192,26934,1,0,0:0:0:60:kick.wav
475,192,26934,1,0,0:0:0:0:
329,192,27022,1,0,0:0:0:0:
182,192,27110,1,0,0:0:0:0:
402,192,27199,1,0,0:0:0:0:
475,192,27287,1,0,0:0:0:60:kick.wav
36,192,27287,1,0,0:0:0:0:
182,192,27375,1,0,0:0:0:0:
329,192,27463,1,0,0:0:0:0:
109,192,27552,1,0,0:0:0:0:
36,192,27640,1,0,0:0:0:60:kick.wav
475,192,27640,1,0,0:0:0:0:
329,192,27728,1,0,0:0:0:0:
182,192,27816,1,0,0:0:0:0:
402,192,27905,1,0,0:0:0:0:
36,192,27993,1,0,0:0:0:60:kick.wav
475,192,27993,1,0,0:0:0:0:
182,192,28081,1,0,0:0:0:0:
329,192,28169,1,0,0:0:0:0:
109,192,28258,1,0,0:0:0:0:
475,192,28346,1,0,0:0:0:60:kick.wav
256,192,28346,1,0,0:0:0:0:
36,192,28434,1,0,0:0:0:0:
182,192,28522,1,0,0:0:0:0:
329,192,28610,1,0,0:0:0:0:
36,192,28699,1,0,0:0:0:60:kick.wav
256,192,28699,1,0,0:0:0:0:
475,192,28787,1,0,0:0:0:0:
329,192,28875,1,0,0:0:0:0:
182,192,28963,1,0,0:0:0:0:
256,192,29052,1,0,0:0:0:60:kick.wav
475,192,29052,1,0,0:0:0:0:
36,192,29140,1,0,0:0:0:0:
182,192,29228,1,0,0:0:0:0:
329,192,29316,1,0,0:0:0:0:
36,192,29405,1,0,0:0:0:60:kick.wav
256,192,29405,1,0,0:0:0:0:
475,192,29493,1,0,0:0:0:0:
329,192,29581,1,0,0:0:0:0:
182,192,29669,1,0,0:0:0:0:
402,192,29758,1,0,0:0:0:60:kick.wav
109,192,29758,1,0,0:0:0:0:
256,192,29846,1,0,0:0:0:0:
475,192,29934,1,0,0:0:0:0:
182,192,30022,1,0,0:0:0:0:
329,192,30110,1,0,0:0:0:60:kick.wav
36,192,30110,1,0,0:0:0:0:
182,192,30199,1,0,0:0:0:0:
475,192,30287,1,0,0:0:0:0:
329,192,30375,1,0,0:0:0:0:
109,192,30463,1,0,0:0:0:60:kick.wav
402,192,30463,1,0,0:0:0:0:
256,192,30552,1,0,0:0:0:0:
36,192,30640,1,0,0:0:0:0:
329,192,30728,1,0,0:0:0:0:
475,192,30816,1,0,0:0:0:60:kick.wav
182,192,30816,1,0,0:0:0:0:
329,192,30905,1,0,0:0:0:0:
36,192,30993,1,0,0:0:0:0:
182,192,31081,1,0,0:0:0:0:
329,192,31169,1,0,0:0:0:60:kick.wav
475,192,31169,1,0,0:0:0:0:
36,192,31258,1,0,0:0:0:0:
182,192,31346,1,0,0:0:0:0:
36,192,31434,1,0,0:0:0:0:
329,192,31522,1,0,0:0:0:60:kick.wav
475,192,31522,1,0,0:0:0:0:
109,192,31610,1,0,0:0:0:0:
256,192,31699,1,0,0:0:0:0:
109,192,31787,1,0,0:0:0:0:
329,192,31875,1,0,0:0:0:60:kick.wav
475,192,31875,1,0,0:0:0:0:
36,192,31963,1,0,0:0:0:0:
182,192,32052,1,0,0:0:0:0:
36,192,32140,1,0,0:0:0:0:
329,192,32228,1,0,0:0:0:60:kick.wav
475,192,32228,1,0,0:0:0:0:
109,192,32316,1,0,0:0:0:0:
256,192,32405,1,0,0:0:0:0:
109,192,32493,1,0,0:0:0:0:
329,192,32581,1,0,0:0:0:60:kick.wav
475,192,32581,1,0,0:0:0:60:jingle.wav
402,192,32669,1,0,0:0:0:0:
256,192,32758,1,0,0:0:0:60:jingle.wav
402,192,32846,1,0,0:0:0:0:
36,192,32934,1,0,0:0:0:60:kick.wav
182,192,32934,1,0,0:0:0:60:jingle.wav
475,192,33022,1,0,0:0:0:60:jingle.wav
329,192,33110,1,0,0:0:0:0:
475,192,33199,1,0,0:0:0:0:
36,192,33287,1,0,0:0:0:60:kick.wav
182,192,33287,1,0,0:0:0:60:jingle.wav
402,192,33375,1,0,0:0:0:0:
256,192,33463,1,0,0:0:0:0:
402,192,33552,1,0,0:0:0:60:jingle.wav
182,192,33640,1,0,0:0:0:0:
475,192,33728,1,0,0:0:0:0:
329,192,33816,1,0,0:0:0:60:jingle.wav
475,192,33905,1,0,0:0:0:0:
36,192,33993,1,0,0:0:0:60:kick.wav
329,192,33993,128,0,34081:0:0:0:60:jingle.wav
182,192,34169,1,0,0:0:0:60:jingle.wav
402,192,34169,128,0,34258:0:0:0:60:hihat.wav
109,192,34258,1,0,0:0:0:0:
36,192,34346,1,0,0:0:0:60:kick.wav
329,192,34346,1,0,0:0:0:60:jingle.wav
475,192,34434,1,0,0:0:0:60:jingle.wav
36,192,34522,1,0,0:0:0:60:hihat.wav
109,192,34610,1,0,0:0:0:0:
402,192,34699,1,0,0:0:0:60:jingle.wav
182,192,34699,1,0,0:0:0:60:kick.wav
182,192,34875,1,0,0:0:0:60:hihat.wav
475,192,34963,1,0,0:0:0:60:jingle.wav
109,192,34963,1,0,0:0:0:0:
36,192,35052,1,0,0:0:0:60:kick.wav
329,192,35052,1,0,0:0:0:0:
36,192,35228,1,0,0:0:0:60:jingle.wav
402,192,35228,1,0,0:0:0:60:hihat.wav
109,192,35316,1,0,0:0:0:0:
182,192,35405,1,0,0:0:0:60:jingle.wav
329,192,35405,128,0,35493:0:0:0:60:kick.wav
475,192,35405,1,0,0:0:0:0:
402,192,35581,128,0,35669:0:0:0:60:jingle.wav
182,192,35581,1,0,0:0:0:60:hihat.wav
109,192,35669,1,0,0:0:0:0:
36,192,35758,1,0,0:0:0:60:jingle.wav
329,192,35758,1,0,0:0:0:60:kick.wav
475,192,35846,1,0,0:0:0:60:jingle.wav
36,192,35934,1,0,0:0:0:60:hihat.wav
109,192,36022,1,0,0:0:0:0:
402,192,36110,1,0,0:0:0:60:jingle.wav
182,192,36110,1,0,0:0:0:60:kick.wav
182,192,36287,1,0,0:0:0:60:hihat.wav
475,192,36375,1,0,0:0:0:60:jingle.wav
109,192,36375,1,0,0:0:0:0:
36,192,36463,1,0,0:0:0:60:kick.wav
329,192,36463,1,0,0:0:0:0:
329,192,36640,1,0,0:0:0:60:jingle.wav
36,192,36640,1,0,0:0:0:60:hihat.wav
109,192,36728,1,0,0:0:0:0:
182,192,36816,1,0,0:0:0:60:kick.wav
475,192,36816,1,0,0:0:0:0:
329,192,36816,128,0,36905:0:0:0:60:jingle.wav
402,192,36993,128,0,37081:0:0:0:60:jingle.wav
256,192,36993,1,0,0:0:0:60:hihat.wav
182,192,37081,1,0,0:0:0:0:
109,192,37169,1,0,0:0:0:60:jingle.wav
475,192,37169,1,0,0:0:0:60:kick.wav
329,192,37258,1,0,0:0:0:60:jingle.wav
36,192,37346,1,0,0:0:0:60:hihat.wav
109,192,37434,1,0,0:0:0:0:
402,192,37522,1,0,0:0:0:60:jingle.wav
182,192,37522,1,0,0:0:0:60:kick.wav
256,192,37699,1,0,0:0:0:60:hihat.wav
475,192,37787,1,0,0:0:0:60:jingle.wav
182,192,37787,1,0,0:0:0:0:
109,192,37875,1,0,0:0:0:60:kick.wav
402,192,38052,1,0,0:0:0:60:jingle.wav
36,192,38052,1,0,0:0:0:60:hihat.wav
109,192,38140,1,0,0:0:0:0:
329,192,38228,128,0,38316:0:0:0:60:kick.wav
182,192,38228,1,0,0:0:0:60:jingle.wav
402,192,38405,128,0,38493:0:0:0:60:jingle.wav
329,192,38405,1,0,0:0:0:60:hihat.wav
256,192,38493,1,0,0:0:0:0:
182,192,38581,1,0,0:0:0:60:jingle.wav
475,192,38581,1,0,0:0:0:60:kick.wav
329,192,38669,1,0,0:0:0:60:jingle.wav
36,192,38758,1,0,0:0:0:60:hihat.wav
109,192,38846,1,0,0:0:0:0:
182,192,38934,1,0,0:0:0:60:jingle.wav
402,192,38934,1,0,0:0:0:60:kick.wav
182,192,39110,1,0,0:0:0:60:hihat.wav
475,192,39199,1,0,0:0:0:60:jingle.wav
109,192,39199,1,0,0:0:0:0:
36,192,39287,1,0,0:0:0:60:kick.wav
182,192,39463,1,0,0:0:0:60:jingle.wav
475,192,39463,1,0,0:0:0:60:hihat.wav
256,192,39552,1,0,0:0:0:0:
329,192,39640,1,0,0:0:0:60:jingle.wav
182,192,39640,128,0,39728:0:0:0:60:kick.wav
329,192,39816,1,0,0:0:0:60:jingle.wav
109,192,39816,128,0,39905:0:0:0:60:hihat.wav
402,192,39905,1,0,0:0:0:0:
182,192,39993,1,0,0:0:0:60:kick.wav
475,192,39993,1,0,0:0:0:60:jingle.wav
36,192,40081,1,0,0:0:0:60:jingle.wav
475,192,40169,1,0,0:0:0:60:hihat.wav
402,192,40258,1,0,0:0:0:0:
329,192,40346,1,0,0:0:0:60:jingle.wav
109,192,40346,1,0,0:0:0:60:kick.wav
329,192,40522,1,0,0:0:0:60:hihat.wav
36,192,40610,1,0,0:0:0:60:jingle.wav
402,192,40610,1,0,0:0:0:0:
475,192,40699,1,0,0:0:0:60:kick.wav
182,192,40699,1,0,0:0:0:0:
475,192,40875,1,0,0:0:0:60:jingle.wav
109,192,40875,1,0,0:0:0:60:hihat.wav
402,192,40963,1,0,0:0:0:0:
329,192,41052,1,0,0:0:0:60:jingle.wav
182,192,41052,128,0,41140:0:0:0:60:kick.wav
36,192,41052,1,0,0:0:0:0:
109,192,41228,128,0,41316:0:0:0:60:jingle.wav
329,192,41228,1,0,0:0:0:60:hihat.wav
402,192,41316,1,0,0:0:0:0:
475,192,41405,1,0,0:0:0:60:jingle.wav
182,192,41405,1,0,0:0:0:60:kick.wav
36,192,41493,1,0,0:0:0:60:jingle.wav
475,192,41581,1,0,0:0:0:60:hihat.wav
402,192,41669,1,0,0:0:0:0:
109,192,41758,1,0,0:0:0:60:jingle.wav
329,192,41758,1,0,0:0:0:60:kick.wav
329,192,41934,1,0,0:0:0:60:hihat.wav
36,192,42022,1,0,0:0:0:60:jingle.wav
402,192,42022,1,0,0:0:0:0:
182,192,42110,1,0,0:0:0:60:kick.wav
475,192,42110,1,0,0:0:0:0:
475,192,42287,1,0,0:0:0:60:jingle.wav
109,192,42287,1,0,0:0:0:60:hihat.wav
402,192,42375,1,0,0:0:0:0:
329,192,42463,1,0,0:0:0:60:kick.wav
182,192,42463,128,0,42552:0:0:0:60:jingle.wav
36,192,42463,1,0,0:0:0:0:
109,192,42640,128,0,42728:0:0:0:60:hihat.wav
256,192,42640,1,0,0:0:0:60:jingle.wav
329,192,42728,1,0,0:0:0:0:
402,192,42816,1,0,0:0:0:60:kick.wav
36,192,42816,1,0,0:0:0:60:jingle.wav
182,192,42905,1,0,0:0:0:60:jingle.wav
475,192,42993,1,0,0:0:0:60:hihat.wav
402,192,43081,1,0,0:0:0:0:
329,192,43169,1,0,0:0:0:60:kick.wav
109,192,43169,1,0,0:0:0:60:jingle.wav
256,192,43346,1,0,0:0:0:60:hihat.wav
36,192,43434,1,0,0:0:0:60:jingle.wav
329,192,43434,1,0,0:0:0:0:
402,192,43522,1,0,0:0:0:60:kick.wav
109,192,43699,1,0,0:0:0:60:hihat.wav
475,192,43699,1,0,0:0:0:60:jingle.wav
402,192,43787,1,0,0:0:0:0:
329,192,43875,1,0,0:0:0:60:kick.wav
182,192,43875,128,0,43963:0:0:0:60:jingle.wav
182,192,44052,1,0,0:0:0:60:jingle.wav
109,192,44052,128,0,44140:0:0:0:60:hihat.wav
256,192,44140,1,0,0:0:0:0:
329,192,44228,1,0,0:0:0:60:jingle.wav
36,192,44228,1,0,0:0:0:60:kick.wav
182,192,44316,1,0,0:0:0:60:jingle.wav
475,192,44405,1,0,0:0:0:60:hihat.wav
402,192,44493,1,0,0:0:0:0:
109,192,44581,1,0,0:0:0:60:jingle.wav
329,192,44581,1,0,0:0:0:60:kick.wav
475,192,44669,1,0,0:0:0:0:
329,192,44758,1,0,0:0:0:60:hihat.wav
36,192,44846,1,0,0:0:0:60:jingle.wav
475,192,44846,128,0,44934:0:0:0:0:
329,192,45022,1,0,0:0:0:0:
402,192,45110,1,0,0:0:0:60:jingle.wav
109,192,45110,1,0,0:0:0:60:hihat.wav
182,192,45199,1,0,0:0:0:0:
329,192,45287,128,0,45375:0:0:0:60:jingle.wav
109,192,45287,128,0,45375:0:0:0:60:kick.wav
402,192,45463,128,0,45552:0:0:0:90:hihat.wav
182,192,45463,128,0,45552:0:0:0:60:jingle.wav
475,192,45640,1,0,0:0:0:60:hihat.wav
36,192,45640,1,0,0:0:0:60:kick.wav
329,192,45728,1,0,0:0:0:60:hihat.wav
182,192,45816,1,0,0:0:0:90:hihat.wav
402,192,45905,1,0,0:0:0:60:hihat.wav
36,192,45993,1,0,0:0:0:60:kick.wav
475,192,45993,1,0,0:0:0:60:hihat.wav
182,192,46081,1,0,0:0:0:60:hihat.wav
329,192,46169,1,0,0:0:0:90:hihat.wav
109,192,46258,1,0,0:0:0:60:hihat.wav
475,192,46346,1,0,0:0:0:60:hihat.wav
329,192,46346,1,0,0:0:0:60:kick.wav
182,192,46434,1,0,0:0:0:60:hihat.wav
36,192,46522,1,0,0:0:0:90:hihat.wav
256,192,46610,1,0,0:0:0:60:hihat.wav
109,192,46699,128,0,46787:0:0:0:60:jingle.wav
329,192,46699,128,0,46787:0:0:0:60:kick.wav
182,192,46875,128,0,46963:0:0:0:90:hihat.wav
402,192,46875,128,0,46963:0:0:0:60:jingle.wav
36,192,47052,1,0,0:0:0:60:kick.wav
475,192,47052,1,0,0:0:0:60:hihat.wav
182,192,47140,1,0,0:0:0:60:hihat.wav
329,192,47228,1,0,0:0:0:90:hihat.wav
109,192,47316,1,0,0:0:0:60:hihat.wav
475,192,47405,1,0,0:0:0:60:hihat.wav
36,192,47405,1,0,0:0:0:60:kick.wav
329,192,47493,1,0,0:0:0:60:hihat.wav
182,192,47581,1,0,0:0:0:90:hihat.wav
402,192,47669,1,0,0:0:0:60:hihat.wav
182,192,47758,1,0,0:0:0:60:hihat.wav
36,192,47758,1,0,0:0:0:60:kick.wav
329,192,47846,1,0,0:0:0:60:hihat.wav
475,192,47934,1,0,0:0:0:90:hihat.wav
256,192,48022,1,0,0:0:0:60:hihat.wav
109,192,48110,128,0,48199:0:0:0:60:kick.wav
329,192,48110,128,0,48199:0:0:0:60:jingle.wav
182,192,48287,128,0,48375:0:0:0:90:hihat.wav
402,192,48287,128,0,48375:0:0:0:60:jingle.wav
36,192,48463,1,0,0:0:0:60:kick.wav
256,192,48463,1,0,0:0:0:60:hihat.wav
475,192,48552,1,0,0:0:0:60:hihat.wav
329,192,48640,1,0,0:0:0:90:hihat.wav
182,192,48728,1,0,0:0:0:60:hihat.wav
256,192,48816,1,0,0:0:0:60:kick.wav
475,192,48816,1,0,0:0:0:60:hihat.wav
36,192,48905,1,0,0:0:0:60:hihat.wav
182,192,48993,1,0,0:0:0:90:hihat.wav
329,192,49081,1,0,0:0:0:60:hihat.wav
109,192,49169,1,0,0:0:0:60:kick.wav
475,192,49169,1,0,0:0:0:60:hihat.wav
329,192,49258,1,0,0:0:0:60:hihat.wav
182,192,49346,1,0,0:0:0:90:hihat.wav
36,192,49434,1,0,0:0:0:60:hihat.wav
109,192,49522,128,0,49610:0:0:0:60:jingle.wav
329,192,49522,128,0,49610:0:0:0:60:kick.wav
182,192,49699,128,0,49787:0:0:0:90:hihat.wav
402,192,49699,128,0,49787:0:0:0:60:jingle.wav
475,192,49875,1,0,0:0:0:60:hihat.wav
256,192,49875,1,0,0:0:0:60:kick.wav
36,192,49963,1,0,0:0:0:60:hihat.wav
182,192,50052,1,0,0:0:0:90:hihat.wav
329,192,50140,1,0,0:0:0:60:hihat.wav
256,192,50228,1,0,0:0:0:60:kick.wav
36,192,50228,1,0,0:0:0:60:hihat.wav
475,192,50316,1,0,0:0:0:60:hihat.wav
329,192,50405,1,0,0:0:0:90:hihat.wav
182,192,50493,1,0,0:0:0:60:hihat.wav
36,192,50581,1,0,0:0:0:60:kick.wav
402,192,50581,1,0,0:0:0:60:hihat.wav
182,192,50669,1,0,0:0:0:60:hihat.wav
329,192,50758,1,0,0:0:0:90:hihat.wav
475,192,50846,1,0,0:0:0:60:hihat.wav
109,192,50934,128,0,51022:0:0:0:60:kick.wav
329,192,50934,128,0,51022:0:0:0:60:jingle.wav
182,192,51110,128,0,51199:0:0:0:90:hihat.wav
402,192,51110,128,0,51199:0:0:0:60:jingle.wav
36,192,51287,1,0,0:0:0:60:kick.wav
475,192,51287,1,0,0:0:0:60:hihat.wav
182,192,51375,1,0,0:0:0:60:hihat.wav
329,192,51463,1,0,0:0:0:90:hihat.wav
182,192,51552,1,0,0:0:0:60:hihat.wav
475,192,51640,1,0,0:0:0:60:kick.wav
36,192,51640,1,0,0:0:0:60:hihat.wav
329,192,51728,1,0,0:0:0:60:hihat.wav
182,192,51816,1,0,0:0:0:90:hihat.wav
329,192,51905,1,0,0:0:0:60:hihat.wav
36,192,51993,1,0,0:0:0:60:kick.wav
475,192,51993,1,0,0:0:0:60:hihat.wav
182,192,52081,1,0,0:0:0:60:hihat.wav
329,192,52169,1,0,0:0:0:90:hihat.wav
475,192,52258,1,0,0:0:0:60:hihat.wav
109,192,52346,128,0,52434:0:0:0:60:jingle.wav
329,192,52346,128,0,52434:0:0:0:60:kick.wav
182,192,52522,128,0,52610:0:0:0:90:hihat.wav
402,192,52522,128,0,52610:0:0:0:60:jingle.wav
475,192,52699,1,0,0:0:0:60:kick.wav
36,192,52699,1,0,0:0:0:60:hihat.wav
329,192,52787,1,0,0:0:0:60:hihat.wav
182,192,52875,1,0,0:0:0:90:hihat.wav
329,192,52963,1,0,0:0:0:60:hihat.wav
36,192,53052,1,0,0:0:0:60:kick.wav
475,192,53052,1,0,0:0:0:60:hihat.wav
182,192,53140,1,0,0:0:0:60:hihat.wav
329,192,53228,1,0,0:0:0:90:hihat.wav
182,192,53316,1,0,0:0:0:60:hihat.wav
36,192,53405,1,0,0:0:0:60:kick.wav
475,192,53405,1,0,0:0:0:60:hihat.wav
329,192,53493,1,0,0:0:0:60:hihat.wav
182,192,53581,1,0,0:0:0:90:hihat.wav
36,192,53669,1,0,0:0:0:60:hihat.wav
109,192,53758,128,0,53846:0:0:0:60:kick.wav
329,192,53758,128,0,53846:0:0:0:60:jingle.wav
402,192,53934,128,0,54022:0:0:0:90:hihat.wav
182,192,53934,128,0,54022:0:0:0:60:jingle.wav
182,192,54110,1,0,0:0:0:60:hihat.wav
475,192,54110,1,0,0:0:0:60:kick.wav
329,192,54199,1,0,0:0:0:60:hihat.wav
402,192,54287,1,0,0:0:0:90:hihat.wav
475,192,54375,1,0,0:0:0:60:hihat.wav
36,192,54463,1,0,0:0:0:60:kick.wav
329,192,54463,1,0,0:0:0:60:hihat.wav
182,192,54552,1,0,0:0:0:60:hihat.wav
256,192,54640,1,0,0:0:0:90:hihat.wav
329,192,54728,1,0,0:0:0:60:hihat.wav
182,192,54816,1,0,0:0:0:60:hihat.wav
475,192,54816,1,0,0:0:0:60:kick.wav
36,192,54905,1,0,0:0:0:60:hihat.wav
109,192,54993,1,0,0:0:0:90:hihat.wav
182,192,55081,1,0,0:0:0:60:hihat.wav
329,192,55169,128,0,55258:0:0:0:60:kick.wav
109,192,55169,128,0,55258:0:0:0:60:jingle.wav
402,192,55346,128,0,55434:0:0:0:90:hihat.wav
182,192,55346,128,0,55434:0:0:0:60:jingle.wav
329,192,55522,1,0,0:0:0:60:kick.wav
36,192,55522,1,0,0:0:0:60:hihat.wav
182,192,55610,1,0,0:0:0:60:hihat.wav
109,192,55699,1,0,0:0:0:90:hihat.wav
36,192,55787,1,0,0:0:0:60:hihat.wav
475,192,55875,1,0,0:0:0:60:hihat.wav
182,192,55875,1,0,0:0:0:60:kick.wav
329,192,55963,1,0,0:0:0:60:hihat.wav
256,192,56052,1,0,0:0:0:90:hihat.wav
182,192,56140,1,0,0:0:0:60:hihat.wav
329,192,56228,1,0,0:0:0:0:
475,192,56316,1,0,0:0:0:60:hihat.wav
402,192,56405,1,0,0:0:0:90:hihat.wav
329,192,56493,1,0,0:0:0:60:hihat.wav
182,192,56581,128,0,56669:0:0:0:60:jingle.wav
402,192,56581,128,0,56669:0:0:0:60:kick.wav
256,192,56758,128,0,56846:0:0:0:90:hihat.wav
475,192,56758,128,0,56846:0:0:0:60:jingle.wav
109,192,56934,1,0,0:0:0:60:kick.wav
402,192,56934,1,0,0:0:0:60:hihat.wav
36,192,56934,128,0,57993:0:0:0:0:
475,192,57022,1,0,0:0:0:60:hihat.wav
329,192,57110,1,0,0:0:0:90:hihat.wav
182,192,57199,1,0,0:0:0:60:hihat.wav
109,192,57287,1,0,0:0:0:60:hihat.wav
402,192,57287,1,0,0:0:0:60:kick.wav
475,192,57375,1,0,0:0:0:60:hihat.wav
329,192,57463,1,0,0:0:0:90:hihat.wav
182,192,57552,1,0,0:0:0:60:hihat.wav
109,192,57640,1,0,0:0:0:60:hihat.wav
402,192,57640,1,0,0:0:0:60:kick.wav
475,192,57728,1,0,0:0:0:60:hihat.wav
329,192,57816,1,0,0:0:0:90:hihat.wav
182,192,57905,1,0,0:0:0:60:hihat.wav
109,192,57993,128,0,58081:0:0:0:60:jingle.wav
329,192,57993,128,0,58081:0:0:0:60:kick.wav
182,192,58169,128,0,58258:0:0:0:90:hihat.wav
402,192,58169,128,0,58258:0:0:0:60:jingle.wav
402,192,58346,1,0,0:0:0:60:hihat.wav
109,192,58346,1,0,0:0:0:60:kick.wav
475,192,58346,128,0,59405:0:0:0:0:
36,192,58434,1,0,0:0:0:60:hihat.wav
182,192,58522,1,0,0:0:0:90:hihat.wav
329,192,58610,1,0,0:0:0:60:hihat.wav
402,192,58699,1,0,0:0:0:60:hihat.wav
109,192,58699,1,0,0:0:0:60:kick.wav
36,192,58787,1,0,0:0:0:60:hihat.wav
182,192,58875,1,0,0:0:0:90:hihat.wav
329,192,58963,1,0,0:0:0:60:hihat.wav
402,192,59052,1,0,0:0:0:60:hihat.wav
109,192,59052,1,0,0:0:0:60:kick.wav
36,192,59140,1,0,0:0:0:60:hihat.wav
182,192,59228,1,0,0:0:0:90:hihat.wav
329,192,59316,1,0,0:0:0:60:hihat.wav
36,192,59405,128,0,59493:0:0:0:60:jingle.wav
256,192,59405,128,0,59493:0:0:0:60:kick.wav
109,192,59581,128,0,59669:0:0:0:90:hihat.wav
329,192,59581,128,0,59669:0:0:0:60:jingle.wav
36,192,59758,1,0,0:0:0:60:kick.wav
475,192,59758,1,0,0:0:0:60:hihat.wav
256,192,59758,128,0,60816:0:0:0:0:
182,192,59846,1,0,0:0:0:60:hihat.wav
329,192,59934,1,0,0:0:0:90:hihat.wav
109,192,60022,1,0,0:0:0:60:hihat.wav
475,192,60110,1,0,0:0:0:60:kick.wav
36,192,60110,1,0,0:0:0:60:hihat.wav
329,192,60199,1,0,0:0:0:60:hihat.wav
182,192,60287,1,0,0:0:0:90:hihat.wav
402,192,60375,1,0,0:0:0:60:hihat.wav
36,192,60463,1,0,0:0:0:60:kick.wav
475,192,60463,1,0,0:0:0:60:hihat.wav
182,192,60552,1,0,0:0:0:60:hihat.wav
329,192,60640,1,0,0:0:0:90:hihat.wav
109,192,60728,1,0,0:0:0:60:hihat.wav
182,192,60816,128,0,60905:0:0:0:60:jingle.wav
402,192,60816,128,0,60905:0:0:0:60:kick.wav
475,192,60993,128,0,61081:0:0:0:90:hihat.wav
256,192,60993,128,0,61081:0:0:0:60:jingle.wav
256,192,61169,1,0,0:0:0:60:hihat.wav
402,192,61169,1,0,0:0:0:60:kick.wav
36,192,61169,128,0,62228:0:0:0:0:
182,192,61258,1,0,0:0:0:60:hihat.wav
329,192,61346,1,0,0:0:0:90:hihat.wav
475,192,61434,1,0,0:0:0:60:hihat.wav
109,192,61522,1,0,0:0:0:60:hihat.wav
256,192,61522,1,0,0:0:0:60:kick.wav
475,192,61610,1,0,0:0:0:60:hihat.wav
329,192,61699,1,0,0:0:0:90:hihat.wav
182,192,61787,1,0,0:0:0:60:hihat.wav
256,192,61875,1,0,0:0:0:60:hihat.wav
402,192,61875,1,0,0:0:0:60:kick.wav
182,192,61963,1,0,0:0:0:60:hihat.wav
329,192,62052,1,0,0:0:0:90:hihat.wav
475,192,62140,1,0,0:0:0:60:hihat.wav
109,192,62228,128,0,62316:0:0:0:60:kick.wav
329,192,62228,128,0,62316:0:0:0:60:jingle.wav
182,192,62405,128,0,62493:0:0:0:90:hihat.wav
402,192,62405,128,0,62493:0:0:0:60:jingle.wav
402,192,62581,1,0,0:0:0:60:kick.wav
36,192,62581,1,0,0:0:0:60:hihat.wav
329,192,62581,128,0,63640:0:0:0:0:
182,192,62669,1,0,0:0:0:60:hihat.wav
109,192,62758,1,0,0:0:0:90:hihat.wav
182,192,62846,1,0,0:0:0:60:hihat.wav
402,192,62934,1,0,0:0:0:60:kick.wav
36,192,62934,1,0,0:0:0:60:hihat.wav
182,192,63022,1,0,0:0:0:60:hihat.wav
109,192,63110,1,0,0:0:0:90:hihat.wav
182,192,63199,1,0,0:0:0:60:hihat.wav
36,192,63287,1,0,0:0:0:60:kick.wav
402,192,63287,1,0,0:0:0:60:hihat.wav
182,192,63375,1,0,0:0:0:60:hihat.wav
109,192,63463,1,0,0:0:0:90:hihat.wav
182,192,63552,1,0,0:0:0:60:hihat.wav
36,192,63640,128,0,63728:0:0:0:60:kick.wav
256,192,63640,128,0,63728:0:0:0:60:jingle.wav
109,192,63816,128,0,63905:0:0:0:90:hihat.wav
329,192,63816,128,0,63905:0:0:0:60:jingle.wav
475,192,63993,1,0,0:0:0:60:kick.wav
36,192,63993,1,0,0:0:0:60:hihat.wav
402,192,63993,128,0,65052:0:0:0:0:
256,192,64081,1,0,0:0:0:60:hihat.wav
182,192,64169,1,0,0:0:0:90:hihat.wav
256,192,64258,1,0,0:0:0:60:hihat.wav
475,192,64346,1,0,0:0:0:60:kick.wav
109,192,64346,1,0,0:0:0:60:hihat.wav
256,192,64434,1,0,0:0:0:60:hihat.wav
182,192,64522,1,0,0:0:0:90:hihat.wav
256,192,64610,1,0,0:0:0:60:hihat.wav
475,192,64699,1,0,0:0:0:60:kick.wav
36,192,64699,1,0,0:0:0:60:hihat.wav
256,192,64787,1,0,0:0:0:60:hihat.wav
182,192,64875,1,0,0:0:0:90:hihat.wav
256,192,64963,1,0,0:0:0:60:hihat.wav
36,192,65052,128,0,65140:0:0:0:60:jingle.wav
329,192,65052,128,0,65140:0:0:0:60:kick.wav
109,192,65228,128,0,65316:0:0:0:90:hihat.wav
402,192,65228,128,0,65316:0:0:0:60:jingle.wav
182,192,65405,1,0,0:0:0:60:kick.wav
36,192,65405,1,0,0:0:0:60:hihat.wav
475,192,65405,128,0,66463:0:0:0:0:
329,192,65493,1,0,0:0:0:60:hihat.wav
256,192,65581,1,0,0:0:0:90:hihat.wav
329,192,65669,1,0,0:0:0:60:hihat.wav
182,192,65758,1,0,0:0:0:60:hihat.wav
36,192,65758,1,0,0:0:0:60:kick.wav
329,192,65846,1,0,0:0:0:60:hihat.wav
256,192,65934,1,0,0:0:0:90:hihat.wav
329,192,66022,1,0,0:0:0:60:hihat.wav
182,192,66110,1,0,0:0:0:60:kick.wav
36,192,66110,1,0,0:0:0:60:hihat.wav
329,192,66199,1,0,0:0:0:60:hihat.wav
256,192,66287,1,0,0:0:0:90:hihat.wav
329,192,66375,1,0,0:0:0:60:hihat.wav
109,192,66463,128,0,66552:0:0:0:60:kick.wav
402,192,66463,128,0,66552:0:0:0:60:jingle.wav
182,192,66640,128,0,66728:0:0:0:90:hihat.wav
475,192,66640,128,0,66728:0:0:0:60:jingle.wav
36,192,66816,1,0,0:0:0:60:kick.wav
182,192,66816,1,0,0:0:0:60:hihat.wav
256,192,66816,128,0,67875:0:0:0:0:
402,192,66905,1,0,0:0:0:60:hihat.wav
329,192,66993,1,0,0:0:0:90:hihat.wav
402,192,67081,1,0,0:0:0:60:hihat.wav
36,192,67169,1,0,0:0:0:60:hihat.wav
182,192,67169,1,0,0:0:0:60:kick.wav
402,192,67258,1,0,0:0:0:60:hihat.wav
329,192,67346,1,0,0:0:0:90:hihat.wav
402,192,67434,1,0,0:0:0:60:hihat.wav
36,192,67522,1,0,0:0:0:60:kick.wav
182,192,67522,1,0,0:0:0:60:hihat.wav
402,192,67610,1,0,0:0:0:60:hihat.wav
329,192,67699,1,0,0:0:0:90:hihat.wav
402,192,67787,1,0,0:0:0:60:hihat.wav
36,192,67875,1,4,1:0:0:90:
109,192,67875,1,0,0:0:0:75:finish2.wav
256,192,67963,1,0,0:0:0:60:hihat.wav
402,192,68052,1,0,0:0:0:90:hihat.wav
475,192,68140,1,0,0:0:0:60:hihat.wav
109,192,68228,1,0,0:0:0:60:hihat.wav
36,192,68228,128,0,69287:0:0:0:0:
182,192,68316,1,0,0:0:0:60:hihat.wav
329,192,68405,1,0,0:0:0:90:hihat.wav
475,192,68493,1,0,0:0:0:60:hihat.wav
109,192,68581,1,0,0:0:0:60:hihat.wav
256,192,68669,1,0,0:0:0:60:hihat.wav
402,192,68758,1,0,0:0:0:90:hihat.wav
475,192,68846,1,0,0:0:0:60:hihat.wav
109,192,68934,1,0,0:0:0:60:hihat.wav
182,192,69022,1,0,0:0:0:60:hihat.wav
329,192,69110,1,0,0:0:0:90:hihat.wav
475,192,69199,1,0,0:0:0:60:hihat.wav
256,192,69287,1,0,0:0:0:60:hihat.wav
402,192,69375,1,0,0:0:0:60:hihat.wav
182,192,69463,1,0,0:0:0:90:hihat.wav
329,192,69552,1,0,0:0:0:60:hihat.wav
36,192,69640,1,0,0:0:0:60:hihat.wav
475,192,69640,128,0,70699:0:0:0:0:
109,192,69728,1,0,0:0:0:60:hihat.wav
256,192,69816,1,0,0:0:0:90:hihat.wav
402,192,69905,1,0,0:0:0:60:hihat.wav
36,192,69993,1,0,0:0:0:60:hihat.wav
182,192,70081,1,0,0:0:0:60:hihat.wav
329,192,70169,1,0,0:0:0:90:hihat.wav
402,192,70258,1,0,0:0:0:60:hihat.wav
36,192,70346,1,0,0:0:0:60:hihat.wav
109,192,70434,1,0,0:0:0:60:hihat.wav
256,192,70522,1,0,0:0:0:90:hihat.wav
402,192,70610,1,0,0:0:0:60:hihat.wav
109,192,70699,1,0,0:0:0:60:hihat.wav
329,192,70787,1,0,0:0:0:60:hihat.wav
36,192,70875,1,0,0:0:0:90:hihat.wav
182,192,70963,1,0,0:0:0:60:hihat.wav
329,192,71052,1,0,0:0:0:60:hihat.wav
256,192,71052,128,0,72110:0:0:0:0:
475,192,71140,1,0,0:0:0:60:hihat.wav
36,192,71228,1,0,0:0:0:90:hihat.wav
182,192,71316,1,0,0:0:0:60:hihat.wav
329,192,71405,1,0,0:0:0:60:hihat.wav
475,192,71493,1,0,0:0:0:60:hihat.wav
36,192,71581,1,0,0:0:0:90:hihat.wav
182,192,71669,1,0,0:0:0:60:hihat.wav
329,192,71758,1,0,0:0:0:60:hihat.wav
475,192,71846,1,0,0:0:0:60:hihat.wav
36,192,71934,1,0,0:0:0:90:hihat.wav
182,192,72022,1,0,0:0:0:60:hihat.wav
329,192,72110,1,0,0:0:0:60:hihat.wav
475,192,72199,1,0,0:0:0:60:hihat.wav
256,192,72287,1,0,0:0:0:90:hihat.wav
402,192,72375,1,0,0:0:0:60:hihat.wav
182,192,72463,1,0,0:0:0:60:hihat.wav
36,192,72463,128,0,73522:0:0:0:0:
256,192,72552,1,0,0:0:0:60:hihat.wav
402,192,72640,1,0,0:0:0:90:hihat.wav
475,192,72728,1,0,0:0:0:60:hihat.wav
109,192,72816,1,0,0:0:0:60:hihat.wav
182,192,72905,1,0,0:0:0:60:hihat.wav
329,192,72993,1,0,0:0:0:90:hihat.wav
402,192,73081,1,0,0:0:0:60:hihat.wav
182,192,73169,1,0,0:0:0:60:hihat.wav
256,192,73258,1,0,0:0:0:60:hihat.wav
402,192,73346,1,0,0:0:0:90:hihat.wav
475,192,73434,1,0,0:0:0:60:hihat.wav
256,192,73522,1,0,0:0:0:60:hihat.wav
402,192,73610,1,0,0:0:0:60:hihat.wav
182,192,73699,1,0,0:0:0:90:hihat.wav
329,192,73787,1,0,0:0:0:60:hihat.wav
109,192,73875,1,0,0:0:0:60:hihat.wav
475,192,73875,128,0,74934:0:0:0:0:
256,192,73963,1,0,0:0:0:60:hihat.wav
329,192,74052,1,0,0:0:0:90:hihat.wav
402,192,74140,1,0,0:0:0:60:hihat.wav
36,192,74228,1,0,0:0:0:60:hihat.wav
182,192,74316,1,0,0:0:0:60:hihat.wav
256,192,74405,1,0,0:0:0:90:hihat.wav
329,192,74493,1,0,0:0:0:60:hihat.wav
36,192,74581,1,0,0:0:0:60:hihat.wav
109,192,74669,1,0,0:0:0:60:hihat.wav
182,192,74758,1,0,0:0:0:90:hihat.wav
329,192,74846,1,0,0:0:0:60:hihat.wav
36,192,74934,1,0,0:0:0:34:kick.wav
109,192,74934,1,0,0:0:0:50:hihat.wav
256,192,75022,1,0,0:0:0:35:kick.wav
329,192,75022,1,0,0:0:0:50:hihat.wav
109,192,75110,1,0,0:0:0:36:kick.wav
182,192,75110,1,0,0:0:0:90:hihat.wav
329,192,75199,1,0,0:0:0:37:kick.wav
402,192,75199,1,0,0:0:0:50:hihat.wav
182,192,75287,1,0,0:0:0:38:kick.wav
256,192,75287,1,0,0:0:0:50:hihat.wav
475,192,75375,1,0,0:0:0:39:kick.wav
402,192,75375,1,0,0:0:0:50:hihat.wav
256,192,75463,1,0,0:0:0:40:kick.wav
329,192,75463,1,0,0:0:0:90:hihat.wav
109,192,75552,1,0,0:0:0:41:kick.wav
182,192,75552,1,0,0:0:0:50:hihat.wav
256,192,75640,1,0,0:0:0:42:kick.wav
329,192,75640,1,0,0:0:0:50:hihat.wav
402,192,75728,1,0,0:0:0:43:kick.wav
475,192,75728,1,0,0:0:0:50:hihat.wav
182,192,75816,1,0,0:0:0:90:hihat.wav
256,192,75816,1,0,0:0:0:44:kick.wav
329,192,75905,1,0,0:0:0:45:kick.wav
402,192,75905,1,0,0:0:0:50:hihat.wav
109,192,75993,1,0,0:0:0:46:kick.wav
182,192,75993,1,0,0:0:0:50:hihat.wav
256,192,76081,1,0,0:0:0:47:kick.wav
329,192,76081,1,0,0:0:0:50:hihat.wav
36,192,76169,1,0,0:0:0:48:kick.wav
109,192,76169,1,0,0:0:0:90:hihat.wav
256,192,76258,1,0,0:0:0:49:kick.wav
182,192,76258,1,0,0:0:0:50:hihat.wav
402,192,76346,1,0,0:0:0:50:kick.wav
329,192,76346,1,0,0:0:0:60:hihat.wav
182,192,76434,1,0,0:0:0:60:hihat.wav
256,192,76434,1,0,0:0:0:50:kick.wav
36,192,76522,1,0,0:0:0:90:hihat.wav
109,192,76522,1,0,0:0:0:50:kick.wav
402,192,76610,1,0,0:0:0:60:hihat.wav
475,192,76610,1,0,0:0:0:50:kick.wav
256,192,76699,1,0,0:0:0:50:kick.wav
329,192,76699,1,0,0:0:0:60:hihat.wav
109,192,76787,1,0,0:0:0:50:kick.wav
182,192,76787,1,0,0:0:0:60:hihat.wav
256,192,76875,1,0,0:0:0:50:kick.wav
329,192,76875,1,0,0:0:0:90:hihat.wav
402,192,76963,1,0,0:0:0:50:kick.wav
475,192,76963,1,0,0:0:0:60:hihat.wav
109,192,77052,1,0,0:0:0:60:hihat.wav
36,192,77052,1,0,0:0:0:50:kick.wav
182,192,77140,1,0,0:0:0:60:hihat.wav
256,192,77140,1,0,0:0:0:50:kick.wav
402,192,77228,1,0,0:0:0:90:hihat.wav
329,192,77228,1,0,0:0:0:50:kick.wav
256,192,77316,1,0,0:0:0:60:hihat.wav
182,192,77316,1,0,0:0:0:50:kick.wav
36,192,77405,1,0,0:0:0:60:hihat.wav
109,192,77405,1,0,0:0:0:50:kick.wav
475,192,77493,1,0,0:0:0:50:kick.wav
402,192,77493,1,0,0:0:0:60:hihat.wav
329,192,77581,1,0,0:0:0:90:hihat.wav
256,192,77581,1,0,0:0:0:50:kick.wav
109,192,77669,1,0,0:0:0:60:hihat.wav
182,192,77669,1,0,0:0:0:50:kick.wav
36,192,77758,1,0,0:0:0:40:kick.wav
182,192,77816,1,0,0:0:0:40:kick.wav
329,192,77875,1,0,0:0:0:40:kick.wav
475,192,77934,1,0,0:0:0:40:kick.wav
109,192,77993,1,0,0:0:0:40:kick.wav
256,192,78052,1,0,0:0:0:40:kick.wav
402,192,78110,1,0,0:0:0:40:kick.wav
256,192,78169,1,0,0:0:0:40:kick.wav
109,192,78228,1,0,0:0:0:40:kick.wav
475,192,78287,1,0,0:0:0:40:kick.wav
329,192,78346,1,0,0:0:0:40:kick.wav
182,192,78405,1,0,0:0:0:40:kick.wav
36,192,78463,1,0,0:0:0:40:kick.wav
402,192,78522,1,0,0:0:0:40:kick.wav
256,192,78581,1,0,0:0:0:40:kick.wav
109,192,78640,1,0,0:0:0:40:kick.wav
256,192,78699,1,0,0:0:0:40:kick.wav
402,192,78758,1,0,0:0:0:40:kick.wav
36,192,78816,1,0,0:0:0:40:kick.wav
182,192,78875,1,0,0:0:0:40:kick.wav
329,192,78934,1,0,0:0:0:40:kick.wav
475,192,78993,1,0,0:0:0:40:kick.wav
329,192,79052,1,0,0:0:0:40:kick.wav
182,192,79110,1,0,0:0:0:40:kick.wav
329,192,79169,128,4,80581:1:0:0:90:
475,192,79169,1,0,0:0:0:75:finish2.wav
36,192,79169,1,0,0:0:0:60:kick.wav
36,192,79522,1,0,0:0:0:0:
182,192,79699,1,0,0:0:0:0:
475,192,80052,128,0,80581:0:0:0:0:
256,192,80581,128,0,81993:0:0:0:0:
402,192,80581,1,0,0:0:0:0:
36,192,80934,1,0,0:0:0:0:
182,192,81110,1,0,0:0:0:0:
402,192,81463,128,0,81993:0:0:0:0:
475,192,81993,128,0,83405:0:0:0:0:
329,192,81993,1,0,0:0:0:0:
36,192,82346,1,0,0:0:0:0:
182,192,82522,1,0,0:0:0:0:
329,192,82875,128,0,83405:0:0:0:0:
402,192,83405,128,0,84816:0:0:0:0:
109,192,83405,1,0,0:0:0:0:
36,192,83758,1,0,0:0:0:0:
182,192,83934,1,0,0:0:0:0:
256,192,84287,128,0,84816:0:0:0:0:
109,192,84816,128,0,86228:0:0:0:0:
182,192,85169,1,0,0:0:0:0:
329,192,85346,1,0,0:0:0:0:
475,192,85699,128,0,86228:0:0:0:0:
256,192,86228,128,0,87640:0:0:0:0:
329,192,86228,1,0,0:0:0:0:
36,192,86581,1,0,0:0:0:0:
182,192,86758,1,0,0:0:0:0:
109,192,87110,128,0,87640:0:0:0:0:
402,192,87640,128,0,89052:0:0:0:0:
36,192,87993,1,0,0:0:0:0:
182,192,88169,1,0,0:0:0:0:
256,192,88522,128,0,89052:0:0:0:0:
182,192,89052,128,0,90463:0:0:0:0:
36,192,89052,1,0,0:0:0:0:
329,192,89405,1,0,0:0:0:0:
475,192,89581,1,0,0:0:0:0:
36,192,89934,128,0,90463:0:0:0:0:
475,192,90463,128,0,90816:0:0:0:0:
329,192,90463,128,0,91875:0:0:0:0:
109,192,90816,128,0,91169:0:0:0:0:
475,192,90993,128,0,91346:0:0:0:0:
109,192,91346,128,0,91875:0:0:0:0:
402,192,91875,128,0,92228:0:0:0:0:
256,192,91875,128,0,93287:0:0:0:0:
36,192,92228,128,0,92581:0:0:0:0:
402,192,92405,128,0,92758:0:0:0:0:
36,192,92758,128,0,93287:0:0:0:0:
475,192,93287,128,0,94699:0:0:0:0:
329,192,93287,128,0,93640:0:0:0:0:
109,192,93640,128,0,93993:0:0:0:0:
329,192,93816,128,0,94169:0:0:0:0:
109,192,94169,128,0,94699:0:0:0:0:
402,192,94699,128,0,96110:0:0:0:0:
256,192,94699,128,0,95052:0:0:0:0:
36,192,95052,128,0,95405:0:0:0:0:
256,192,95228,128,0,95581:0:0:0:0:
36,192,95581,128,0,96110:0:0:0:0:
475,192,96110,1,0,0:0:0:18:snare.wav
109,192,96110,128,0,97522:0:0:0:0:
329,192,96199,1,0,0:0:0:18:snare.wav
182,192,96287,1,0,0:0:0:18:snare.wav
329,192,96375,1,0,0:0:0:19:snare.wav
475,192,96463,1,0,0:0:0:19:snare.wav
329,192,96552,1,0,0:0:0:19:snare.wav
182,192,96640,1,0,0:0:0:20:snare.wav
329,192,96728,1,0,0:0:0:20:snare.wav
475,192,96816,1,0,0:0:0:20:snare.wav
329,192,96905,1,0,0:0:0:21:snare.wav
182,192,96993,1,0,0:0:0:21:snare.wav
329,192,97081,1,0,0:0:0:21:snare.wav
475,192,97169,1,0,0:0:0:22:snare.wav
329,192,97258,1,0,0:0:0:22:snare.wav
182,192,97346,1,0,0:0:0:22:snare.wav
329,192,97434,1,0,0:0:0:23:snare.wav
475,192,97522,1,0,0:0:0:23:snare.wav
256,192,97522,128,0,98934:0:0:0:0:
329,192,97610,1,0,0:0:0:23:snare.wav
182,192,97699,1,0,0:0:0:24:snare.wav
36,192,97787,1,0,0:0:0:24:snare.wav
182,192,97875,1,0,0:0:0:24:snare.wav
329,192,97963,1,0,0:0:0:25:snare.wav
475,192,98052,1,0,0:0:0:25:snare.wav
329,192,98140,1,0,0:0:0:25:snare.wav
182,192,98228,1,0,0:0:0:26:snare.wav
36,192,98316,1,0,0:0:0:26:snare.wav
182,192,98405,1,0,0:0:0:26:snare.wav
329,192,98493,1,0,0:0:0:27:snare.wav
475,192,98581,1,0,0:0:0:27:snare.wav
329,192,98669,1,0,0:0:0:27:snare.wav
182,192,98758,1,0,0:0:0:28:snare.wav
36,192,98846,1,0,0:0:0:28:snare.wav
182,192,98934,1,0,0:0:0:28:snare.wav
402,192,98934,128,0,100346:0:0:0:0:
329,192,99022,1,0,0:0:0:29:snare.wav
182,192,99110,1,0,0:0:0:29:snare.wav
36,192,99199,1,0,0:0:0:29:snare.wav
182,192,99287,1,0,0:0:0:30:snare.wav
329,192,99375,1,0,0:0:0:30:snare.wav
182,192,99463,1,0,0:0:0:30:snare.wav
36,192,99552,1,0,0:0:0:31:snare.wav
182,192,99640,1,0,0:0:0:31:snare.wav
329,192,99728,1,0,0:0:0:31:snare.wav
182,192,99816,1,0,0:0:0:32:snare.wav
36,192,99905,1,0,0:0:0:32:snare.wav
182,192,99993,1,0,0:0:0:32:snare.wav
329,192,100081,1,0,0:0:0:33:snare.wav
182,192,100169,1,0,0:0:0:33:snare.wav
36,192,100258,1,0,0:0:0:33:snare.wav
182,192,100346,128,0,101758:0:0:0:0:
329,192,100346,1,0,0:0:0:0:
329,192,100699,128,0,101052:0:0:0:0:
475,192,100875,128,0,101228:0:0:0:0:
329,192,101228,128,0,101758:0:0:0:0:
36,192,101758,1,4,1:0:0:90:
475,192,101758,1,0,0:0:0:75:finish2.wav
256,192,101758,128,0,103169:0:0:0:0:
402,192,101758,128,0,102110:0:0:0:0:
109,192,102110,128,0,102463:0:0:0:0:
402,192,102287,128,0,102993:0:0:0:0:
109,192,102640,128,0,103169:0:0:0:0:
36,192,103169,128,0,104581:0:0:0:0:
329,192,103169,128,0,103875:0:0:0:0:
182,192,103522,128,0,103875:0:0:0:0:
475,192,103699,128,0,104405:0:0:0:0:
329,192,104052,128,0,104581:0:0:0:0:
475,192,104581,128,0,105993:0:0:0:0:
182,192,104581,128,0,105287:0:0:0:0:
36,192,104934,128,0,105287:0:0:0:0:
329,192,105110,128,0,105816:0:0:0:0:
36,192,105463,128,0,105993:0:0:0:0:
256,192,105993,128,0,107405:0:0:0:0:
402,192,105993,128,0,106346:0:0:0:0:
109,192,106346,128,0,106699:0:0:0:0:
402,192,106522,128,0,107228:0:0:0:0:
109,192,106875,128,0,107405:0:0:0:0:
36,192,107405,128,0,108816:0:0:0:0:
475,192,107405,128,0,108110:0:0:0:0:
329,192,107758,128,0,108110:0:0:0:0:
182,192,107934,128,0,108640:0:0:0:0:
329,192,108287,128,0,108816:0:0:0:0:
182,192,108816,128,0,110228:0:0:0:0:
475,192,108816,128,0,109522:0:0:0:0:
36,192,109169,128,0,109522:0:0:0:0:
329,192,109346,128,0,110052:0:0:0:0:
36,192,109699,128,0,110228:0:0:0:0:
329,192,110228,128,0,111640:0:0:0:0:
109,192,110228,128,0,110934:0:0:0:0:
182,192,110581,128,0,110934:0:0:0:0:
475,192,110758,128,0,111463:0:0:0:0:
182,192,111110,128,0,111640:0:0:0:0:
36,192,111640,128,0,112346:0:0:0:0:
475,192,111640,128,0,113052:0:0:0:0:
109,192,111993,128,0,112346:0:0:0:0:
329,192,112169,128,0,112875:0:0:0:0:
109,192,112522,128,0,113052:0:0:0:0:
329,192,113052,1,0,0:0:0:55:hihat.wav
36,192,113052,1,0,0:0:0:0:
475,192,113228,1,0,0:0:0:70:hihat.wav
329,192,113316,1,0,0:0:0:40:hihat.wav
182,192,113405,1,0,0:0:0:55:hihat.wav
475,192,113581,1,0,0:0:0:70:hihat.wav
329,192,113669,1,0,0:0:0:40:hihat.wav
182,192,113758,1,0,0:0:0:55:hihat.wav
475,192,113934,1,0,0:0:0:70:hihat.wav
329,192,114022,1,0,0:0:0:40:hihat.wav
182,192,114110,1,0,0:0:0:55:hihat.wav
475,192,114287,1,0,0:0:0:70:hihat.wav
329,192,114375,1,0,0:0:0:40:hihat.wav
182,192,114463,1,0,0:0:0:55:hihat.wav
402,192,114640,1,0,0:0:0:70:hihat.wav
256,192,114728,1,0,0:0:0:40:hihat.wav
109,192,114816,1,0,0:0:0:55:hihat.wav
402,192,114993,1,0,0:0:0:70:hihat.wav
256,192,115081,1,0,0:0:0:40:hihat.wav
109,192,115169,1,0,0:0:0:55:hihat.wav
402,192,115346,1,0,0:0:0:70:hihat.wav
256,192,115434,1,0,0:0:0:40:hihat.wav
109,192,115522,1,0,0:0:0:55:hihat.wav
402,192,115699,1,0,0:0:0:70:hihat.wav
256,192,115787,1,0,0:0:0:40:hihat.wav
109,192,115875,1,0,0:0:0:55:hihat.wav
329,192,116052,1,0,0:0:0:70:hihat.wav
182,192,116140,1,0,0:0:0:40:hihat.wav
36,192,116228,1,0,0:0:0:55:hihat.wav
329,192,116405,1,0,0:0:0:70:hihat.wav
182,192,116493,1,0,0:0:0:40:hihat.wav
36,192,116581,1,0,0:0:0:55:hihat.wav
329,192,116758,1,0,0:0:0:70:hihat.wav
182,192,116846,1,0,0:0:0:40:hihat.wav
36,192,116934,1,0,0:0:0:55:hihat.wav
329,192,117110,1,0,0:0:0:70:hihat.wav
182,192,117199,1,0,0:0:0:40:hihat.wav
36,192,117287,1,0,0:0:0:55:hihat.wav
182,192,117463,1,0,0:0:0:70:hihat.wav
329,192,117552,1,0,0:0:0:40:hihat.wav
475,192,117640,1,0,0:0:0:55:hihat.wav
182,192,117816,1,0,0:0:0:70:hihat.wav
329,192,117905,1,0,0:0:0:40:hihat.wav
475,192,117993,1,0,0:0:0:55:hihat.wav
182,192,118169,1,0,0:0:0:70:hihat.wav
329,192,118258,1,0,0:0:0:40:hihat.wav
475,192,118346,1,0,0:0:0:55:hihat.wav
182,192,118522,1,0,0:0:0:70:hihat.wav
329,192,118610,1,0,0:0:0:40:hihat.wav
475,192,118699,1,0,0:0:0:55:hihat.wav
109,192,118875,1,0,0:0:0:70:hihat.wav
256,192,118963,1,0,0:0:0:40:hihat.wav
402,192,119052,1,0,0:0:0:55:hihat.wav
109,192,119228,1,0,0:0:0:70:hihat.wav
256,192,119316,1,0,0:0:0:40:hihat.wav
402,192,119405,1,0,0:0:0:55:hihat.wav
109,192,119581,1,0,0:0:0:70:hihat.wav
256,192,119669,1,0,0:0:0:40:hihat.wav
402,192,119758,1,0,0:0:0:55:hihat.wav
109,192,119934,1,0,0:0:0:70:hihat.wav
256,192,120022,1,0,0:0:0:40:hihat.wav
402,192,120110,1,0,0:0:0:55:hihat.wav
36,192,120287,1,0,0:0:0:70:hihat.wav
182,192,120375,1,0,0:0:0:40:hihat.wav
329,192,120463,1,0,0:0:0:55:hihat.wav
36,192,120640,1,0,0:0:0:70:hihat.wav
182,192,120728,1,0,0:0:0:40:hihat.wav
329,192,120816,1,0,0:0:0:55:hihat.wav
36,192,120993,1,0,0:0:0:70:hihat.wav
182,192,121081,1,0,0:0:0:40:hihat.wav
329,192,121169,1,0,0:0:0:55:hihat.wav
36,192,121346,1,0,0:0:0:70:hihat.wav
182,192,121434,1,0,0:0:0:40:hihat.wav
329,192,121522,1,0,0:0:0:55:hihat.wav
475,192,121699,1,0,0:0:0:70:hihat.wav
256,192,121787,1,0,0:0:0:40:hihat.wav
36,192,121875,1,0,0:0:0:55:hihat.wav
109,192,122052,1,0,0:0:0:70:hihat.wav
256,192,122140,1,0,0:0:0:40:hihat.wav
402,192,122228,1,0,0:0:0:55:hihat.wav
475,192,122405,1,0,0:0:0:70:hihat.wav
256,192,122493,1,0,0:0:0:40:hihat.wav
36,192,122581,1,0,0:0:0:55:hihat.wav
109,192,122758,1,0,0:0:0:70:hihat.wav
256,192,122846,1,0,0:0:0:40:hihat.wav
402,192,122934,128,0,123287:0:0:0:50:finish1.wav
475,192,122934,128,0,123287:0:0:0:0:
36,192,123287,1,0,0:0:0:0:
109,192,123287,1,4,3:0:0:30:
402,192,123463,1,4,3:0:0:30:
475,192,123463,1,0,0:0:0:0:
36,192,123640,128,0,123993:0:0:0:0:
109,192,123640,128,8,123993:3:0:0:40:
402,192,123993,1,8,3:0:0:40:
475,192,123993,1,0,0:0:0:0:
36,192,124169,1,0,0:0:0:0:
109,192,124169,1,0,0:0:0:0:
475,192,124346,1,4,1:0:0:90:
402,192,124346,1,0,0:0:0:75:finish2.wav
109,192,124346,128,0,124434:0:0:0:60:jingle.wav
402,192,124522,128,0,124610:0:0:0:60:jingle.wav
36,192,124699,1,0,0:0:0:60:jingle.wav
256,192,124787,128,0,124875:0:0:0:60:jingle.wav
109,192,124963,1,0,0:0:0:0:
329,192,125052,128,0,125140:0:0:0:60:jingle.wav
182,192,125228,1,0,0:0:0:0:
402,192,125316,128,0,125405:0:0:0:60:jingle.wav
256,192,125493,1,0,0:0:0:0:
475,192,125581,128,0,125669:0:0:0:60:jingle.wav
109,192,125758,128,0,125846:0:0:0:60:jingle.wav
402,192,125934,128,0,126022:0:0:0:60:jingle.wav
256,192,126110,1,0,0:0:0:60:jingle.wav
36,192,126199,128,0,126287:0:0:0:60:jingle.wav
329,192,126375,1,0,0:0:0:0:
109,192,126463,128,0,126552:0:0:0:60:jingle.wav
402,192,126640,1,0,0:0:0:0:
182,192,126728,128,0,126816:0:0:0:60:jingle.wav
475,192,126905,1,0,0:0:0:0:
256,192,126993,128,0,127081:0:0:0:60:jingle.wav
36,192,127169,128,0,127258:0:0:0:60:jingle.wav
475,192,127346,128,0,127434:0:0:0:60:jingle.wav
182,192,127522,1,0,0:0:0:60:jingle.wav
36,192,127610,128,0,127699:0:0:0:60:jingle.wav
256,192,127787,1,0,0:0:0:0:
109,192,127875,128,0,127963:0:0:0:60:jingle.wav
329,192,128052,1,0,0:0:0:0:
182,192,128140,128,0,128228:0:0:0:60:jingle.wav
402,192,128316,1,0,0:0:0:0:
256,192,128405,128,0,128493:0:0:0:60:jingle.wav
36,192,128581,128,0,128669:0:0:0:60:jingle.wav
182,192,128758,128,0,128846:0:0:0:60:jingle.wav
329,192,128934,1,0,0:0:0:60:jingle.wav
475,192,129022,128,0,129110:0:0:0:60:jingle.wav
256,192,129199,1,0,0:0:0:0:
402,192,129287,128,0,129375:0:0:0:60:jingle.wav
182,192,129463,1,0,0:0:0:0:
329,192,129552,128,0,129640:0:0:0:60:jingle.wav
109,192,129728,1,0,0:0:0:0:
256,192,129816,128,0,129905:0:0:0:60:jingle.wav
475,192,129993,128,0,130081:0:0:0:41:hihat.wav
329,192,130169,128,0,130258:0:0:0:42:hihat.wav
182,192,130346,1,0,0:0:0:43:hihat.wav
402,192,130434,128,0,130522:0:0:0:44:hihat.wav
109,192,130610,1,0,0:0:0:45:hihat.wav
329,192,130699,128,0,130787:0:0:0:46:hihat.wav
475,192,130875,128,0,131052:0:0:0:47:hihat.wav
36,192,131052,128,0,131228:0:0:0:49:hihat.wav
329,192,131228,128,0,131316:0:0:0:51:hihat.wav
182,192,131316,128,0,131405:0:0:0:52:hihat.wav
36,192,131405,128,0,131493:0:0:0:53:hihat.wav
329,192,131581,128,0,131758:0:0:0:54:hihat.wav
109,192,131758,1,0,0:0:0:55:hihat.wav
402,192,131846,128,0,132022:0:0:0:55:hihat.wav
182,192,132022,1,0,0:0:0:56:hihat.wav
475,192,132110,128,0,132287:0:0:0:57:hihat.wav
182,192,132287,128,0,132375:0:0:0:57:hihat.wav
329,192,132375,128,0,132463:0:0:0:57:hihat.wav
475,192,132463,128,0,132640:0:0:0:58:hihat.wav
36,192,132640,128,0,132816:0:0:0:58:hihat.wav
329,192,132816,128,0,132993:0:0:0:59:hihat.wav
182,192,132993,128,0,133169:0:0:0:59:hihat.wav
402,192,133169,1,0,0:0:0:60:hihat.wav
109,192,133258,128,0,133434:0:0:0:60:hihat.wav
329,192,133434,1,0,0:0:0:60:hihat.wav
36,192,133522,128,0,133699:0:0:0:61:hihat.wav
182,192,133699,128,0,133787:0:0:0:61:hihat.wav
36,192,133787,128,0,133875:0:0:0:61:hihat.wav
329,192,133875,128,0,133963:0:0:0:62:hihat.wav
182,192,133963,128,0,134052:0:0:0:62:hihat.wav
475,192,134052,128,0,134140:0:0:0:62:hihat.wav
329,192,134140,128,0,134228:0:0:0:62:hihat.wav
36,192,134228,128,0,134405:0:0:0:63:hihat.wav
182,192,134405,128,0,134581:0:0:0:63:hihat.wav
402,192,134581,1,0,0:0:0:63:hihat.wav
256,192,134669,128,0,134846:0:0:0:63:hihat.wav
475,192,134846,1,0,0:0:0:63:hihat.wav
329,192,134934,128,0,135110:0:0:0:64:hihat.wav
182,192,135110,128,0,135199:0:0:0:64:hihat.wav
329,192,135199,128,0,135287:0:0:0:64:hihat.wav
36,192,135287,128,0,135463:0:0:0:64:hihat.wav
182,192,135463,128,0,135640:0:0:0:64:hihat.wav
475,192,135640,1,0,0:0:0:65:hihat.wav
329,192,135640,128,0,135816:0:0:0:0:
109,192,135816,128,0,135993:0:0:0:65:hihat.wav
36,192,135993,1,0,0:0:0:0:
256,192,136081,128,0,136258:0:0:0:65:hihat.wav
182,192,136258,1,0,0:0:0:0:
402,192,136346,128,0,136522:0:0:0:65:hihat.wav
182,192,136522,128,0,136610:0:0:0:65:hihat.wav
329,192,136610,128,0,136699:0:0:0:65:hihat.wav
475,192,136699,128,0,136787:0:0:0:65:hihat.wav
36,192,136787,128,0,136875:0:0:0:65:hihat.wav
182,192,136875,128,0,136963:0:0:0:65:hihat.wav
329,192,136963,128,0,137052:0:0:0:65:hihat.wav
109,192,137052,128,0,137228:0:0:0:65:hihat.wav
36,192,137228,128,0,137405:0:0:0:65:hihat.wav
329,192,137405,1,0,0:0:0:65:hihat.wav
109,192,137493,128,0,137669:0:0:0:65:hihat.wav
402,192,137669,1,0,0:0:0:65:hihat.wav
182,192,137758,128,0,137934:0:0:0:65:hihat.wav
402,192,137934,128,0,138022:0:0:0:65:hihat.wav
256,192,138022,128,0,138110:0:0:0:65:hihat.wav
109,192,138110,128,0,138287:0:0:0:65:hihat.wav
329,192,138287,128,0,138463:0:0:0:65:hihat.wav
402,192,138463,128,0,138640:0:0:0:65:hihat.wav
475,192,138640,128,0,138816:0:0:0:65:hihat.wav
182,192,138816,1,0,0:0:0:65:hihat.wav
402,192,138905,128,0,139081:0:0:0:65:hihat.wav
109,192,139081,1,0,0:0:0:65:hihat.wav
329,192,139169,128,0,139346:0:0:0:65:hihat.wav
109,192,139346,128,0,139434:0:0:0:65:hihat.wav
256,192,139434,128,0,139522:0:0:0:65:hihat.wav
402,192,139522,128,0,139610:0:0:0:65:hihat.wav
36,192,139610,128,0,139699:0:0:0:65:hihat.wav
182,192,139699,128,0,139787:0:0:0:65:hihat.wav
329,192,139787,128,0,139875:0:0:0:65:hihat.wav
182,192,139875,128,0,140052:0:0:0:65:hihat.wav
256,192,140052,128,0,140228:0:0:0:65:hihat.wav
402,192,140228,1,0,0:0:0:65:hihat.wav
182,192,140316,128,0,140493:0:0:0:65:hihat.wav
329,192,140493,1,0,0:0:0:65:hihat.wav
109,192,140581,128,0,140758:0:0:0:65:hihat.wav
329,192,140758,128,0,140846:0:0:0:65:hihat.wav
182,192,140846,128,0,140934:0:0:0:65:hihat.wav
36,192,140934,128,0,141110:0:0:0:65:hihat.wav
256,192,141110,128,0,141287:0:0:0:65:hihat.wav
329,192,141287,128,0,141463:0:0:0:65:hihat.wav
402,192,141463,128,0,141640:0:0:0:65:hihat.wav
109,192,141640,1,0,0:0:0:65:hihat.wav
256,192,141728,128,0,141905:0:0:0:65:hihat.wav
36,192,141905,1,0,0:0:0:65:hihat.wav
182,192,141993,128,0,142169:0:0:0:65:hihat.wav
329,192,142169,128,0,142258:0:0:0:65:hihat.wav
475,192,142258,128,0,142346:0:0:0:65:hihat.wav
182,192,142346,128,0,142434:0:0:0:65:hihat.wav
329,192,142434,128,0,142522:0:0:0:65:hihat.wav
36,192,142522,128,0,142610:0:0:0:65:hihat.wav
182,192,142610,128,0,142699:0:0:0:65:hihat.wav
329,192,142699,128,0,142875:0:0:0:65:hihat.wav
475,192,142875,128,0,143052:0:0:0:65:hihat.wav
182,192,143052,1,0,0:0:0:65:hihat.wav
329,192,143140,128,0,143316:0:0:0:65:hihat.wav
109,192,143316,1,0,0:0:0:65:hihat.wav
256,192,143405,128,0,143581:0:0:0:65:hihat.wav
109,192,143581,128,0,143669:0:0:0:65:hihat.wav
256,192,143669,128,0,143758:0:0:0:65:hihat.wav
402,192,143758,128,0,143934:0:0:0:65:hihat.wav
182,192,143934,128,0,144110:0:0:0:65:hihat.wav
36,192,144110,1,0,0:0:0:66:hihat.wav
329,192,144110,1,0,0:0:0:60:kick.wav
256,192,144463,1,0,0:0:0:67:hihat.wav
475,192,144640,1,0,0:0:0:60:kick.wav
36,192,144640,1,0,0:0:0:67:hihat.wav
36,192,144993,1,0,0:0:0:68:hihat.wav
475,192,144993,1,0,0:0:0:60:kick.wav
182,192,145081,1,0,0:0:0:68:hihat.wav
329,192,145169,1,0,0:0:0:69:hihat.wav
109,192,145258,1,0,0:0:0:69:hihat.wav
329,192,145346,1,0,0:0:0:69:hihat.wav
182,192,145434,1,0,0:0:0:69:hihat.wav
36,192,145522,1,0,0:0:0:60:kick.wav
475,192,145522,1,0,0:0:0:70:hihat.wav
109,192,145875,128,0,146140:0:0:0:70:jingle.wav
402,192,145875,128,0,146140:0:0:0:71:hihat.wav
182,192,146228,128,0,146493:0:0:0:70:jingle.wav
475,192,146228,128,0,146493:0:0:0:72:hihat.wav
36,192,146581,128,0,146846:0:0:0:70:jingle.wav
329,192,146581,128,0,146846:0:0:0:73:hihat.wav
182,192,146934,1,0,0:0:0:60:kick.wav
329,192,146934,1,0,0:0:0:75:hihat.wav
475,192,146934,1,0,0:0:0:0:
402,192,147022,1,0,0:0:0:0:
256,192,147110,128,0,147287:0:0:0:75:hihat.wav
109,192,147110,1,0,0:0:0:0:
475,192,147199,1,0,0:0:0:0:
36,192,147287,1,0,0:0:0:60:kick.wav
329,192,147287,1,0,0:0:0:75:hihat.wav
182,192,147375,128,0,147552:0:0:0:75:hihat.wav
475,192,147375,1,0,0:0:0:0:
256,192,147463,1,0,0:0:0:0:
402,192,147552,1,0,0:0:0:75:hihat.wav
109,192,147640,128,0,147816:0:0:0:60:kick.wav
36,192,147640,1,0,0:0:0:75:hihat.wav
329,192,147640,1,0,0:0:0:0:
182,192,147728,1,0,0:0:0:0:
402,192,147816,1,0,0:0:0:75:hihat.wav
256,192,147905,1,0,0:0:0:75:hihat.wav
182,192,147993,1,0,0:0:0:60:kick.wav
475,192,147993,128,0,148081:0:0:0:75:hihat.wav
329,192,148081,128,0,148169:0:0:0:75:hihat.wav
402,192,148081,1,0,0:0:0:0:
182,192,148169,128,0,148258:0:0:0:75:hihat.wav
256,192,148169,1,0,0:0:0:0:
36,192,148258,128,0,148346:0:0:0:75:hihat.wav
109,192,148258,1,0,0:0:0:0:
402,192,148346,1,0,0:0:0:75:hihat.wav
475,192,148346,1,0,0:0:0:60:kick.wav
256,192,148434,1,0,0:0:0:0:
109,192,148522,1,0,0:0:0:0:
36,192,148522,128,0,148699:0:0:0:75:hihat.wav
475,192,148610,1,0,0:0:0:0:
182,192,148699,1,0,0:0:0:75:hihat.wav
256,192,148699,1,0,0:0:0:60:kick.wav
402,192,148787,1,0,0:0:0:0:
109,192,148787,128,0,148963:0:0:0:75:hihat.wav
182,192,148875,1,0,0:0:0:0:
329,192,148963,1,0,0:0:0:75:hihat.wav
402,192,149052,1,0,0:0:0:0:
475,192,149052,1,0,0:0:0:60:kick.wav
182,192,149052,128,0,149228:0:0:0:75:hihat.wav
256,192,149140,1,0,0:0:0:0:
402,192,149228,1,0,0:0:0:0:
475,192,149228,128,0,149316:0:0:0:75:hihat.wav
256,192,149316,1,0,0:0:0:0:
329,192,149316,128,0,149405:0:0:0:75:hihat.wav
36,192,149405,1,0,0:0:0:60:kick.wav
109,192,149405,1,0,0:0:0:0:
182,192,149405,128,0,149581:0:0:0:75:hihat.wav
402,192,149493,1,0,0:0:0:0:
475,192,149581,128,0,149758:0:0:0:75:hihat.wav
256,192,149581,1,0,0:0:0:0:
109,192,149669,1,0,0:0:0:0:
329,192,149758,1,0,0:0:0:60:kick.wav
402,192,149758,1,0,0:0:0:75:hihat.wav
182,192,149846,1,0,0:0:0:0:
36,192,149934,1,0,0:0:0:0:
475,192,149934,128,0,150110:0:0:0:75:hihat.wav
329,192,150022,1,0,0:0:0:0:
256,192,150110,1,0,0:0:0:75:hihat.wav
36,192,150110,1,0,0:0:0:60:kick.wav
109,192,150199,1,0,0:0:0:0:
402,192,150199,128,0,150375:0:0:0:75:hihat.wav
329,192,150287,1,0,0:0:0:0:
182,192,150375,1,0,0:0:0:75:hihat.wav
475,192,150463,1,0,0:0:0:60:kick.wav
109,192,150463,1,0,0:0:0:0:
329,192,150463,128,0,150640:0:0:0:75:hihat.wav
256,192,150552,1,0,0:0:0:0:
36,192,150640,1,0,0:0:0:75:hihat.wav
182,192,150728,1,0,0:0:0:75:hihat.wav
109,192,150816,1,0,0:0:0:60:kick.wav
475,192,150816,128,0,150905:0:0:0:75:hihat.wav
329,192,150905,1,0,0:0:0:0:
182,192,150905,128,0,150993:0:0:0:75:hihat.wav
402,192,150993,128,0,151081:0:0:0:75:hihat.wav
109,192,151081,128,0,151169:0:0:0:75:hihat.wav
256,192,151081,1,0,0:0:0:0:
329,192,151169,1,0,0:0:0:60:kick.wav
36,192,151169,1,0,0:0:0:75:hihat.wav
182,192,151258,1,0,0:0:0:0:
329,192,151346,1,0,0:0:0:0:
256,192,151346,128,0,151522:0:0:0:75:hihat.wav
475,192,151434,1,0,0:0:0:0:
402,192,151522,1,0,0:0:0:75:hihat.wav
182,192,151522,1,0,0:0:0:60:kick.wav
36,192,151610,1,0,0:0:0:0:
329,192,151610,128,0,151787:0:0:0:75:hihat.wav
256,192,151699,1,0,0:0:0:0:
109,192,151787,1,0,0:0:0:75:hihat.wav
182,192,151875,1,0,0:0:0:0:
475,192,151875,1,0,0:0:0:60:kick.wav
402,192,151875,128,0,152052:0:0:0:75:hihat.wav
329,192,151963,1,0,0:0:0:0:
36,192,152052,1,0,0:0:0:0:
109,192,152052,128,0,152140:0:0:0:75:hihat.wav
402,192,152140,1,0,0:0:0:0:
475,192,152140,128,0,152228:0:0:0:75:hihat.wav
109,192,152228,1,0,0:0:0:0:
256,192,152228,1,0,0:0:0:60:kick.wav
329,192,152228,128,0,152405:0:0:0:75:hihat.wav
182,192,152316,1,0,0:0:0:0:
109,192,152405,128,0,152581:0:0:0:75:hihat.wav
402,192,152405,1,0,0:0:0:0:
329,192,152493,1,0,0:0:0:0:
182,192,152581,1,0,0:0:0:75:hihat.wav
36,192,152581,1,0,0:0:0:60:kick.wav
402,192,152669,1,0,0:0:0:0:
109,192,152758,1,0,0:0:0:0:
329,192,152758,128,0,152934:0:0:0:75:hihat.wav
475,192,152846,1,0,0:0:0:0:
182,192,152934,1,0,0:0:0:75:hihat.wav
36,192,152934,1,0,0:0:0:60:kick.wav
329,192,153022,1,0,0:0:0:0:
475,192,153022,128,0,153199:0:0:0:75:hihat.wav
109,192,153110,1,0,0:0:0:0:
402,192,153199,1,0,0:0:0:75:hihat.wav
36,192,153287,1,0,0:0:0:60:kick.wav
256,192,153287,1,0,0:0:0:0:
329,192,153287,128,0,153463:0:0:0:75:hihat.wav
475,192,153375,1,0,0:0:0:0:
182,192,153463,1,0,0:0:0:75:hihat.wav
329,192,153552,1,0,0:0:0:75:hihat.wav
36,192,153640,1,0,0:0:0:60:kick.wav
109,192,153640,128,0,153728:0:0:0:75:hihat.wav
402,192,153728,1,0,0:0:0:0:
329,192,153728,128,0,153816:0:0:0:75:hihat.wav
256,192,153816,1,0,0:0:0:0:
182,192,153816,128,0,153905:0:0:0:75:hihat.wav
109,192,153905,1,0,0:0:0:0:
36,192,153905,128,0,153993:0:0:0:75:hihat.wav
475,192,153993,1,0,0:0:0:60:kick.wav
329,192,153993,1,0,0:0:0:75:hihat.wav
109,192,154081,1,0,0:0:0:0:
402,192,154169,1,0,0:0:0:0:
182,192,154169,128,0,154346:0:0:0:75:hihat.wav
36,192,154258,1,0,0:0:0:0:
329,192,154346,1,0,0:0:0:75:hihat.wav
475,192,154346,1,0,0:0:0:60:kick.wav
182,192,154434,1,0,0:0:0:0:
36,192,154434,128,0,154610:0:0:0:75:hihat.wav
402,192,154522,1,0,0:0:0:0:
109,192,154610,1,0,0:0:0:75:hihat.wav
475,192,154699,1,0,0:0:0:60:kick.wav
182,192,154699,128,0,154875:0:0:0:75:hihat.wav
256,192,154699,1,0,0:0:0:0:
36,192,154787,1,0,0:0:0:0:
329,192,154875,1,0,0:0:0:75:hihat.wav
402,192,154875,128,0,154963:0:0:0:0:
182,192,154963,1,0,0:0:0:75:hihat.wav
256,192,154963,128,0,155052:0:0:0:0:
36,192,155052,1,0,0:0:0:0:
329,192,155052,1,0,0:0:0:60:kick.wav
475,192,155052,128,0,155228:0:0:0:75:hihat.wav
109,192,155140,1,0,0:0:0:0:
256,192,155228,1,0,0:0:0:0:
402,192,155228,128,0,155405:0:0:0:75:hihat.wav
182,192,155316,1,0,0:0:0:0:
329,192,155405,1,0,0:0:0:75:hihat.wav
475,192,155405,1,0,0:0:0:60:kick.wav
182,192,155493,1,0,0:0:0:0:
36,192,155581,1,0,0:0:0:0:
256,192,155581,128,0,155758:0:0:0:75:hihat.wav
109,192,155669,1,0,0:0:0:0:
329,192,155758,1,0,0:0:0:75:hihat.wav
475,192,155758,1,0,0:0:0:60:kick.wav
182,192,155846,1,0,0:0:0:0:
109,192,155846,128,0,156022:0:0:0:75:hihat.wav
402,192,155934,1,0,0:0:0:0:
256,192,156022,1,0,0:0:0:75:hihat.wav
475,192,156110,1,0,0:0:0:60:kick.wav
182,192,156110,128,0,156287:0:0:0:75:hihat.wav
36,192,156110,1,0,0:0:0:0:
329,192,156199,1,0,0:0:0:0:
109,192,156287,1,0,0:0:0:75:hihat.wav
402,192,156375,1,0,0:0:0:75:hihat.wav
256,192,156463,1,0,0:0:0:0:
329,192,156463,128,0,156552:0:0:0:75:hihat.wav
475,192,156463,1,0,0:0:0:60:kick.wav
36,192,156552,1,0,0:0:0:0:
109,192,156552,128,0,156640:0:0:0:75:hihat.wav
329,192,156640,1,0,0:0:0:0:
402,192,156640,128,0,156728:0:0:0:75:hihat.wav
109,192,156728,1,0,0:0:0:0:
182,192,156728,128,0,156816:0:0:0:75:hihat.wav
475,192,156816,1,0,0:0:0:60:kick.wav
36,192,156816,1,0,0:0:0:75:hihat.wav
329,192,156905,1,0,0:0:0:0:
256,192,156993,128,0,157169:0:0:0:75:hihat.wav
402,192,157169,1,0,0:0:0:60:kick.wav
109,192,157169,1,0,0:0:0:75:hihat.wav
182,192,157258,128,0,157434:0:0:0:75:hihat.wav
329,192,157434,1,0,0:0:0:75:hihat.wav
36,192,157522,1,0,0:0:0:60:kick.wav
256,192,157522,128,0,157699:0:0:0:75:hihat.wav
475,192,157699,128,0,157787:0:0:0:70:chime.wav
329,192,157787,128,0,157875:0:0:0:75:hihat.wav
182,192,157875,128,0,157963:0:0:0:70:chime.wav
36,192,158052,1,0,0:0:0:0:
329,192,158052,128,0,158228:0:0:0:75:hihat.wav
475,192,158228,1,0,0:0:0:75:hihat.wav
109,192,158228,1,0,0:0:0:60:kick.wav
256,192,158316,1,0,0:0:0:0:
402,192,158405,1,0,0:0:0:75:hihat.wav
329,192,158493,1,0,0:0:0:0:
475,192,158581,1,0,0:0:0:75:hihat.wav
36,192,158581,1,0,0:0:0:60:kick.wav
182,192,158669,1,0,0:0:0:75:hihat.wav
329,192,158758,1,0,0:0:0:0:
256,192,158846,1,0,0:0:0:75:hihat.wav
475,192,158934,1,0,0:0:0:75:hihat.wav
109,192,158934,1,0,0:0:0:60:kick.wav
256,192,159022,1,0,0:0:0:0:
402,192,159110,1,0,0:0:0:75:hihat.wav
329,192,159199,1,0,0:0:0:75:hihat.wav
182,192,159287,128,0,159375:0:0:0:75:hihat.wav
475,192,159287,1,0,0:0:0:60:kick.wav
256,192,159287,1,0,0:0:0:0:
36,192,159375,128,0,159463:0:0:0:75:hihat.wav
329,192,159375,1,0,0:0:0:0:
109,192,159463,128,0,159552:0:0:0:75:hihat.wav
402,192,159463,1,0,0:0:0:0:
182,192,159552,128,0,159640:0:0:0:75:hihat.wav
475,192,159552,1,0,0:0:0:0:
329,192,159640,1,0,0:0:0:75:hihat.wav
36,192,159640,1,0,0:0:0:60:kick.wav
182,192,159728,1,0,0:0:0:0:
109,192,159816,1,0,0:0:0:75:hihat.wav
256,192,159905,1,0,0:0:0:0:
36,192,159993,1,0,0:0:0:75:hihat.wav
402,192,159993,1,0,0:0:0:60:kick.wav
256,192,160081,1,0,0:0:0:75:hihat.wav
182,192,160169,1,0,0:0:0:0:
329,192,160258,1,0,0:0:0:75:hihat.wav
36,192,160346,1,0,0:0:0:75:hihat.wav
475,192,160346,1,0,0:0:0:60:kick.wav
182,192,160346,128,0,160522:0:0:0:0:
329,192,160434,1,0,0:0:0:0:
402,192,160522,1,0,0:0:0:75:hihat.wav
475,192,160522,128,0,160610:0:0:0:70:chime.wav
329,192,160610,128,0,160699:0:0:0:75:hihat.wav
256,192,160610,1,0,0:0:0:0:
182,192,160699,128,0,160787:0:0:0:70:chime.wav
109,192,160699,1,0,0:0:0:60:kick.wav
475,192,160699,1,0,0:0:0:75:hihat.wav
329,192,160787,1,0,0:0:0:0:
36,192,160875,128,0,161052:0:0:0:75:hihat.wav
182,192,160875,1,0,0:0:0:0:
329,192,160963,1,0,0:0:0:0:
475,192,161052,1,0,0:0:0:75:hihat.wav
109,192,161052,1,0,0:0:0:60:kick.wav
256,192,161140,1,0,0:0:0:0:
402,192,161228,1,0,0:0:0:75:hihat.wav
182,192,161316,1,0,0:0:0:0:
329,192,161405,1,0,0:0:0:60:kick.wav
475,192,161405,1,0,0:0:0:75:hihat.wav
182,192,161493,1,0,0:0:0:75:hihat.wav
36,192,161581,1,0,0:0:0:0:
256,192,161669,1,0,0:0:0:75:hihat.wav
109,192,161758,1,0,0:0:0:75:hihat.wav
475,192,161758,1,0,0:0:0:60:kick.wav
256,192,161846,1,0,0:0:0:0:
402,192,161934,1,0,0:0:0:75:hihat.wav
256,192,162022,1,0,0:0:0:75:hihat.wav
182,192,162110,128,0,162199:0:0:0:60:kick.wav
475,192,162110,1,0,0:0:0:75:hihat.wav
109,192,162110,1,0,0:0:0:0:
402,192,162199,128,0,162287:0:0:0:75:hihat.wav
329,192,162199,1,0,0:0:0:0:
109,192,162287,128,0,162375:0:0:0:75:hihat.wav
36,192,162287,1,0,0:0:0:0:
475,192,162375,128,0,162463:0:0:0:75:hihat.wav
402,192,162375,1,0,0:0:0:0:
182,192,162463,1,0,0:0:0:60:kick.wav
329,192,162463,1,0,0:0:0:75:hihat.wav
109,192,162552,1,0,0:0:0:0:
36,192,162640,1,0,0:0:0:75:hihat.wav
182,192,162728,1,0,0:0:0:0:
329,192,162816,1,0,0:0:0:60:kick.wav
475,192,162816,1,0,0:0:0:75:hihat.wav
256,192,162905,1,0,0:0:0:75:hihat.wav
182,192,162993,1,0,0:0:0:0:
329,192,163081,1,0,0:0:0:75:hihat.wav
36,192,163169,1,0,0:0:0:75:hihat.wav
475,192,163169,1,0,0:0:0:60:kick.wav
182,192,163258,1,0,0:0:0:0:
109,192,163346,128,0,163434:0:0:0:70:chime.wav
329,192,163346,1,0,0:0:0:75:hihat.wav
256,192,163434,128,0,163522:0:0:0:75:hihat.wav
475,192,163434,1,0,0:0:0:0:
109,192,163522,128,0,163699:0:0:0:60:kick.wav
36,192,163522,1,0,0:0:0:70:chime.wav
329,192,163522,1,0,0:0:0:75:hihat.wav
475,192,163610,1,0,0:0:0:0:
36,192,163699,128,0,163875:0:0:0:75:hihat.wav
329,192,163699,1,0,0:0:0:0:
182,192,163787,1,0,0:0:0:0:
475,192,163875,1,0,0:0:0:60:kick.wav
402,192,163875,1,0,0:0:0:75:hihat.wav
36,192,163963,1,0,0:0:0:0:
182,192,164052,1,0,0:0:0:75:hihat.wav
329,192,164140,1,0,0:0:0:0:
475,192,164228,1,0,0:0:0:60:kick.wav
36,192,164228,1,0,0:0:0:75:hihat.wav
402,192,164316,1,0,0:0:0:75:hihat.wav
256,192,164405,1,0,0:0:0:0:
109,192,164493,1,0,0:0:0:75:hihat.wav
475,192,164581,1,0,0:0:0:60:kick.wav
402,192,164581,1,0,0:0:0:75:hihat.wav
36,192,164669,1,0,0:0:0:0:
182,192,164758,1,0,0:0:0:75:hihat.wav
329,192,164846,1,0,0:0:0:75:hihat.wav
475,192,164934,128,0,165022:0:0:0:60:kick.wav
402,192,164934,1,0,0:0:0:75:hihat.wav
256,192,164934,1,0,0:0:0:0:
182,192,165022,128,0,165110:0:0:0:75:hihat.wav
109,192,165022,1,0,0:0:0:0:
329,192,165110,128,0,165199:0:0:0:75:hihat.wav
402,192,165110,1,0,0:0:0:0:
36,192,165199,128,0,165287:0:0:0:75:hihat.wav
109,192,165199,1,0,0:0:0:0:
329,192,165287,1,0,0:0:0:60:kick.wav
475,192,165287,1,0,0:0:0:75:hihat.wav
182,192,165375,1,0,0:0:0:0:
36,192,165463,1,0,0:0:0:75:hihat.wav
256,192,165552,1,0,0:0:0:0:
329,192,165640,1,0,0:0:0:75:hihat.wav
475,192,165640,1,0,0:0:0:60:kick.wav
182,192,165728,1,0,0:0:0:75:hihat.wav
36,192,165816,1,0,0:0:0:0:
256,192,165905,1,0,0:0:0:75:hihat.wav
329,192,165993,1,0,0:0:0:75:hihat.wav
475,192,165993,1,0,0:0:0:60:kick.wav
182,192,166081,1,0,0:0:0:0:
475,192,166169,128,0,166258:0:0:0:75:hihat.wav
402,192,166169,1,0,0:0:0:70:chime.wav
256,192,166258,128,0,166346:0:0:0:75:hihat.wav
182,192,166258,1,0,0:0:0:0:
402,192,166346,128,0,166522:0:0:0:60:kick.wav
329,192,166346,1,0,0:0:0:70:chime.wav
36,192,166346,1,0,0:0:0:75:hihat.wav
182,192,166434,1,0,0:0:0:0:
109,192,166522,128,0,166699:0:0:0:75:hihat.wav
329,192,166522,1,0,0:0:0:0:
475,192,166610,1,0,0:0:0:0:
329,192,166699,1,0,0:0:0:60:kick.wav
36,192,166699,1,0,0:0:0:75:hihat.wav
402,192,166787,1,0,0:0:0:0:
109,192,166875,1,0,0:0:0:75:hihat.wav
182,192,166963,1,0,0:0:0:0:
329,192,167052,1,0,0:0:0:75:hihat.wav
475,192,167052,1,0,0:0:0:60:kick.wav
402,192,167140,1,0,0:0:0:75:hihat.wav
36,192,167228,1,0,0:0:0:0:
109,192,167316,1,0,0:0:0:75:hihat.wav
256,192,167405,1,0,0:0:0:60:kick.wav
402,192,167405,1,0,0:0:0:75:hihat.wav
329,192,167493,1,0,0:0:0:0:
109,192,167581,1,0,0:0:0:75:hihat.wav
182,192,167669,1,0,0:0:0:75:hihat.wav
329,192,167758,128,0,167846:0:0:0:60:kick.wav
256,192,167758,1,0,0:0:0:75:hihat.wav
36,192,167758,1,0,0:0:0:0:
182,192,167846,1,0,0:0:0:75:hihat.wav
475,192,167846,128,0,167934:0:0:0:0:
402,192,167934,128,0,168022:0:0:0:75:hihat.wav
109,192,167934,1,0,0:0:0:0:
329,192,168022,128,0,168110:0:0:0:75:hihat.wav
36,192,168022,1,0,0:0:0:0:
182,192,168110,128,0,168287:0:0:0:75:hihat.wav
402,192,168287,128,0,168463:0:0:0:75:hihat.wav
109,192,168463,1,0,0:0:0:75:hihat.wav
329,192,168552,128,0,168728:0:0:0:75:hihat.wav
182,192,168728,1,0,0:0:0:75:hihat.wav
402,192,168816,128,0,168993:0:0:0:75:hihat.wav
256,192,168993,128,0,169081:0:0:0:75:hihat.wav
475,192,169081,128,0,169169:0:0:0:75:hihat.wav
329,192,169169,128,0,169346:0:0:0:75:hihat.wav
182,192,169346,128,0,169522:0:0:0:75:hihat.wav
36,192,169522,1,4,1:0:0:90:
402,192,169522,1,0,0:0:0:75:finish2.wav
256,192,169610,1,0,0:0:0:75:hihat.wav
109,192,169699,1,0,0:0:0:75:hihat.wav
475,192,169787,1,0,0:0:0:75:hihat.wav
109,192,169875,128,0,169963:0:0:0:75:hihat.wav
182,192,169875,1,0,0:0:0:60:kick.wav
329,192,169875,128,0,169963:0:0:0:75:jingle.wav
402,192,169963,1,0,0:0:0:75:hihat.wav
256,192,170052,1,0,0:0:0:75:hihat.wav
109,192,170140,1,0,0:0:0:75:hihat.wav
402,192,170228,1,0,0:0:0:60:kick.wav
36,192,170228,1,0,0:0:0:75:hihat.wav
182,192,170316,1,0,0:0:0:75:hihat.wav
329,192,170405,1,0,0:0:0:75:hihat.wav
109,192,170493,1,0,0:0:0:75:hihat.wav
182,192,170581,128,0,170669:0:0:0:75:jingle.wav
402,192,170581,128,0,170669:0:0:0:60:kick.wav
256,192,170581,1,0,0:0:0:75:hihat.wav
475,192,170669,1,0,0:0:0:75:hihat.wav
329,192,170758,1,0,0:0:0:75:hihat.wav
182,192,170846,1,0,0:0:0:75:hihat.wav
36,192,170934,1,0,0:0:0:60:kick.wav
402,192,170934,1,0,0:0:0:75:hihat.wav
256,192,171022,1,0,0:0:0:75:hihat.wav
109,192,171110,1,0,0:0:0:75:hihat.wav
329,192,171199,1,0,0:0:0:75:hihat.wav
475,192,171287,128,0,171375:0:0:0:60:kick.wav
256,192,171287,128,0,171375:0:0:0:75:hihat.wav
402,192,171287,1,0,0:0:0:75:jingle.wav
182,192,171375,1,0,0:0:0:75:hihat.wav
109,192,171463,1,0,0:0:0:75:hihat.wav
402,192,171552,1,0,0:0:0:75:hihat.wav
475,192,171640,1,0,0:0:0:60:kick.wav
256,192,171640,1,0,0:0:0:75:hihat.wav
182,192,171728,1,0,0:0:0:75:hihat.wav
329,192,171816,1,0,0:0:0:75:hihat.wav
402,192,171905,1,0,0:0:0:75:hihat.wav
36,192,171993,1,0,0:0:0:75:hihat.wav
256,192,171993,128,0,172081:0:0:0:60:kick.wav
475,192,171993,128,0,172081:0:0:0:75:jingle.wav
182,192,172081,128,0,172169:0:0:0:75:hihat.wav
402,192,172081,128,0,172169:0:0:0:75:jingle.wav
109,192,172169,128,0,172258:0:0:0:75:hihat.wav
329,192,172169,128,0,172258:0:0:0:75:jingle.wav
36,192,172258,128,0,172346:0:0:0:75:hihat.wav
256,192,172258,128,0,172346:0:0:0:75:jingle.wav
402,192,172346,1,0,0:0:0:75:hihat.wav
182,192,172346,1,0,0:0:0:60:kick.wav
475,192,172434,1,0,0:0:0:75:hihat.wav
109,192,172522,1,0,0:0:0:75:hihat.wav
402,192,172610,1,0,0:0:0:75:hihat.wav
182,192,172699,1,0,0:0:0:60:kick.wav
109,192,172699,128,0,172787:0:0:0:75:hihat.wav
329,192,172699,128,0,172787:0:0:0:75:jingle.wav
402,192,172787,1,0,0:0:0:75:hihat.wav
36,192,172875,1,0,0:0:0:75:hihat.wav
256,192,172963,1,0,0:0:0:75:hihat.wav
109,192,173052,1,0,0:0:0:60:kick.wav
475,192,173052,1,0,0:0:0:75:hihat.wav
329,192,173140,1,0,0:0:0:75:hihat.wav
36,192,173228,1,0,0:0:0:75:hihat.wav
256,192,173316,1,0,0:0:0:75:hihat.wav
182,192,173405,128,0,173493:0:0:0:75:jingle.wav
402,192,173405,128,0,173493:0:0:0:75:hihat.wav
329,192,173405,1,0,0:0:0:60:kick.wav
109,192,173493,1,0,0:0:0:75:hihat.wav
256,192,173581,1,0,0:0:0:75:hihat.wav
402,192,173669,1,0,0:0:0:75:hihat.wav
182,192,173758,1,0,0:0:0:75:hihat.wav
36,192,173758,1,0,0:0:0:60:kick.wav
329,192,173846,1,0,0:0:0:75:hihat.wav
475,192,173934,1,0,0:0:0:75:hihat.wav
109,192,174022,1,0,0:0:0:75:hihat.wav
475,192,174110,128,0,174199:0:0:0:60:kick.wav
402,192,174110,1,0,0:0:0:75:hihat.wav
256,192,174110,128,0,174199:0:0:0:75:jingle.wav
182,192,174199,1,0,0:0:0:75:hihat.wav
329,192,174287,1,0,0:0:0:75:hihat.wav
475,192,174375,1,0,0:0:0:75:hihat.wav
256,192,174463,1,0,0:0:0:60:kick.wav
109,192,174463,1,0,0:0:0:75:hihat.wav
402,192,174552,1,0,0:0:0:75:hihat.wav
182,192,174640,1,0,0:0:0:75:hihat.wav
36,192,174728,1,0,0:0:0:75:hihat.wav
182,192,174816,128,0,174905:0:0:0:60:kick.wav
256,192,174816,1,0,0:0:0:75:hihat.wav
475,192,174816,128,0,174905:0:0:0:75:jingle.wav
36,192,174905,128,0,174993:0:0:0:75:hihat.wav
329,192,174905,128,0,174993:0:0:0:75:jingle.wav
109,192,174993,128,0,175081:0:0:0:75:hihat.wav
402,192,174993,128,0,175081:0:0:0:75:jingle.wav
182,192,175081,128,0,175169:0:0:0:75:hihat.wav
475,192,175081,128,0,175169:0:0:0:75:jingle.wav
256,192,175169,1,0,0:0:0:75:hihat.wav
36,192,175169,1,0,0:0:0:60:kick.wav
402,192,175258,1,0,0:0:0:75:hihat.wav
109,192,175346,1,0,0:0:0:75:hihat.wav
475,192,175434,1,0,0:0:0:75:hihat.wav
36,192,175522,128,0,175610:0:0:0:60:kick.wav
182,192,175522,1,0,0:0:0:75:hihat.wav
256,192,175522,128,0,175610:0:0:0:75:jingle.wav
402,192,175610,1,0,0:0:0:75:hihat.wav
109,192,175699,1,0,0:0:0:75:hihat.wav
329,192,175787,1,0,0:0:0:75:hihat.wav
182,192,175875,1,0,0:0:0:75:hihat.wav
36,192,175875,1,0,0:0:0:60:kick.wav
402,192,175963,1,0,0:0:0:75:hihat.wav
109,192,176052,1,0,0:0:0:75:hihat.wav
475,192,176140,1,0,0:0:0:75:hihat.wav
109,192,176228,128,0,176316:0:0:0:60:kick.wav
182,192,176228,1,0,0:0:0:75:hihat.wav
329,192,176228,128,0,176316:0:0:0:75:jingle.wav
402,192,176316,1,0,0:0:0:75:hihat.wav
36,192,176405,1,0,0:0:0:75:hihat.wav
256,192,176493,1,0,0:0:0:75:hihat.wav
329,192,176581,1,0,0:0:0:75:hihat.wav
109,192,176581,1,0,0:0:0:60:kick.wav
182,192,176669,1,0,0:0:0:75:hihat.wav
402,192,176758,1,0,0:0:0:75:hihat.wav
109,192,176846,1,0,0:0:0:75:hihat.wav
402,192,176934,128,0,177022:0:0:0:60:kick.wav
329,192,176934,1,0,0:0:0:75:hihat.wav
182,192,176934,128,0,177022:0:0:0:75:jingle.wav
36,192,177022,1,0,0:0:0:75:hihat.wav
256,192,177110,1,0,0:0:0:75:hihat.wav
109,192,177199,1,0,0:0:0:75:hihat.wav
475,192,177287,1,0,0:0:0:75:hihat.wav
329,192,177287,1,0,0:0:0:60:kick.wav
182,192,177375,1,0,0:0:0:75:hihat.wav
36,192,177463,1,0,0:0:0:75:hihat.wav
402,192,177552,1,0,0:0:0:75:hihat.wav
475,192,177640,128,0,177728:0:0:0:75:jingle.wav
256,192,177640,128,0,177728:0:0:0:60:kick.wav
182,192,177728,128,0,177816:0:0:0:75:hihat.wav
402,192,177728,128,0,177816:0:0:0:75:jingle.wav
329,192,177816,128,0,177905:0:0:0:75:hihat.wav
109,192,177816,128,0,177905:0:0:0:75:jingle.wav
256,192,177905,128,0,177993:0:0:0:75:hihat.wav
36,192,177905,128,0,177993:0:0:0:75:jingle.wav
402,192,177993,1,0,0:0:0:75:hihat.wav
182,192,177993,1,0,0:0:0:60:kick.wav
109,192,178081,1,0,0:0:0:75:hihat.wav
256,192,178169,1,0,0:0:0:75:hihat.wav
329,192,178258,1,0,0:0:0:75:hihat.wav
475,192,178346,1,0,0:0:0:60:kick.wav
36,192,178346,128,0,178434:0:0:0:75:hihat.wav
256,192,178346,128,0,178434:0:0:0:75:jingle.wav
402,192,178434,1,0,0:0:0:75:hihat.wav
182,192,178522,1,0,0:0:0:75:hihat.wav
402,192,178610,1,0,0:0:0:75:hihat.wav
36,192,178699,1,0,0:0:0:75:hihat.wav
329,192,178699,1,0,0:0:0:60:kick.wav
109,192,178787,1,0,0:0:0:75:hihat.wav
256,192,178875,1,0,0:0:0:75:hihat.wav
182,192,178963,1,0,0:0:0:75:hihat.wav
109,192,179052,128,0,179140:0:0:0:60:kick.wav
402,192,179052,1,0,0:0:0:75:hihat.wav
329,192,179052,128,0,179140:0:0:0:75:jingle.wav
182,192,179140,1,0,0:0:0:75:hihat.wav
256,192,179228,1,0,0:0:0:75:hihat.wav
109,192,179316,1,0,0:0:0:75:hihat.wav
329,192,179405,1,0,0:0:0:75:hihat.wav
475,192,179405,1,0,0:0:0:60:kick.wav
402,192,179493,1,0,0:0:0:75:hihat.wav
182,192,179581,1,0,0:0:0:75:hihat.wav
256,192,179669,1,0,0:0:0:75:hihat.wav
402,192,179758,128,0,179846:0:0:0:60:kick.wav
109,192,179758,1,0,0:0:0:75:hihat.wav
182,192,179758,128,0,179846:0:0:0:75:jingle.wav
329,192,179846,1,0,0:0:0:75:hihat.wav
256,192,179934,1,0,0:0:0:75:hihat.wav
402,192,180022,1,0,0:0:0:75:hihat.wav
36,192,180110,1,0,0:0:0:60:kick.wav
182,192,180110,1,0,0:0:0:75:hihat.wav
109,192,180199,1,0,0:0:0:75:hihat.wav
256,192,180287,1,0,0:0:0:75:hihat.wav
109,192,180375,1,0,0:0:0:75:hihat.wav
475,192,180463,128,0,180552:0:0:0:75:hihat.wav
256,192,180463,1,0,0:0:0:60:kick.wav
329,192,180463,128,0,180552:0:0:0:75:jingle.wav
36,192,180552,128,0,180640:0:0:0:75:hihat.wav
182,192,180552,128,0,180640:0:0:0:75:jingle.wav
109,192,180640,128,0,180728:0:0:0:75:hihat.wav
256,192,180640,128,0,180728:0:0:0:75:jingle.wav
182,192,180728,128,0,180816:0:0:0:75:hihat.wav
329,192,180728,128,0,180816:0:0:0:75:jingle.wav
475,192,180816,1,4,1:0:0:90:
402,192,180816,1,0,0:0:0:75:finish2.wav
256,192,180905,1,0,0:0:0:60:hihat.wav
109,192,180993,1,0,0:0:0:90:hihat.wav
182,192,181081,1,0,0:0:0:60:hihat.wav
402,192,181169,1,0,0:0:0:60:hihat.wav
329,192,181169,128,0,181875:0:0:0:75:jingle.wav
256,192,181258,1,0,0:0:0:60:hihat.wav
109,192,181346,1,0,0:0:0:90:hihat.wav
182,192,181434,1,0,0:0:0:60:hihat.wav
36,192,181522,1,0,0:0:0:60:hihat.wav
256,192,181610,1,0,0:0:0:60:hihat.wav
182,192,181699,1,0,0:0:0:90:hihat.wav
109,192,181787,1,0,0:0:0:60:hihat.wav
402,192,181875,128,0,182581:0:0:0:75:jingle.wav
256,192,181875,1,0,0:0:0:60:hihat.wav
36,192,181963,1,0,0:0:0:60:hihat.wav
109,192,182052,1,0,0:0:0:90:hihat.wav
182,192,182140,1,0,0:0:0:60:hihat.wav
329,192,182228,1,0,0:0:0:60:hihat.wav
109,192,182316,1,0,0:0:0:60:hihat.wav
182,192,182405,1,0,0:0:0:90:hihat.wav
256,192,182493,1,0,0:0:0:60:hihat.wav
36,192,182581,1,0,0:0:0:60:hihat.wav
475,192,182581,128,0,183287:0:0:0:75:jingle.wav
256,192,182669,1,0,0:0:0:60:hihat.wav
182,192,182758,1,0,0:0:0:90:hihat.wav
109,192,182846,1,0,0:0:0:60:hihat.wav
402,192,182934,1,0,0:0:0:60:hihat.wav
182,192,183022,1,0,0:0:0:60:hihat.wav
256,192,183110,1,0,0:0:0:90:hihat.wav
329,192,183199,1,0,0:0:0:60:hihat.wav
182,192,183287,1,0,0:0:0:60:hihat.wav
109,192,183287,128,0,183375:0:0:0:75:jingle.wav
402,192,183375,1,0,0:0:0:60:hihat.wav
329,192,183375,128,0,183463:0:0:0:75:jingle.wav
109,192,183463,1,0,0:0:0:90:hihat.wav
36,192,183463,128,0,183552:0:0:0:75:jingle.wav
256,192,183552,128,0,183640:0:0:0:75:jingle.wav
329,192,183552,1,0,0:0:0:60:hihat.wav
36,192,183640,1,0,0:0:0:60:hihat.wav
182,192,183728,1,0,0:0:0:60:hihat.wav
329,192,183816,1,0,0:0:0:90:hihat.wav
256,192,183905,1,0,0:0:0:60:hihat.wav
36,192,183993,1,0,0:0:0:60:hihat.wav
329,192,183993,128,0,184699:0:0:0:75:jingle.wav
109,192,184081,1,0,0:0:0:60:hihat.wav
256,192,184169,1,0,0:0:0:90:hihat.wav
182,192,184258,1,0,0:0:0:60:hihat.wav
109,192,184346,1,0,0:0:0:60:hihat.wav
36,192,184434,1,0,0:0:0:60:hihat.wav
182,192,184522,1,0,0:0:0:90:hihat.wav
256,192,184610,1,0,0:0:0:60:hihat.wav
36,192,184699,1,0,0:0:0:60:hihat.wav
402,192,184699,128,0,185405:0:0:0:75:jingle.wav
182,192,184787,1,0,0:0:0:60:hihat.wav
329,192,184875,1,0,0:0:0:90:hihat.wav
256,192,184963,1,0,0:0:0:60:hihat.wav
36,192,185052,1,0,0:0:0:60:hihat.wav
109,192,185140,1,0,0:0:0:60:hihat.wav
329,192,185228,1,0,0:0:0:90:hihat.wav
256,192,185316,1,0,0:0:0:60:hihat.wav
182,192,185405,1,0,0:0:0:60:hihat.wav
475,192,185405,128,0,186110:0:0:0:75:jingle.wav
109,192,185493,1,0,0:0:0:60:hihat.wav
329,192,185581,1,0,0:0:0:90:hihat.wav
402,192,185669,1,0,0:0:0:60:hihat.wav
109,192,185758,1,0,0:0:0:60:hihat.wav
256,192,185846,1,0,0:0:0:60:hihat.wav
402,192,185934,1,0,0:0:0:90:hihat.wav
109,192,186022,1,0,0:0:0:60:hihat.wav
182,192,186110,1,0,0:0:0:60:hihat.wav
36,192,186110,128,0,186199:0:0:0:75:jingle.wav
329,192,186199,1,0,0:0:0:60:hihat.wav
402,192,186199,128,0,186287:0:0:0:75:jingle.wav
182,192,186287,1,0,0:0:0:90:hihat.wav
109,192,186287,128,0,186375:0:0:0:75:jingle.wav
329,192,186375,1,0,0:0:0:60:hihat.wav
475,192,186375,128,0,186463:0:0:0:75:jingle.wav
402,192,186463,1,0,0:0:0:60:hihat.wav
182,192,186552,1,0,0:0:0:60:hihat.wav
329,192,186640,1,0,0:0:0:90:hihat.wav
475,192,186728,1,0,0:0:0:60:hihat.wav
109,192,186816,1,0,0:0:0:60:hihat.wav
36,192,186816,128,0,187522:0:0:0:75:jingle.wav
182,192,186905,1,0,0:0:0:60:hihat.wav
402,192,186993,1,0,0:0:0:90:hihat.wav
256,192,187081,1,0,0:0:0:60:hihat.wav
329,192,187169,1,0,0:0:0:60:hihat.wav
182,192,187258,1,0,0:0:0:60:hihat.wav
402,192,187346,1,0,0:0:0:90:hihat.wav
475,192,187434,1,0,0:0:0:60:hihat.wav
256,192,187522,128,0,187875:0:0:0:75:jingle.wav
109,192,187522,1,0,0:0:0:0:
329,192,187610,1,0,0:0:0:60:hihat.wav
182,192,187699,1,0,0:0:0:90:hihat.wav
36,192,187787,1,0,0:0:0:60:hihat.wav
475,192,187875,1,0,0:0:0:34:kick.wav
402,192,187875,1,0,0:0:0:60:hihat.wav
36,192,187963,1,0,0:0:0:60:hihat.wav
109,192,187963,1,0,0:0:0:35:kick.wav
256,192,188052,1,0,0:0:0:90:hihat.wav
182,192,188052,1,0,0:0:0:36:kick.wav
329,192,188140,1,0,0:0:0:60:hihat.wav
402,192,188140,1,0,0:0:0:37:kick.wav
109,192,188228,1,0,0:0:0:75:jingle.wav
36,192,188228,1,0,0:0:0:38:kick.wav
402,192,188316,1,0,0:0:0:60:hihat.wav
475,192,188316,1,0,0:0:0:39:kick.wav
256,192,188405,1,0,0:0:0:90:hihat.wav
329,192,188405,1,0,0:0:0:40:kick.wav
182,192,188493,1,0,0:0:0:60:hihat.wav
109,192,188493,1,0,0:0:0:41:kick.wav
402,192,188581,1,0,0:0:0:42:kick.wav
475,192,188581,1,0,0:0:0:60:hihat.wav
36,192,188669,1,0,0:0:0:43:kick.wav
109,192,188669,1,0,0:0:0:60:hihat.wav
182,192,188758,1,0,0:0:0:44:kick.wav
256,192,188758,1,0,0:0:0:90:hihat.wav
329,192,188846,1,0,0:0:0:60:hihat.wav
402,192,188846,1,0,0:0:0:45:kick.wav
109,192,188934,1,0,0:0:0:46:kick.wav
36,192,188934,1,0,0:0:0:75:jingle.wav
475,192,189022,1,0,0:0:0:75:jingle.wav
402,192,189022,1,0,0:0:0:47:kick.wav
256,192,189110,1,0,0:0:0:48:kick.wav
329,192,189110,1,0,0:0:0:75:jingle.wav
109,192,189199,1,0,0:0:0:75:jingle.wav
182,192,189199,1,0,0:0:0:49:kick.wav
475,192,189287,1,0,0:0:0:50:kick.wav
329,192,189287,1,0,0:0:0:60:hihat.wav
182,192,189375,1,0,0:0:0:60:hihat.wav
36,192,189375,1,0,0:0:0:50:kick.wav
475,192,189463,1,0,0:0:0:50:kick.wav
329,192,189463,1,0,0:0:0:90:hihat.wav
182,192,189552,1,0,0:0:0:50:kick.wav
36,192,189552,1,0,0:0:0:60:hihat.wav
329,192,189640,1,0,0:0:0:50:kick.wav
475,192,189640,1,0,0:0:0:75:jingle.wav
36,192,189728,1,0,0:0:0:50:kick.wav
182,192,189728,1,0,0:0:0:90:hihat.wav
475,192,189816,1,0,0:0:0:50:kick.wav
329,192,189816,1,0,0:0:0:60:hihat.wav
182,192,189905,1,0,0:0:0:50:kick.wav
36,192,189905,1,0,0:0:0:60:hihat.wav
329,192,189993,1,0,0:0:0:60:hihat.wav
475,192,189993,1,0,0:0:0:50:kick.wav
109,192,190081,1,0,0:0:0:60:hihat.wav
256,192,190081,1,0,0:0:0:50:kick.wav
329,192,190169,1,0,0:0:0:90:hihat.wav
475,192,190169,1,0,0:0:0:50:kick.wav
36,192,190258,1,0,0:0:0:50:kick.wav
182,192,190258,1,0,0:0:0:60:hihat.wav
256,192,190346,1,0,0:0:0:75:jingle.wav
402,192,190346,1,0,0:0:0:50:kick.wav
182,192,190434,1,0,0:0:0:50:kick.wav
36,192,190434,1,0,0:0:0:60:hihat.wav
329,192,190522,1,0,0:0:0:50:kick.wav
475,192,190522,1,0,0:0:0:90:hihat.wav
109,192,190610,1,0,0:0:0:60:hihat.wav
256,192,190610,1,0,0:0:0:50:kick.wav
36,192,190699,1,0,0:0:0:40:kick.wav
182,192,190758,1,0,0:0:0:40:kick.wav
329,192,190816,1,0,0:0:0:40:kick.wav
475,192,190875,1,0,0:0:0:40:kick.wav
109,192,190934,1,0,0:0:0:40:kick.wav
256,192,190993,1,0,0:0:0:40:kick.wav
402,192,191052,1,0,0:0:0:40:kick.wav
256,192,191110,1,0,0:0:0:40:kick.wav
109,192,191169,1,0,0:0:0:40:kick.wav
475,192,191228,1,0,0:0:0:40:kick.wav
329,192,191287,1,0,0:0:0:40:kick.wav
182,192,191346,1,0,0:0:0:40:kick.wav
36,192,191405,1,0,0:0:0:40:kick.wav
402,192,191463,1,0,0:0:0:40:kick.wav
256,192,191522,1,0,0:0:0:40:kick.wav
109,192,191581,1,0,0:0:0:40:kick.wav
256,192,191640,1,0,0:0:0:40:kick.wav
402,192,191699,1,0,0:0:0:40:kick.wav
36,192,191758,1,0,0:0:0:40:kick.wav
182,192,191816,1,0,0:0:0:40:kick.wav
329,192,191875,1,0,0:0:0:40:kick.wav
475,192,191934,1,0,0:0:0:40:kick.wav
329,192,191993,1,0,0:0:0:40:kick.wav
182,192,192052,1,0,0:0:0:40:kick.wav
36,192,192110,1,4,1:0:0:90:
475,192,192110,1,0,0:0:0:75:finish2.wav
402,192,192287,128,0,192463:0:0:0:75:hihat.wav
182,192,192463,1,0,0:0:0:74:hihat.wav
329,192,192552,128,0,192728:0:0:0:74:hihat.wav
109,192,192728,1,0,0:0:0:74:hihat.wav
256,192,192816,128,0,192993:0:0:0:73:hihat.wav
36,192,192993,1,0,0:0:0:73:hihat.wav
475,192,193081,1,0,0:0:0:73:hihat.wav
109,192,193169,1,0,0:0:0:72:hihat.wav
402,192,193258,1,0,0:0:0:72:hihat.wav
182,192,193346,1,0,0:0:0:72:hihat.wav
329,192,193434,1,0,0:0:0:72:hihat.wav
475,192,193522,128,0,193699:0:0:0:71:hihat.wav
256,192,193699,128,0,193875:0:0:0:71:hihat.wav
36,192,193875,1,0,0:0:0:70:hihat.wav
329,192,193963,128,0,194140:0:0:0:70:hihat.wav
109,192,194140,1,0,0:0:0:70:hihat.wav
402,192,194228,128,0,194405:0:0:0:69:hihat.wav
182,192,194405,1,0,0:0:0:69:hihat.wav
109,192,194493,1,0,0:0:0:69:hihat.wav
36,192,194581,128,0,194758:0:0:0:68:hihat.wav
256,192,194758,128,0,194934:0:0:0:68:hihat.wav
182,192,195022,1,0,0:0:0:67:hihat.wav
402,192,195110,128,0,195287:0:0:0:67:hihat.wav
109,192,195287,1,0,0:0:0:66:hihat.wav
329,192,195375,128,0,195552:0:0:0:66:hihat.wav
36,192,195552,1,0,0:0:0:66:hihat.wav
256,192,195640,128,0,195816:0:0:0:65:hihat.wav
109,192,195816,1,0,0:0:0:65:hihat.wav
475,192,195905,1,0,0:0:0:65:hihat.wav
329,192,195993,1,0,0:0:0:64:hihat.wav
182,192,196081,1,0,0:0:0:64:hihat.wav
36,192,196169,1,0,0:0:0:64:hihat.wav
256,192,196258,1,0,0:0:0:64:hihat.wav
402,192,196346,128,0,196522:0:0:0:63:hihat.wav
109,192,196522,128,0,196699:0:0:0:63:hihat.wav
256,192,196699,1,0,0:0:0:62:hihat.wav
402,192,196787,128,0,196963:0:0:0:62:hihat.wav
182,192,196963,1,0,0:0:0:62:hihat.wav
329,192,197052,128,0,197228:0:0:0:61:hihat.wav
109,192,197228,1,0,0:0:0:61:hihat.wav
475,192,197316,1,0,0:0:0:61:hihat.wav
329,192,197405,1,0,0:0:0:61:hihat.wav
36,192,197581,128,0,197758:0:0:0:61:hihat.wav
109,192,197758,1,0,0:0:0:60:hihat.wav
182,192,197758,128,0,197846:0:0:0:60:jingle.wav
402,192,197846,1,0,0:0:0:45:hihat.wav
256,192,197934,1,0,0:0:0:75:hihat.wav
109,192,198022,1,0,0:0:0:45:hihat.wav
329,192,198110,1,0,0:0:0:60:hihat.wav
36,192,198110,128,0,198199:0:0:0:60:jingle.wav
475,192,198199,1,0,0:0:0:45:hihat.wav
182,192,198199,128,0,198287:0:0:0:60:jingle.wav
256,192,198287,1,0,0:0:0:75:hihat.wav
402,192,198375,1,0,0:0:0:45:hihat.wav
182,192,198463,1,0,0:0:0:60:hihat.wav
329,192,198463,128,0,198552:0:0:0:60:jingle.wav
36,192,198552,1,0,0:0:0:45:hihat.wav
256,192,198640,1,0,0:0:0:75:hihat.wav
109,192,198728,1,0,0:0:0:45:hihat.wav
475,192,198728,128,0,198816:0:0:0:60:jingle.wav
402,192,198816,1,0,0:0:0:60:hihat.wav
109,192,198905,1,0,0:0:0:45:hihat.wav
256,192,198993,1,0,0:0:0:75:hihat.wav
36,192,198993,128,0,199081:0:0:0:60:jingle.wav
402,192,199081,1,0,0:0:0:45:hihat.wav
329,192,199169,1,0,0:0:0:60:hihat.wav
182,192,199169,128,0,199258:0:0:0:60:jingle.wav
36,192,199258,1,0,0:0:0:45:hihat.wav
475,192,199346,1,0,0:0:0:90:hihat.wav
329,192,199346,128,0,199434:0:0:0:60:jingle.wav
182,192,199434,1,0,0:0:0:45:hihat.wav
329,192,199522,1,0,0:0:0:60:hihat.wav
36,192,199522,128,0,199610:0:0:0:60:jingle.wav
475,192,199610,1,0,0:0:0:45:hihat.wav
182,192,199610,128,0,199699:0:0:0:60:jingle.wav
256,192,199699,1,0,0:0:0:75:hihat.wav
402,192,199787,1,0,0:0:0:45:hihat.wav
182,192,199875,1,0,0:0:0:60:hihat.wav
329,192,199875,128,0,199963:0:0:0:60:jingle.wav
36,192,199963,1,0,0:0:0:45:hihat.wav
256,192,200052,1,0,0:0:0:75:hihat.wav
109,192,200140,1,0,0:0:0:45:hihat.wav
402,192,200140,128,0,200228:0:0:0:60:jingle.wav
329,192,200228,1,0,0:0:0:60:hihat.wav
36,192,200316,1,0,0:0:0:45:hihat.wav
402,192,200405,1,0,0:0:0:75:hihat.wav
475,192,200405,128,0,200493:0:0:0:60:jingle.wav
109,192,200493,1,0,0:0:0:45:hihat.wav
256,192,200581,1,0,0:0:0:60:hihat.wav
329,192,200581,128,0,200669:0:0:0:60:jingle.wav
36,192,200669,1,0,0:0:0:45:hihat.wav
402,192,200758,1,0,0:0:0:75:hihat.wav
475,192,200758,128,0,200846:0:0:0:60:jingle.wav
182,192,200846,1,0,0:0:0:45:hihat.wav
329,192,200934,1,0,0:0:0:60:hihat.wav
36,192,200934,128,0,201022:0:0:0:60:jingle.wav
475,192,201022,1,0,0:0:0:45:hihat.wav
182,192,201022,128,0,201110:0:0:0:60:jingle.wav
256,192,201110,1,0,0:0:0:75:hihat.wav
109,192,201199,1,0,0:0:0:45:hihat.wav
475,192,201287,1,0,0:0:0:60:hihat.wav
329,192,201287,128,0,201375:0:0:0:60:jingle.wav
36,192,201375,1,0,0:0:0:45:hihat.wav
182,192,201463,1,0,0:0:0:75:hihat.wav
36,192,201552,1,0,0:0:0:45:hihat.wav
402,192,201552,128,0,201640:0:0:0:60:jingle.wav
256,192,201640,1,0,0:0:0:60:hihat.wav
109,192,201728,1,0,0:0:0:45:hihat.wav
329,192,201816,1,0,0:0:0:75:hihat.wav
475,192,201816,128,0,201905:0:0:0:60:jingle.wav
109,192,201905,1,0,0:0:0:45:hihat.wav
256,192,201993,1,0,0:0:0:60:hihat.wav
329,192,201993,128,0,202081:0:0:0:60:jingle.wav
109,192,202081,1,0,0:0:0:45:hihat.wav
402,192,202169,1,0,0:0:0:75:hihat.wav
475,192,202169,128,0,202258:0:0:0:60:jingle.wav
256,192,202258,1,0,0:0:0:45:hihat.wav
475,192,202346,1,0,0:0:0:60:hihat.wav
182,192,202346,128,0,202434:0:0:0:60:jingle.wav
329,192,202434,1,0,0:0:0:45:hihat.wav
36,192,202434,128,0,202522:0:0:0:60:jingle.wav
182,192,202522,1,0,0:0:0:75:hihat.wav
256,192,202610,1,0,0:0:0:45:hihat.wav
402,192,202699,1,0,0:0:0:60:hihat.wav
475,192,202699,128,0,202787:0:0:0:60:jingle.wav
256,192,202787,1,0,0:0:0:45:hihat.wav
109,192,202875,1,0,0:0:0:75:hihat.wav
182,192,202963,1,0,0:0:0:45:hihat.wav
402,192,202963,128,0,203052:0:0:0:60:jingle.wav
329,192,203052,1,0,0:0:0:60:hihat.wav
182,192,203140,1,0,0:0:0:45:hihat.wav
36,192,203228,1,0,0:0:0:75:hihat.wav
475,192,203228,128,0,203316:0:0:0:60:jingle.wav
109,192,203316,1,0,0:0:0:45:hihat.wav
256,192,203405,1,0,0:0:0:60:hihat.wav
329,192,203405,128,0,203493:0:0:0:60:jingle.wav
36,192,203493,1,0,0:0:0:45:hihat.wav
329,192,203581,1,0,0:0:0:75:hihat.wav
402,192,203581,128,0,203669:0:0:0:60:jingle.wav
109,192,203669,1,0,0:0:0:45:hihat.wav
475,192,203758,1,0,0:0:0:60:hihat.wav
182,192,203758,128,0,203846:0:0:0:60:jingle.wav
329,192,203846,1,0,0:0:0:45:hihat.wav
36,192,203846,128,0,203934:0:0:0:60:jingle.wav
182,192,203934,1,0,0:0:0:75:hihat.wav
402,192,204022,1,0,0:0:0:45:hihat.wav
36,192,204110,1,0,0:0:0:60:hihat.wav
256,192,204110,128,0,204199:0:0:0:60:jingle.wav
182,192,204199,1,0,0:0:0:45:hihat.wav
329,192,204287,1,0,0:0:0:75:hihat.wav
109,192,204375,1,0,0:0:0:45:hihat.wav
402,192,204375,128,0,204463:0:0:0:60:jingle.wav
256,192,204463,1,0,0:0:0:60:hihat.wav
402,192,204552,1,0,0:0:0:45:hihat.wav
36,192,204640,1,0,0:0:0:75:hihat.wav
475,192,204640,128,0,204728:0:0:0:60:jingle.wav
182,192,204728,1,0,0:0:0:45:hihat.wav
329,192,204816,1,0,0:0:0:60:hihat.wav
256,192,204816,128,0,204905:0:0:0:60:jingle.wav
109,192,204905,1,0,0:0:0:45:hihat.wav
475,192,204993,1,0,0:0:0:75:hihat.wav
402,192,204993,128,0,205081:0:0:0:60:jingle.wav
256,192,205081,1,0,0:0:0:45:hihat.wav
329,192,205169,1,0,0:0:0:60:hihat.wav
36,192,205169,128,0,205258:0:0:0:60:jingle.wav
475,192,205258,1,0,0:0:0:45:hihat.wav
182,192,205258,128,0,205346:0:0:0:60:jingle.wav
402,192,205346,1,0,0:0:0:75:hihat.wav
329,192,205434,1,0,0:0:0:45:hihat.wav
36,192,205522,1,0,0:0:0:60:hihat.wav
475,192,205522,128,0,205610:0:0:0:60:jingle.wav
182,192,205610,1,0,0:0:0:45:hihat.wav
109,192,205699,1,0,0:0:0:75:hihat.wav
36,192,205787,1,0,0:0:0:45:hihat.wav
329,192,205787,128,0,205875:0:0:0:60:jingle.wav
182,192,205875,1,0,0:0:0:60:hihat.wav
402,192,205963,1,0,0:0:0:45:hihat.wav
182,192,206052,128,0,206140:0:0:0:60:jingle.wav
36,192,206052,1,0,0:0:0:75:hihat.wav
256,192,206140,1,0,0:0:0:45:hihat.wav
402,192,206228,128,0,206316:0:0:0:60:jingle.wav
109,192,206228,1,0,0:0:0:60:hihat.wav
329,192,206316,1,0,0:0:0:45:hihat.wav
475,192,206405,128,0,206493:0:0:0:60:jingle.wav
182,192,206405,1,0,0:0:0:75:hihat.wav
36,192,206493,1,0,0:0:0:45:hihat.wav
256,192,206581,1,0,0:0:0:60:hihat.wav
182,192,206581,128,0,206669:0:0:0:60:jingle.wav
402,192,206669,1,0,0:0:0:45:hihat.wav
329,192,206669,128,0,206758:0:0:0:60:jingle.wav
36,192,206758,1,0,0:0:0:75:hihat.wav
182,192,206846,1,0,0:0:0:45:hihat.wav
329,192,206934,128,0,207022:0:0:0:60:jingle.wav
475,192,206934,1,0,0:0:0:60:hihat.wav
109,192,207022,1,0,0:0:0:45:hihat.wav
256,192,207110,1,0,0:0:0:75:hihat.wav
182,192,207199,128,0,207287:0:0:0:60:jingle.wav
402,192,207199,1,0,0:0:0:45:hihat.wav
36,192,207287,1,0,0:0:0:60:hihat.wav
402,192,207375,1,0,0:0:0:45:hihat.wav
36,192,207463,128,0,207552:0:0:0:60:jingle.wav
256,192,207463,1,0,0:0:0:75:hihat.wav
109,192,207552,1,0,0:0:0:45:hihat.wav
256,192,207640,128,0,207728:0:0:0:60:jingle.wav
329,192,207640,1,0,0:0:0:60:hihat.wav
109,192,207728,1,0,0:0:0:45:hihat.wav
475,192,207816,128,0,207905:0:0:0:60:jingle.wav
402,192,207816,1,0,0:0:0:75:hihat.wav
256,192,207905,1,0,0:0:0:45:hihat.wav
36,192,207993,128,0,208081:0:0:0:60:jingle.wav
109,192,207993,1,0,0:0:0:60:hihat.wav
182,192,208081,128,0,208169:0:0:0:60:jingle.wav
256,192,208081,1,0,0:0:0:45:hihat.wav
402,192,208169,1,0,0:0:0:75:hihat.wav
36,192,208258,1,0,0:0:0:45:hihat.wav
182,192,208346,1,0,0:0:0:60:hihat.wav
329,192,208346,128,0,208434:0:0:0:60:jingle.wav
36,192,208434,1,0,0:0:0:45:hihat.wav
256,192,208522,1,0,0:0:0:75:hihat.wav
402,192,208610,128,0,208699:0:0:0:60:jingle.wav
109,192,208610,1,0,0:0:0:45:hihat.wav
329,192,208699,1,0,0:0:0:60:hihat.wav
182,192,208787,1,0,0:0:0:45:hihat.wav
475,192,208875,128,0,208963:0:0:0:60:jingle.wav
402,192,208875,1,0,0:0:0:75:hihat.wav
256,192,208963,1,0,0:0:0:45:hihat.wav
36,192,209052,128,0,209140:0:0:0:60:jingle.wav
402,192,209052,1,0,0:0:0:18:snare.wav
329,192,209140,1,0,0:0:0:18:snare.wav
109,192,209228,128,0,209316:0:0:0:60:jingle.wav
182,192,209228,1,0,0:0:0:18:snare.wav
329,192,209316,1,0,0:0:0:19:snare.wav
402,192,209405,1,0,0:0:0:19:snare.wav
182,192,209405,128,0,209493:0:0:0:60:jingle.wav
256,192,209493,1,0,0:0:0:19:snare.wav
36,192,209493,128,0,209581:0:0:0:60:jingle.wav
402,192,209581,1,0,0:0:0:20:snare.wav
109,192,209669,1,0,0:0:0:20:snare.wav
256,192,209758,1,0,0:0:0:20:snare.wav
329,192,209758,128,0,209846:0:0:0:60:jingle.wav
109,192,209846,1,0,0:0:0:21:snare.wav
475,192,209934,1,0,0:0:0:21:snare.wav
329,192,210022,1,0,0:0:0:21:snare.wav
182,192,210022,128,0,210110:0:0:0:60:jingle.wav
475,192,210110,1,0,0:0:0:22:snare.wav
36,192,210110,1,0,0:0:0:22:snare.wav
182,192,210199,1,0,0:0:0:22:snare.wav
36,192,210287,1,0,0:0:0:22:snare.wav
329,192,210287,128,0,210375:0:0:0:60:jingle.wav
256,192,210375,1,0,0:0:0:23:snare.wav
475,192,210463,1,0,0:0:0:23:snare.wav
109,192,210463,128,0,210552:0:0:0:60:jingle.wav
329,192,210552,1,0,0:0:0:23:snare.wav
182,192,210640,128,0,210728:0:0:0:60:jingle.wav
475,192,210640,1,0,0:0:0:24:snare.wav
329,192,210728,1,0,0:0:0:24:snare.wav
36,192,210816,1,0,0:0:0:24:snare.wav
182,192,210905,1,0,0:0:0:25:snare.wav
36,192,210993,1,0,0:0:0:25:snare.wav
182,192,211081,1,0,0:0:0:25:snare.wav
329,192,211169,1,0,0:0:0:26:snare.wav
475,192,211258,1,0,0:0:0:26:snare.wav
329,192,211346,1,0,0:0:0:26:snare.wav
475,192,211434,1,0,0:0:0:27:snare.wav
182,192,211522,1,0,0:0:0:27:snare.wav
36,192,211610,1,0,0:0:0:27:snare.wav
182,192,211699,1,0,0:0:0:28:snare.wav
36,192,211787,1,0,0:0:0:28:snare.wav
256,192,211875,1,0,0:0:0:28:snare.wav
402,192,211875,1,0,0:0:0:60:hihat.wav
182,192,211963,1,0,0:0:0:29:snare.wav
36,192,211963,1,0,0:0:0:30:hihat.wav
329,192,212052,1,0,0:0:0:75:hihat.wav
475,192,212052,1,0,0:0:0:29:snare.wav
256,192,212140,1,0,0:0:0:45:hihat.wav
109,192,212140,1,0,0:0:0:29:snare.wav
329,192,212228,1,0,0:0:0:60:hihat.wav
475,192,212228,1,0,0:0:0:30:snare.wav
182,192,212316,1,0,0:0:0:45:hihat.wav
36,192,212316,1,0,0:0:0:30:snare.wav
329,192,212405,1,0,0:0:0:30:snare.wav
475,192,212405,1,0,0:0:0:75:hihat.wav
109,192,212493,1,0,0:0:0:31:snare.wav
256,192,212493,1,0,0:0:0:45:hihat.wav
329,192,212581,1,0,0:0:0:31:snare.wav
475,192,212581,1,0,0:0:0:60:hihat.wav
36,192,212669,1,0,0:0:0:45:hihat.wav
182,192,212669,1,0,0:0:0:31:snare.wav
256,192,212758,1,0,0:0:0:75:hihat.wav
402,192,212758,1,0,0:0:0:32:snare.wav
36,192,212846,1,0,0:0:0:32:snare.wav
182,192,212846,1,0,0:0:0:45:hihat.wav
329,192,212934,1,0,0:0:0:32:snare.wav
475,192,212934,1,0,0:0:0:60:hihat.wav
36,192,213022,1,0,0:0:0:45:hihat.wav
182,192,213022,1,0,0:0:0:33:snare.wav
329,192,213110,1,0,0:0:0:75:hihat.wav
475,192,213110,1,0,0:0:0:33:snare.wav
256,192,213199,1,0,0:0:0:45:hihat.wav
109,192,213199,1,0,0:0:0:33:snare.wav
329,192,213287,1,0,0:0:0:50:finish1.wav
475,192,213287,1,0,0:0:0:0:
36,192,213463,1,8,3:0:0:40:
182,192,213552,1,8,3:0:0:40:
329,192,213640,1,4,3:0:0:30:
182,192,213728,1,4,3:0:0:30:
36,192,213816,1,4,3:0:0:30:
475,192,213993,1,8,3:0:0:40:
329,192,214081,1,4,3:0:0:30:
182,192,214169,1,4,3:0:0:30:
329,192,214258,1,4,3:0:0:30:
36,192,214346,1,0,0:0:0:0:
475,192,214346,1,8,3:0:0:40:
182,192,214699,128,4,214787:1:0:0:90:
256,192,214699,1,0,0:0:0:75:finish2.wav
109,192,214699,1,0,0:0:0:60:kick.wav
329,192,214787,128,0,214875:0:0:0:75:hihat.wav
402,192,214787,1,0,0:0:0:0:
109,192,214875,128,0,214963:0:0:0:75:hihat.wav
36,192,214875,1,0,0:0:0:0:
256,192,214963,128,0,215052:0:0:0:75:hihat.wav
329,192,214963,1,0,0:0:0:0:
402,192,215052,128,0,215140:0:0:0:75:jingle.wav
36,192,215052,128,0,215140:0:0:0:60:kick.wav
475,192,215052,1,0,0:0:0:75:hihat.wav
182,192,215140,1,0,0:0:0:75:hihat.wav
109,192,215228,128,0,215316:0:0:0:75:hihat.wav
329,192,215228,1,0,0:0:0:0:
256,192,215316,1,0,0:0:0:75:hihat.wav
182,192,215405,128,0,215493:0:0:0:60:kick.wav
402,192,215405,1,0,0:0:0:75:hihat.wav
329,192,215493,1,0,0:0:0:75:hihat.wav
256,192,215581,128,0,215669:0:0:0:75:hihat.wav
475,192,215581,1,0,0:0:0:0:
402,192,215669,1,0,0:0:0:75:hihat.wav
109,192,215758,128,0,215846:0:0:0:75:jingle.wav
475,192,215758,128,0,215846:0:0:0:75:hihat.wav
36,192,215758,1,0,0:0:0:60:kick.wav
329,192,215758,1,0,0:0:0:0:
256,192,215846,1,0,0:0:0:75:hihat.wav
182,192,215934,128,0,216022:0:0:0:75:hihat.wav
402,192,215934,1,0,0:0:0:0:
329,192,216022,1,0,0:0:0:75:hihat.wav
256,192,216110,128,0,216199:0:0:0:60:kick.wav
475,192,216110,1,0,0:0:0:75:hihat.wav
402,192,216199,1,0,0:0:0:75:hihat.wav
329,192,216287,128,0,216375:0:0:0:75:hihat.wav
475,192,216375,1,0,0:0:0:75:hihat.wav
256,192,216375,1,0,0:0:0:0:
36,192,216463,128,0,216552:0:0:0:75:jingle.wav
182,192,216463,128,0,216552:0:0:0:60:kick.wav
109,192,216463,1,0,0:0:0:75:hihat.wav
402,192,216552,1,0,0:0:0:75:hihat.wav
256,192,216640,128,0,216728:0:0:0:75:hihat.wav
109,192,216640,1,0,0:0:0:0:
475,192,216728,1,0,0:0:0:75:hihat.wav
329,192,216816,128,0,216905:0:0:0:75:hihat.wav
182,192,216816,1,0,0:0:0:60:kick.wav
36,192,216905,1,0,0:0:0:75:hihat.wav
402,192,216993,128,0,217081:0:0:0:75:hihat.wav
256,192,216993,1,0,0:0:0:0:
109,192,217081,1,0,0:0:0:75:hihat.wav
256,192,217169,128,0,217258:0:0:0:60:kick.wav
475,192,217169,128,0,217258:0:0:0:75:jingle.wav
329,192,217169,1,0,0:0:0:75:hihat.wav
36,192,217258,128,0,217346:0:0:0:75:jingle.wav
109,192,217258,1,0,0:0:0:75:hihat.wav
256,192,217346,128,0,217434:0:0:0:75:jingle.wav
329,192,217346,1,0,0:0:0:75:hihat.wav
36,192,217434,128,0,217522:0:0:0:75:jingle.wav
109,192,217434,1,0,0:0:0:75:hihat.wav
329,192,217522,128,0,217610:0:0:0:60:kick.wav
402,192,217522,1,0,0:0:0:75:hihat.wav
256,192,217522,1,0,0:0:0:0:
182,192,217610,128,0,217699:0:0:0:75:hihat.wav
109,192,217610,1,0,0:0:0:0:
402,192,217699,128,0,217787:0:0:0:75:hihat.wav
475,192,217699,1,0,0:0:0:0:
256,192,217787,128,0,217875:0:0:0:75:hihat.wav
182,192,217787,1,0,0:0:0:0:
109,192,217875,128,0,217963:0:0:0:75:jingle.wav
475,192,217875,128,0,217963:0:0:0:60:kick.wav
36,192,217875,1,0,0:0:0:75:hihat.wav
329,192,217963,1,0,0:0:0:75:hihat.wav
402,192,218052,128,0,218140:0:0:0:75:hihat.wav
182,192,218052,1,0,0:0:0:0:
256,192,218140,1,0,0:0:0:75:hihat.wav
329,192,218228,128,0,218316:0:0:0:60:kick.wav
109,192,218228,1,0,0:0:0:75:hihat.wav
182,192,218316,1,0,0:0:0:75:hihat.wav
256,192,218405,128,0,218493:0:0:0:75:hihat.wav
36,192,218405,1,0,0:0:0:0:
109,192,218493,1,0,0:0:0:75:hihat.wav
402,192,218581,128,0,218669:0:0:0:60:kick.wav
36,192,218581,128,0,218669:0:0:0:75:jingle.wav
475,192,218581,1,0,0:0:0:75:hihat.wav
182,192,218581,1,0,0:0:0:0:
256,192,218669,1,0,0:0:0:75:hihat.wav
329,192,218758,128,0,218846:0:0:0:75:hihat.wav
109,192,218758,1,0,0:0:0:0:
182,192,218846,1,0,0:0:0:75:hihat.wav
256,192,218934,128,0,219022:0:0:0:60:kick.wav
36,192,218934,1,0,0:0:0:75:hihat.wav
109,192,219022,1,0,0:0:0:75:hihat.wav
182,192,219110,128,0,219199:0:0:0:75:hihat.wav
36,192,219199,1,0,0:0:0:75:hihat.wav
256,192,219199,1,0,0:0:0:0:
475,192,219287,128,0,219375:0:0:0:75:jingle.wav
329,192,219287,128,0,219375:0:0:0:60:kick.wav
402,192,219287,1,0,0:0:0:75:hihat.wav
109,192,219375,1,0,0:0:0:75:hihat.wav
256,192,219463,128,0,219552:0:0:0:75:hihat.wav
402,192,219463,1,0,0:0:0:0:
36,192,219552,1,0,0:0:0:75:hihat.wav
182,192,219640,128,0,219728:0:0:0:60:kick.wav
329,192,219640,1,0,0:0:0:75:hihat.wav
402,192,219728,1,0,0:0:0:75:hihat.wav
109,192,219816,128,0,219905:0:0:0:75:hihat.wav
256,192,219816,1,0,0:0:0:0:
329,192,219905,1,0,0:0:0:75:hihat.wav
256,192,219993,128,0,220081:0:0:0:75:jingle.wav
36,192,219993,128,0,220081:0:0:0:60:kick.wav
182,192,219993,1,0,0:0:0:75:hihat.wav
475,192,220081,128,0,220169:0:0:0:75:jingle.wav
402,192,220081,1,0,0:0:0:75:hihat.wav
256,192,220169,128,0,220258:0:0:0:75:hihat.wav
182,192,220169,1,0,0:0:0:75:jingle.wav
475,192,220258,128,0,220346:0:0:0:75:hihat.wav
402,192,220258,1,0,0:0:0:75:jingle.wav
182,192,220346,128,0,220434:0:0:0:60:kick.wav
109,192,220346,1,0,0:0:0:75:hihat.wav
256,192,220346,1,0,0:0:0:0:
329,192,220434,128,0,220522:0:0:0:75:hihat.wav
475,192,220434,1,0,0:0:0:0:
109,192,220522,128,0,220610:0:0:0:75:hihat.wav
36,192,220522,1,0,0:0:0:0:
256,192,220610,128,0,220699:0:0:0:75:hihat.wav
402,192,220610,1,0,0:0:0:0:
36,192,220699,128,0,220787:0:0:0:75:jingle.wav
475,192,220699,128,0,220787:0:0:0:75:hihat.wav
329,192,220699,1,0,0:0:0:60:kick.wav
182,192,220787,1,0,0:0:0:75:hihat.wav
256,192,220875,128,0,220963:0:0:0:75:hihat.wav
109,192,220875,1,0,0:0:0:0:
402,192,220963,1,0,0:0:0:75:hihat.wav
182,192,221052,128,0,221140:0:0:0:60:kick.wav
329,192,221052,1,0,0:0:0:75:hihat.wav
36,192,221140,1,0,0:0:0:75:hihat.wav
256,192,221228,128,0,221316:0:0:0:75:hihat.wav
402,192,221228,1,0,0:0:0:0:
109,192,221316,1,0,0:0:0:75:hihat.wav
329,192,221405,128,0,221493:0:0:0:60:kick.wav
475,192,221405,128,0,221493:0:0:0:75:hihat.wav
36,192,221405,1,0,0:0:0:75:jingle.wav
182,192,221493,1,0,0:0:0:75:hihat.wav
109,192,221581,128,0,221669:0:0:0:75:hihat.wav
256,192,221581,1,0,0:0:0:0:
402,192,221669,1,0,0:0:0:75:hihat.wav
182,192,221758,128,0,221846:0:0:0:60:kick.wav
36,192,221758,1,0,0:0:0:75:hihat.wav
329,192,221846,1,0,0:0:0:75:hihat.wav
256,192,221934,128,0,222022:0:0:0:75:hihat.wav
109,192,221934,1,0,0:0:0:0:
402,192,222022,1,0,0:0:0:75:hihat.wav
329,192,222110,128,0,222199:0:0:0:75:hihat.wav
475,192,222110,128,0,222199:0:0:0:75:jingle.wav
182,192,222110,1,0,0:0:0:60:kick.wav
36,192,222199,1,0,0:0:0:75:hihat.wav
182,192,222287,128,0,222375:0:0:0:75:hihat.wav
329,192,222287,1,0,0:0:0:0:
36,192,222375,1,0,0:0:0:75:hihat.wav
256,192,222463,128,0,222552:0:0:0:75:hihat.wav
402,192,222463,1,0,0:0:0:60:kick.wav
109,192,222552,1,0,0:0:0:75:hihat.wav
329,192,222640,128,0,222728:0:0:0:75:hihat.wav
475,192,222640,1,0,0:0:0:0:
182,192,222728,1,0,0:0:0:75:hihat.wav
329,192,222816,128,0,222905:0:0:0:75:jingle.wav
475,192,222816,128,0,222905:0:0:0:60:kick.wav
36,192,222816,1,0,0:0:0:75:hihat.wav
256,192,222905,128,0,222993:0:0:0:75:jingle.wav
109,192,222905,1,0,0:0:0:75:hihat.wav
182,192,222993,128,0,223081:0:0:0:75:jingle.wav
402,192,222993,1,0,0:0:0:75:hihat.wav
109,192,223081,128,0,223169:0:0:0:75:jingle.wav
475,192,223081,1,0,0:0:0:75:hihat.wav
329,192,223169,128,0,223258:0:0:0:75:hihat.wav
256,192,223169,1,0,0:0:0:60:kick.wav
402,192,223169,1,0,0:0:0:0:
36,192,223258,1,0,0:0:0:75:hihat.wav
182,192,223258,128,0,223346:0:0:0:0:
402,192,223346,128,0,223434:0:0:0:75:hihat.wav
475,192,223346,1,0,0:0:0:0:
256,192,223434,128,0,223522:0:0:0:75:hihat.wav
109,192,223434,1,0,0:0:0:0:
475,192,223522,128,0,223610:0:0:0:75:hihat.wav
36,192,223522,128,0,223610:0:0:0:75:jingle.wav
182,192,223522,1,0,0:0:0:60:kick.wav
329,192,223610,1,0,0:0:0:75:hihat.wav
256,192,223699,128,0,223787:0:0:0:75:hihat.wav
402,192,223699,1,0,0:0:0:0:
109,192,223787,1,0,0:0:0:75:hihat.wav
329,192,223875,128,0,223963:0:0:0:60:kick.wav
182,192,223875,1,0,0:0:0:75:hihat.wav
475,192,223963,1,0,0:0:0:75:hihat.wav
256,192,224052,128,0,224140:0:0:0:75:hihat.wav
109,192,224052,1,0,0:0:0:0:
402,192,224140,1,0,0:0:0:75:hihat.wav
182,192,224228,128,0,224316:0:0:0:75:jingle.wav
36,192,224228,128,0,224316:0:0:0:75:hihat.wav
475,192,224228,1,0,0:0:0:60:kick.wav
329,192,224316,1,0,0:0:0:75:hihat.wav
402,192,224405,128,0,224493:0:0:0:75:hihat.wav
256,192,224405,1,0,0:0:0:0:
109,192,224493,1,0,0:0:0:75:hihat.wav
329,192,224581,128,0,224669:0:0:0:75:hihat.wav
475,192,224581,1,0,0:0:0:60:kick.wav
182,192,224669,1,0,0:0:0:75:hihat.wav
256,192,224758,128,0,224846:0:0:0:75:hihat.wav
402,192,224758,1,0,0:0:0:0:
109,192,224846,1,0,0:0:0:75:hihat.wav
182,192,224934,128,0,225022:0:0:0:75:hihat.wav
36,192,224934,128,0,225022:0:0:0:75:jingle.wav
329,192,224934,1,0,0:0:0:60:kick.wav
475,192,225022,1,0,0:0:0:75:hihat.wav
329,192,225110,128,0,225199:0:0:0:75:hihat.wav
182,192,225110,1,0,0:0:0:0:
475,192,225199,1,0,0:0:0:75:hihat.wav
256,192,225287,128,0,225375:0:0:0:60:kick.wav
109,192,225287,1,0,0:0:0:75:hihat.wav
402,192,225375,1,0,0:0:0:75:hihat.wav
182,192,225463,128,0,225552:0:0:0:75:hihat.wav
36,192,225463,1,0,0:0:0:0:
329,192,225552,1,0,0:0:0:75:hihat.wav
182,192,225640,128,0,225728:0:0:0:75:hihat.wav
36,192,225640,128,0,225728:0:0:0:60:kick.wav
402,192,225640,1,0,0:0:0:75:jingle.wav
256,192,225728,128,0,225816:0:0:0:75:jingle.wav
475,192,225728,1,0,0:0:0:75:hihat.wav
329,192,225816,128,0,225905:0:0:0:75:jingle.wav
109,192,225816,1,0,0:0:0:75:hihat.wav
402,192,225905,128,0,225993:0:0:0:75:jingle.wav
182,192,225905,1,0,0:0:0:75:hihat.wav
36,192,225993,128,0,226081:0:0:0:75:hihat.wav
109,192,225993,1,0,0:0:0:60:kick.wav
182,192,226081,128,0,226169:0:0:0:75:hihat.wav
475,192,226169,128,0,226258:0:0:0:75:hihat.wav
402,192,226169,1,0,0:0:0:0:
329,192,226258,128,0,226346:0:0:0:75:hihat.wav
182,192,226346,128,0,226434:0:0:0:75:hihat.wav
36,192,226346,128,0,226434:0:0:0:75:jingle.wav
109,192,226346,1,0,0:0:0:60:kick.wav
329,192,226434,128,0,226522:0:0:0:75:hihat.wav
475,192,226522,128,0,226610:0:0:0:75:hihat.wav
402,192,226522,1,0,0:0:0:0:
182,192,226610,128,0,226699:0:0:0:75:hihat.wav
36,192,226699,128,0,226787:0:0:0:75:hihat.wav
109,192,226699,1,0,0:0:0:60:kick.wav
182,192,226787,128,0,226875:0:0:0:75:hihat.wav
329,192,226875,128,0,226963:0:0:0:75:hihat.wav
402,192,226875,1,0,0:0:0:0:
475,192,226963,128,0,227052:0:0:0:75:hihat.wav
109,192,227052,128,0,227140:0:0:0:75:hihat.wav
256,192,227052,128,0,227140:0:0:0:75:jingle.wav
36,192,227052,1,0,0:0:0:60:kick.wav
402,192,227140,128,0,227228:0:0:0:75:hihat.wav
182,192,227228,128,0,227316:0:0:0:75:hihat.wav
329,192,227228,1,0,0:0:0:0:
36,192,227316,128,0,227405:0:0:0:75:hihat.wav
329,192,227405,128,0,227493:0:0:0:75:hihat.wav
402,192,227405,1,0,0:0:0:60:kick.wav
109,192,227493,128,0,227581:0:0:0:75:hihat.wav
402,192,227581,128,0,227669:0:0:0:75:hihat.wav
256,192,227581,1,0,0:0:0:0:
36,192,227669,128,0,227758:0:0:0:75:hihat.wav
329,192,227758,128,0,227846:0:0:0:60:kick.wav
182,192,227758,128,0,227846:0:0:0:75:jingle.wav
109,192,227758,1,0,0:0:0:75:hihat.wav
475,192,227846,128,0,227934:0:0:0:75:hihat.wav
256,192,227934,128,0,228022:0:0:0:75:hihat.wav
36,192,227934,1,0,0:0:0:0:
402,192,228022,128,0,228110:0:0:0:75:hihat.wav
182,192,228110,128,0,228199:0:0:0:75:hihat.wav
329,192,228110,1,0,0:0:0:60:kick.wav
475,192,228199,128,0,228287:0:0:0:75:hihat.wav
256,192,228287,128,0,228375:0:0:0:75:hihat.wav
36,192,228287,1,0,0:0:0:0:
402,192,228375,128,0,228463:0:0:0:75:hihat.wav
475,192,228463,128,0,228552:0:0:0:60:kick.wav
256,192,228463,128,0,228552:0:0:0:75:hihat.wav
329,192,228463,1,0,0:0:0:75:jingle.wav
402,192,228552,128,0,228640:0:0:0:75:hihat.wav
182,192,228552,128,0,228640:0:0:0:75:jingle.wav
329,192,228640,128,0,228728:0:0:0:75:jingle.wav
109,192,228640,128,0,228728:0:0:0:75:hihat.wav
256,192,228728,128,0,228816:0:0:0:75:jingle.wav
36,192,228728,128,0,228816:0:0:0:75:hihat.wav
475,192,228816,128,0,228905:0:0:0:75:hihat.wav
402,192,228816,1,0,0:0:0:60:kick.wav
329,192,228905,128,0,228993:0:0:0:75:hihat.wav
36,192,228993,128,0,229081:0:0:0:75:hihat.wav
109,192,228993,1,0,0:0:0:0:
182,192,229081,128,0,229169:0:0:0:75:hihat.wav
329,192,229169,128,0,229258:0:0:0:60:kick.wav
475,192,229169,128,0,229258:0:0:0:75:jingle.wav
402,192,229169,1,0,0:0:0:75:hihat.wav
182,192,229258,128,0,229346:0:0:0:75:hihat.wav
36,192,229346,128,0,229434:0:0:0:75:hihat.wav
109,192,229346,1,0,0:0:0:0:
329,192,229434,128,0,229522:0:0:0:75:hihat.wav
475,192,229522,128,0,229610:0:0:0:60:kick.wav
402,192,229522,1,0,0:0:0:75:hihat.wav
329,192,229610,128,0,229699:0:0:0:75:hihat.wav
182,192,229699,128,0,229787:0:0:0:75:hihat.wav
109,192,229699,1,0,0:0:0:0:
36,192,229787,128,0,229875:0:0:0:75:hihat.wav
402,192,229875,128,0,229963:0:0:0:75:jingle.wav
256,192,229875,128,0,229963:0:0:0:60:kick.wav
475,192,229875,1,0,0:0:0:75:hihat.wav
109,192,229963,128,0,230052:0:0:0:75:hihat.wav
329,192,230052,128,0,230140:0:0:0:75:hihat.wav
182,192,230052,1,0,0:0:0:0:
475,192,230140,128,0,230228:0:0:0:75:hihat.wav
182,192,230228,128,0,230316:0:0:0:75:hihat.wav
109,192,230228,1,0,0:0:0:60:kick.wav
402,192,230316,128,0,230405:0:0:0:75:hihat.wav
109,192,230405,128,0,230493:0:0:0:75:hihat.wav
256,192,230405,1,0,0:0:0:0:
475,192,230493,128,0,230581:0:0:0:75:hihat.wav
182,192,230581,128,0,230669:0:0:0:75:jingle.wav
329,192,230581,128,0,230669:0:0:0:75:hihat.wav
402,192,230581,1,0,0:0:0:60:kick.wav
36,192,230669,128,0,230758:0:0:0:75:hihat.wav
256,192,230758,128,0,230846:0:0:0:75:hihat.wav
475,192,230758,1,0,0:0:0:0:
182,192,230846,128,0,230934:0:0:0:75:hihat.wav
329,192,230934,128,0,231022:0:0:0:75:hihat.wav
109,192,230934,1,0,0:0:0:60:kick.wav
36,192,231022,128,0,231110:0:0:0:75:hihat.wav
182,192,231110,128,0,231199:0:0:0:75:hihat.wav
402,192,231110,1,0,0:0:0:0:
109,192,231199,128,0,231287:0:0:0:75:hihat.wav
36,192,231287,128,0,231375:0:0:0:75:hihat.wav
256,192,231287,128,0,231375:0:0:0:75:jingle.wav
475,192,231287,1,0,0:0:0:60:kick.wav
109,192,231375,128,0,231463:0:0:0:75:hihat.wav
329,192,231375,128,0,231463:0:0:0:75:jingle.wav
182,192,231463,128,0,231552:0:0:0:75:jingle.wav
402,192,231463,128,0,231552:0:0:0:75:hihat.wav
256,192,231552,128,0,231640:0:0:0:75:jingle.wav
475,192,231552,128,0,231640:0:0:0:75:hihat.wav
109,192,231640,128,0,231728:0:0:0:75:hihat.wav
36,192,231640,1,0,0:0:0:60:kick.wav
329,192,231728,128,0,231816:0:0:0:75:hihat.wav
402,192,231816,1,0,0:0:0:60:kick.wav
475,192,231816,128,0,231905:0:0:0:75:hihat.wav
182,192,231905,128,0,231993:0:0:0:75:hihat.wav
402,192,231993,128,0,232081:0:0:0:60:kick.wav
109,192,231993,1,0,0:0:0:75:hihat.wav
36,192,231993,128,0,232081:0:0:0:75:jingle.wav
256,192,232081,128,0,232169:0:0:0:75:hihat.wav
475,192,232169,128,0,232258:0:0:0:75:hihat.wav
182,192,232169,1,0,0:0:0:60:kick.wav
329,192,232258,128,0,232346:0:0:0:75:hihat.wav
402,192,232346,128,0,232434:0:0:0:75:hihat.wav
256,192,232346,1,0,0:0:0:60:kick.wav
182,192,232434,128,0,232522:0:0:0:75:hihat.wav
36,192,232522,128,0,232610:0:0:0:75:hihat.wav
109,192,232522,1,0,0:0:0:60:kick.wav
329,192,232610,128,0,232699:0:0:0:75:hihat.wav
109,192,232699,128,0,232787:0:0:0:75:hihat.wav
402,192,232699,1,0,0:0:0:75:jingle.wav
475,192,232699,128,0,232787:0:0:0:60:kick.wav
256,192,232787,128,0,232875:0:0:0:75:hihat.wav
36,192,232875,128,0,232963:0:0:0:60:kick.wav
329,192,232875,1,0,0:0:0:75:hihat.wav
182,192,232963,128,0,233052:0:0:0:75:hihat.wav
109,192,233052,128,0,233140:0:0:0:60:kick.wav
256,192,233052,1,0,0:0:0:75:hihat.wav
402,192,233140,128,0,233228:0:0:0:75:hihat.wav
329,192,233228,128,0,233316:0:0:0:75:hihat.wav
36,192,233228,1,0,0:0:0:60:kick.wav
109,192,233316,128,0,233405:0:0:0:75:hihat.wav
36,192,233405,128,0,233493:0:0:0:60:kick.wav
182,192,233405,128,0,233493:0:0:0:75:jingle.wav
475,192,233405,1,0,0:0:0:75:hihat.wav
329,192,233493,128,0,233581:0:0:0:75:hihat.wav
402,192,233581,128,0,233669:0:0:0:60:kick.wav
256,192,233581,1,0,0:0:0:75:hihat.wav
182,192,233669,128,0,233758:0:0:0:75:hihat.wav
256,192,233758,128,0,233846:0:0:0:60:kick.wav
36,192,233758,1,0,0:0:0:75:hihat.wav
475,192,233846,128,0,233934:0:0:0:75:hihat.wav
402,192,233934,128,0,234022:0:0:0:60:kick.wav
182,192,233934,1,0,0:0:0:75:hihat.wav
109,192,234022,128,0,234110:0:0:0:75:hihat.wav
256,192,234110,128,0,234199:0:0:0:60:kick.wav
475,192,234110,128,0,234199:0:0:0:75:jingle.wav
36,192,234110,128,0,234199:0:0:0:75:hihat.wav
329,192,234110,1,0,0:0:0:0:
182,192,234199,128,0,234287:0:0:0:75:hihat.wav
402,192,234199,128,0,234287:0:0:0:75:jingle.wav
329,192,234287,128,0,234375:0:0:0:75:jingle.wav
109,192,234287,128,0,234375:0:0:0:75:hihat.wav
256,192,234375,128,0,234463:0:0:0:75:jingle.wav
36,192,234375,128,0,234463:0:0:0:75:hihat.wav
329,192,234463,1,0,0:0:0:75:hihat.wav
402,192,234463,1,0,0:0:0:45:kick.wav
182,192,234552,1,0,0:0:0:75:hihat.wav
36,192,234552,1,0,0:0:0:50:kick.wav
402,192,234640,1,0,0:0:0:75:hihat.wav
475,192,234640,1,0,0:0:0:50:kick.wav
109,192,234728,1,0,0:0:0:75:hihat.wav
36,192,234728,1,0,0:0:0:50:kick.wav
256,192,234816,128,0,234905:0:0:0:75:hihat.wav
329,192,234816,128,0,234905:0:0:0:75:jingle.wav
475,192,234816,1,0,0:0:0:50:kick.wav
402,192,234816,1,0,0:0:0:0:
36,192,234905,1,0,0:0:0:75:hihat.wav
109,192,234905,1,0,0:0:0:50:kick.wav
182,192,234993,1,0,0:0:0:75:hihat.wav
329,192,234993,1,0,0:0:0:50:kick.wav
402,192,235081,1,0,0:0:0:75:hihat.wav
475,192,235081,1,0,0:0:0:50:kick.wav
109,192,235169,1,0,0:0:0:75:hihat.wav
256,192,235169,1,0,0:0:0:50:kick.wav
329,192,235258,1,0,0:0:0:50:kick.wav
402,192,235258,1,0,0:0:0:75:hihat.wav
36,192,235346,1,0,0:0:0:75:hihat.wav
182,192,235346,1,0,0:0:0:50:kick.wav
256,192,235434,1,0,0:0:0:75:hihat.wav
329,192,235434,1,0,0:0:0:50:kick.wav
109,192,235522,128,0,235610:0:0:0:75:hihat.wav
36,192,235522,128,0,235610:0:0:0:75:jingle.wav
475,192,235522,1,0,0:0:0:50:kick.wav
402,192,235522,1,0,0:0:0:0:
256,192,235610,1,0,0:0:0:75:hihat.wav
182,192,235610,1,0,0:0:0:50:kick.wav
475,192,235699,1,0,0:0:0:75:hihat.wav
402,192,235699,1,0,0:0:0:50:kick.wav
256,192,235787,1,0,0:0:0:75:hihat.wav
182,192,235787,1,0,0:0:0:50:kick.wav
475,192,235875,1,0,0:0:0:40:kick.wav
329,192,235934,1,0,0:0:0:40:kick.wav
182,192,235993,1,0,0:0:0:40:kick.wav
475,192,236052,1,0,0:0:0:40:kick.wav
36,192,236052,1,0,0:0:0:0:
329,192,236110,1,0,0:0:0:40:kick.wav
182,192,236169,1,0,0:0:0:40:kick.wav
475,192,236228,128,0,236316:0:0:0:75:jingle.wav
36,192,236228,1,0,0:0:0:40:kick.wav
329,192,236228,128,0,236316:0:0:0:0:
109,192,236287,1,0,0:0:0:40:kick.wav
182,192,236346,1,0,0:0:0:40:kick.wav
475,192,236405,1,0,0:0:0:40:kick.wav
402,192,236463,1,0,0:0:0:40:kick.wav
329,192,236522,1,0,0:0:0:40:kick.wav
402,192,236581,128,0,236669:0:0:0:75:jingle.wav
182,192,236581,1,0,0:0:0:40:kick.wav
109,192,236640,1,0,0:0:0:40:kick.wav
256,192,236669,128,0,236758:0:0:0:75:jingle.wav
36,192,236699,1,0,0:0:0:40:kick.wav
182,192,236758,128,0,236846:0:0:0:75:jingle.wav
329,192,236758,1,0,0:0:0:40:kick.wav
402,192,236816,1,0,0:0:0:40:kick.wav
109,192,236846,128,0,236934:0:0:0:75:jingle.wav
475,192,236875,1,0,0:0:0:40:kick.wav
402,192,236934,128,0,237022:0:0:0:75:jingle.wav
256,192,236934,1,0,0:0:0:40:kick.wav
36,192,236993,1,0,0:0:0:40:kick.wav
329,192,237022,128,0,237110:0:0:0:75:jingle.wav
109,192,237052,1,0,0:0:0:40:kick.wav
256,192,237110,128,0,237199:0:0:0:75:jingle.wav
182,192,237110,1,0,0:0:0:40:kick.wav
475,192,237169,1,0,0:0:0:40:kick.wav
109,192,237199,128,0,237287:0:0:0:75:jingle.wav
402,192,237228,1,0,0:0:0:40:kick.wav
329,192,237287,1,4,1:0:0:90:
182,192,237287,1,0,0:0:0:75:finish2.wav
36,192,237287,128,0,239405:0:0:0:75:jingle.wav
256,192,237463,1,0,0:0:0:75:hihat.wav
182,192,237640,1,0,0:0:0:74:hihat.wav
402,192,237728,128,0,237905:0:0:0:74:hihat.wav
109,192,237905,1,0,0:0:0:74:hihat.wav
329,192,237993,128,0,238169:0:0:0:73:hihat.wav
182,192,238169,1,0,0:0:0:73:hihat.wav
329,192,238258,1,0,0:0:0:73:hihat.wav
475,192,238346,1,0,0:0:0:72:hihat.wav
256,192,238434,1,0,0:0:0:72:hihat.wav
402,192,238522,1,0,0:0:0:72:hihat.wav
256,192,238610,1,0,0:0:0:72:hihat.wav
109,192,238699,128,0,238875:0:0:0:71:hihat.wav
256,192,238875,128,0,239052:0:0:0:71:hihat.wav
475,192,239052,1,0,0:0:0:70:hihat.wav
182,192,239140,128,0,239316:0:0:0:70:hihat.wav
402,192,239316,1,0,0:0:0:70:hihat.wav
475,192,239405,128,0,240110:0:0:0:67:jingle.wav
109,192,239405,128,0,239581:0:0:0:69:hihat.wav
329,192,239581,1,0,0:0:0:69:hihat.wav
182,192,239669,1,0,0:0:0:69:hihat.wav
36,192,239758,128,0,239934:0:0:0:68:hihat.wav
182,192,239934,128,0,240110:0:0:0:68:hihat.wav
329,192,240110,128,0,242934:0:0:0:64:jingle.wav
109,192,240110,128,0,240287:0:0:0:67:hihat.wav
256,192,240287,128,0,240463:0:0:0:66:hihat.wav
182,192,240463,1,0,0:0:0:65:hihat.wav
475,192,240552,128,0,240728:0:0:0:64:hihat.wav
109,192,240728,1,0,0:0:0:63:hihat.wav
402,192,240816,128,0,240993:0:0:0:62:hihat.wav
36,192,240993,1,0,0:0:0:61:hihat.wav
256,192,241081,1,0,0:0:0:60:hihat.wav
109,192,241169,1,0,0:0:0:59:hihat.wav
256,192,241258,1,0,0:0:0:58:hihat.wav
36,192,241346,1,0,0:0:0:57:hihat.wav
182,192,241434,1,0,0:0:0:56:hihat.wav
36,192,241522,1,0,0:0:0:55:hihat.wav
475,192,241522,128,0,241699:0:0:0:0:
182,192,241699,128,0,241875:0:0:0:54:hihat.wav
109,192,241875,1,0,0:0:0:53:hihat.wav
402,192,241963,128,0,242140:0:0:0:52:hihat.wav
182,192,242140,1,0,0:0:0:51:hihat.wav
475,192,242228,128,0,242405:0:0:0:50:hihat.wav
109,192,242405,1,0,0:0:0:49:hihat.wav
256,192,242493,1,0,0:0:0:48:hihat.wav
182,192,242581,128,0,242758:0:0:0:47:hihat.wav
36,192,242758,128,0,242934:0:0:0:46:hihat.wav
256,192,242934,128,0,244346:0:0:0:55:jingle.wav
402,192,243640,128,0,244346:0:0:0:52:jingle.wav
36,192,244346,128,0,245758:0:0:0:49:jingle.wav
182,192,245052,128,0,245758:0:0:0:46:jingle.wav
329,192,245758,128,0,247169:0:0:0:43:jingle.wav
475,192,246463,128,0,247169:0:0:0:40:jingle.wav
109,192,247169,128,0,248581:0:0:0:37:jingle.wav
402,192,247875,128,0,248581:0:0:0:34:jingle.wav
256,192,248581,128,0,249640:0:0:0:30:jingle.wav
109,192,249640,1,0,0:0:0:30:jingle.wav
256,192,249816,128,0,250699:0:0:0:30:jingle.wav
475,192,250699,128,0,251405:0:0:0:30:jingle.wav
182,192,251405,128,0,252463:0:0:0:30:jingle.wav
36,192,252463,1,0,0:0:0:30:jingle.wav
182,192,252640,128,0,254228:0:0:0:30:jingle.wav
36,192,254228,128,0,255640:0:0:0:30:jingle.wav
182,192,254934,128,0,255640:0:0:0:30:jingle.wav
475,192,255640,128,0,257052:0:0:0:30:jingle.wav
329,192,256346,128,0,257052:0:0:0:30:jingle.wav
182,192,257052,128,0,258463:0:0:0:30:jingle.wav
402,192,257758,128,0,258463:0:0:0:30:jingle.wav
36,192,258110,128,0,258463:0:0:0:30:jingle.wav
329,192,258463,128,0,259875:0:0:0:30:jingle.wav
109,192,259169,128,0,259875:0:0:0:30:jingle.wav
36,192,259875,1,4,1:0:0:50:finish1.wav
256,192,259875,128,4,265522:1:0:0:90:
475,192,259875,1,0,0:0:0:75:finish2.wav
