osu file format v14

[General]
AudioFilename: Just Hold on (To All Fighters) void.mp3
AudioLeadIn: 0
PreviewTime: 145522
Countdown: 0
SampleSet: Soft
StackLeniency: 0.7
Mode: 3
LetterboxInBreaks: 0
SpecialStyle: 0
WidescreenStoryboard: 0

[Editor]
DistanceSpacing: 1
BeatDivisor: 4
GridSize: 4
TimelineZoom: 2.099999

[Metadata]
Title:Just Hold on (To All Fighters)
TitleUnicode:Just Hold on (To All Fighters)
Artist:void
ArtistUnicode:void
Creator:Blocko
Version:Hard
Source:
Tags:the diverse system pump it up prime 2015 hard trance expew soul evans collab collaboration
BeatmapID:888794
BeatmapSetID:409440

[Difficulty]
HPDrainRate:7.5
CircleSize:7
OverallDifficulty:7.5
ApproachRate:8
SliderMultiplier:1.4
SliderTickRate:1

[Events]
//Background and Video events
0,0,"justholdon_bg.jpg",0,0
//Break Periods
//Storyboard Layer 0 (Background)
//Storyboard Layer 1 (Fail)
//Storyboard Layer 2 (Pass)
//Storyboard Layer 3 (Foreground)
//Storyboard Sound Samples

[TimingPoints]
111,352.941176470588,4,2,0,15,1,0
5758,-100,4,2,0,17,0,0
8581,-100,4,2,0,19,0,0
11405,-100,4,2,0,21,0,0
14228,-100,4,2,0,23,0,0
17052,-100,4,2,0,24,0,0
19875,-100,4,2,0,25,0,0
22699,-100,4,2,0,20,0,0
79169,-100,4,2,0,25,0,0
79522,-100,4,2,0,21,0,0
79699,-100,4,2,0,18,0,0
80052,-100,4,2,0,15,0,0
90463,-100,4,2,0,18,0,0
93287,-100,4,2,0,21,0,0
96110,-100,4,2,0,23,0,0
98934,-100,4,2,0,25,0,0
146934,-100,4,2,0,25,0,1
168110,-100,4,2,0,25,0,0
169522,-100,4,2,0,25,0,1
180816,-100,4,2,0,25,0,0
192110,-100,4,2,0,25,0,1
192199,-100,4,2,0,25,0,0
214699,-100,4,2,0,25,0,1
237199,-100,4,2,0,25,0,0
237287,-100,4,2,0,20,0,1
237375,-100,4,2,0,20,0,0

[HitObjects]
36,192,111,1,0,0:0:0:0:
182,192,463,1,0,0:0:0:0:
329,192,640,1,0,0:0:0:0:
475,192,993,128,0,1522:0:0:0:0:
109,192,1522,1,0,0:0:0:0:
182,192,1875,1,0,0:0:0:0:
329,192,2052,1,0,0:0:0:0:
402,192,2405,128,0,2934:0:0:0:0:
109,192,2934,1,0,0:0:0:0:
256,192,3287,1,0,0:0:0:0:
329,192,3463,1,0,0:0:0:0:
475,192,3816,128,0,4346:0:0:0:0:
36,192,4346,1,0,0:0:0:0:
182,192,4699,1,0,0:0:0:0:
256,192,4875,1,0,0:0:0:0:
402,192,5228,128,0,5758:0:0:0:0:
329,192,5758,1,0,0:0:0:0:
109,192,6110,1,0,0:0:0:0:
256,192,6287,1,0,0:0:0:0:
36,192,6640,128,0,7169:0:0:0:0:
402,192,7169,1,0,0:0:0:0:
182,192,7522,1,0,0:0:0:0:
329,192,7699,1,0,0:0:0:0:
109,192,8052,128,0,8581:0:0:0:0:
475,192,8581,1,0,0:0:0:0:
256,192,8934,1,0,0:0:0:0:
402,192,9110,1,0,0:0:0:0:
182,192,9463,128,0,9993:0:0:0:0:
329,192,9993,1,0,0:0:0:0:
109,192,10346,1,0,0:0:0:0:
256,192,10522,1,0,0:0:0:0:
402,192,10875,128,0,11405:0:0:0:0:
36,192,11405,1,0,0:0:0:0:
182,192,11758,128,0,12110:0:0:0:60:jingle.wav
109,192,11758,1,0,0:0:0:0:
329,192,12110,128,0,12463:0:0:0:60:jingle.wav
402,192,12110,1,0,0:0:0:0:
256,192,12463,128,0,14228:0:0:0:60:jingle.wav
182,192,12463,1,0,0:0:0:0:
36,192,12816,1,0,0:0:0:0:
109,192,13169,1,0,0:0:0:0:
402,192,13346,1,0,0:0:0:0:
475,192,13699,1,0,0:0:0:0:
182,192,14228,1,0,0:0:0:0:
36,192,14581,1,0,0:0:0:0:
329,192,14758,1,0,0:0:0:0:
475,192,15110,128,0,15640:0:0:0:0:
182,192,15640,1,0,0:0:0:0:
109,192,15993,1,0,0:0:0:0:
329,192,16169,1,0,0:0:0:0:
402,192,16522,128,0,17052:0:0:0:0:
36,192,17052,1,0,0:0:0:0:
109,192,17405,128,0,17758:0:0:0:60:jingle.wav
182,192,17405,1,0,0:0:0:0:
402,192,17758,128,0,18110:0:0:0:60:jingle.wav
329,192,17758,1,0,0:0:0:0:
256,192,18110,128,0,19875:0:0:0:60:jingle.wav
182,192,18110,1,0,0:0:0:0:
36,192,18463,1,0,0:0:0:0:
182,192,18816,1,0,0:0:0:0:
329,192,18993,1,0,0:0:0:0:
475,192,19346,1,0,0:0:0:0:
36,192,19875,1,0,0:0:0:28:snare.wav
182,192,20052,1,0,0:0:0:29:snare.wav
475,192,20228,1,0,0:0:0:30:snare.wav
329,192,20405,1,0,0:0:0:30:snare.wav
36,192,20581,1,0,0:0:0:31:snare.wav
182,192,20758,1,0,0:0:0:32:snare.wav
475,192,20758,128,0,21287:0:0:0:0:
329,192,20934,1,0,0:0:0:32:snare.wav
182,192,21110,1,0,0:0:0:33:snare.wav
329,192,21287,1,0,0:0:0:50:finish1.wav
36,192,21287,1,0,0:0:0:0:
256,192,21463,1,8,3:0:0:40:
182,192,21640,1,4,3:0:0:30:
256,192,21728,1,4,3:0:0:30:
329,192,21816,1,4,3:0:0:30:
109,192,21993,1,0,0:0:0:0:
402,192,21993,1,8,3:0:0:40:
109,192,22346,1,0,0:0:0:0:
402,192,22346,1,8,3:0:0:40:
36,192,22699,1,0,0:0:0:60:kick.wav
182,192,22699,1,0,0:0:0:0:
256,192,22699,1,0,0:0:0:0:
329,192,22875,1,0,0:0:0:0:
475,192,23052,1,0,0:0:0:60:kick.wav
182,192,23228,1,0,0:0:0:0:
36,192,23405,1,0,0:0:0:60:kick.wav
329,192,23581,1,0,0:0:0:0:
475,192,23758,1,0,0:0:0:60:kick.wav
182,192,23934,1,0,0:0:0:0:
36,192,24110,1,0,0:0:0:60:kick.wav
329,192,24287,1,0,0:0:0:0:
475,192,24463,1,0,0:0:0:60:kick.wav
182,192,24640,1,0,0:0:0:0:
36,192,24816,1,0,0:0:0:60:kick.wav
329,192,24993,1,0,0:0:0:0:
475,192,25169,1,0,0:0:0:60:kick.wav
182,192,25346,1,0,0:0:0:0:
329,192,25522,1,0,0:0:0:60:kick.wav
109,192,25699,1,0,0:0:0:0:
182,192,25875,1,0,0:0:0:60:kick.wav
402,192,26052,1,0,0:0:0:0:
329,192,26228,1,0,0:0:0:60:kick.wav
109,192,26405,1,0,0:0:0:0:
182,192,26581,1,0,0:0:0:60:kick.wav
402,192,26758,1,0,0:0:0:0:
329,192,26934,1,0,0:0:0:60:kick.wav
109,192,27110,1,0,0:0:0:0:
182,192,27287,1,0,0:0:0:60:kick.wav
402,192,27463,1,0,0:0:0:0:
329,192,27640,1,0,0:0:0:60:kick.wav
109,192,27816,1,0,0:0:0:0:
256,192,27993,1,0,0:0:0:60:kick.wav
402,192,28169,1,0,0:0:0:0:
109,192,28346,1,0,0:0:0:60:kick.wav
329,192,28522,1,0,0:0:0:0:
475,192,28699,1,0,0:0:0:60:kick.wav
256,192,28875,1,0,0:0:0:0:
109,192,29052,1,0,0:0:0:60:kick.wav
329,192,29228,1,0,0:0:0:0:
475,192,29405,1,0,0:0:0:60:kick.wav
256,192,29581,1,0,0:0:0:0:
109,192,29758,1,0,0:0:0:60:kick.wav
329,192,29934,1,0,0:0:0:0:
475,192,30110,1,0,0:0:0:60:kick.wav
256,192,30287,1,0,0:0:0:0:
109,192,30463,1,0,0:0:0:60:kick.wav
329,192,30640,1,0,0:0:0:0:
475,192,30816,1,0,0:0:0:60:kick.wav
256,192,30993,1,0,0:0:0:0:
36,192,31169,1,0,0:0:0:60:kick.wav
182,192,31346,1,0,0:0:0:0:
402,192,31522,1,0,0:0:0:60:kick.wav
256,192,31699,1,0,0:0:0:0:
36,192,31875,1,0,0:0:0:60:kick.wav
182,192,32052,1,0,0:0:0:0:
402,192,32228,1,0,0:0:0:60:kick.wav
256,192,32405,1,0,0:0:0:0:
182,192,32581,5,0,0:0:0:60:jingle.wav
36,192,32581,1,0,0:0:0:60:kick.wav
475,192,32758,5,0,0:0:0:60:jingle.wav
256,192,32934,5,0,0:0:0:60:jingle.wav
402,192,32934,5,0,0:0:0:60:kick.wav
109,192,33022,5,0,0:0:0:60:jingle.wav
182,192,33287,5,0,0:0:0:60:jingle.wav
36,192,33287,1,0,0:0:0:60:kick.wav
402,192,33552,5,0,0:0:0:60:jingle.wav
329,192,33816,1,0,0:0:0:60:jingle.wav
36,192,33993,1,0,0:0:0:60:kick.wav
256,192,33993,1,0,0:0:0:60:jingle.wav
475,192,34169,1,0,0:0:0:60:jingle.wav
109,192,34346,1,0,0:0:0:60:kick.wav
402,192,34346,1,0,0:0:0:60:jingle.wav
329,192,34434,1,0,0:0:0:60:jingle.wav
36,192,34699,1,0,0:0:0:60:jingle.wav
256,192,34699,1,0,0:0:0:60:kick.wav
402,192,34963,1,0,0:0:0:60:jingle.wav
182,192,35052,1,0,0:0:0:60:kick.wav
329,192,35228,1,0,0:0:0:60:jingle.wav
36,192,35405,1,0,0:0:0:60:jingle.wav
256,192,35405,1,0,0:0:0:60:kick.wav
475,192,35581,1,0,0:0:0:60:jingle.wav
109,192,35758,1,0,0:0:0:60:jingle.wav
402,192,35758,1,0,0:0:0:60:kick.wav
182,192,35846,1,0,0:0:0:60:jingle.wav
36,192,36110,1,0,0:0:0:60:jingle.wav
256,192,36110,1,0,0:0:0:60:kick.wav
402,192,36375,1,0,0:0:0:60:jingle.wav
182,192,36463,1,0,0:0:0:60:kick.wav
329,192,36640,1,0,0:0:0:60:jingle.wav
256,192,36816,1,0,0:0:0:60:jingle.wav
36,192,36816,1,0,0:0:0:60:kick.wav
475,192,36993,1,0,0:0:0:60:jingle.wav
182,192,37169,1,0,0:0:0:60:jingle.wav
402,192,37169,1,0,0:0:0:60:kick.wav
329,192,37258,1,0,0:0:0:60:jingle.wav
256,192,37522,1,0,0:0:0:60:jingle.wav
36,192,37522,1,0,0:0:0:60:kick.wav
475,192,37787,1,0,0:0:0:60:jingle.wav
109,192,37875,1,0,0:0:0:60:kick.wav
402,192,38052,1,0,0:0:0:60:jingle.wav
256,192,38228,1,0,0:0:0:60:jingle.wav
36,192,38228,1,0,0:0:0:60:kick.wav
475,192,38405,1,0,0:0:0:60:jingle.wav
182,192,38581,1,0,0:0:0:60:jingle.wav
402,192,38581,1,0,0:0:0:60:kick.wav
109,192,38669,1,0,0:0:0:60:jingle.wav
256,192,38934,1,0,0:0:0:60:jingle.wav
36,192,38934,1,0,0:0:0:60:kick.wav
475,192,39199,1,0,0:0:0:60:jingle.wav
109,192,39287,1,0,0:0:0:60:kick.wav
402,192,39463,1,0,0:0:0:60:jingle.wav
36,192,39640,1,0,0:0:0:60:jingle.wav
256,192,39640,1,0,0:0:0:60:kick.wav
475,192,39816,1,0,0:0:0:60:jingle.wav
402,192,39993,1,0,0:0:0:60:jingle.wav
109,192,39993,1,0,0:0:0:60:kick.wav
329,192,40081,1,0,0:0:0:60:jingle.wav
36,192,40346,1,0,0:0:0:60:jingle.wav
256,192,40346,1,0,0:0:0:60:kick.wav
475,192,40610,1,0,0:0:0:60:jingle.wav
182,192,40699,1,0,0:0:0:60:kick.wav
329,192,40875,1,0,0:0:0:60:jingle.wav
36,192,41052,1,0,0:0:0:60:jingle.wav
256,192,41052,1,0,0:0:0:60:kick.wav
475,192,41228,1,0,0:0:0:60:jingle.wav
402,192,41405,1,0,0:0:0:60:jingle.wav
109,192,41405,1,0,0:0:0:60:kick.wav
182,192,41493,1,0,0:0:0:60:jingle.wav
36,192,41758,1,0,0:0:0:60:jingle.wav
256,192,41758,1,0,0:0:0:60:kick.wav
475,192,42022,1,0,0:0:0:60:jingle.wav
182,192,42110,1,0,0:0:0:60:kick.wav
329,192,42287,1,0,0:0:0:60:jingle.wav
256,192,42463,1,0,0:0:0:60:kick.wav
36,192,42463,1,0,0:0:0:60:jingle.wav
475,192,42640,1,0,0:0:0:60:jingle.wav
182,192,42816,1,0,0:0:0:60:kick.wav
402,192,42816,1,0,0:0:0:60:jingle.wav
329,192,42905,1,0,0:0:0:60:jingle.wav
256,192,43169,1,0,0:0:0:60:kick.wav
36,192,43169,1,0,0:0:0:60:jingle.wav
475,192,43434,1,0,0:0:0:60:jingle.wav
109,192,43522,1,0,0:0:0:60:kick.wav
329,192,43699,1,0,0:0:0:60:jingle.wav
256,192,43875,1,0,0:0:0:60:kick.wav
36,192,43875,1,0,0:0:0:60:jingle.wav
475,192,44052,1,0,0:0:0:60:jingle.wav
182,192,44228,1,0,0:0:0:60:jingle.wav
402,192,44228,1,0,0:0:0:60:kick.wav
109,192,44316,1,0,0:0:0:60:jingle.wav
36,192,44581,1,0,0:0:0:60:kick.wav
256,192,44581,1,0,0:0:0:60:jingle.wav
402,192,44846,1,0,0:0:0:60:jingle.wav
182,192,45110,1,0,0:0:0:60:jingle.wav
36,192,45287,1,0,0:0:0:60:hihat.wav
329,192,45287,1,0,0:0:0:60:kick.wav
182,192,45463,1,0,0:0:0:90:hihat.wav
109,192,45640,1,0,0:0:0:60:hihat.wav
402,192,45640,1,0,0:0:0:60:kick.wav
329,192,45816,1,0,0:0:0:90:hihat.wav
475,192,45993,1,0,0:0:0:60:kick.wav
182,192,45993,1,0,0:0:0:60:hihat.wav
329,192,46169,1,0,0:0:0:90:hihat.wav
402,192,46346,1,0,0:0:0:60:hihat.wav
109,192,46346,1,0,0:0:0:60:kick.wav
182,192,46522,1,0,0:0:0:90:hihat.wav
36,192,46699,1,0,0:0:0:60:hihat.wav
329,192,46699,1,0,0:0:0:60:kick.wav
256,192,46875,1,0,0:0:0:90:hihat.wav
109,192,47052,1,0,0:0:0:60:kick.wav
402,192,47052,1,0,0:0:0:60:hihat.wav
256,192,47228,1,0,0:0:0:90:hihat.wav
475,192,47405,1,0,0:0:0:60:hihat.wav
182,192,47405,1,0,0:0:0:60:kick.wav
256,192,47581,1,0,0:0:0:90:hihat.wav
402,192,47758,1,0,0:0:0:60:hihat.wav
109,192,47758,1,0,0:0:0:60:kick.wav
256,192,47934,1,0,0:0:0:90:hihat.wav
109,192,48110,1,0,0:0:0:60:kick.wav
36,192,48110,1,0,0:0:0:60:hihat.wav
329,192,48287,1,0,0:0:0:90:hihat.wav
402,192,48463,1,0,0:0:0:60:kick.wav
475,192,48463,1,0,0:0:0:60:hihat.wav
182,192,48640,1,0,0:0:0:90:hihat.wav
36,192,48816,1,0,0:0:0:60:kick.wav
109,192,48816,1,0,0:0:0:60:hihat.wav
329,192,48993,1,0,0:0:0:90:hihat.wav
475,192,49169,1,0,0:0:0:60:kick.wav
402,192,49169,1,0,0:0:0:60:hihat.wav
36,192,49346,1,0,0:0:0:90:hihat.wav
182,192,49522,1,0,0:0:0:60:hihat.wav
109,192,49522,1,0,0:0:0:60:kick.wav
475,192,49699,1,0,0:0:0:90:hihat.wav
329,192,49875,1,0,0:0:0:60:hihat.wav
402,192,49875,1,0,0:0:0:60:kick.wav
36,192,50052,1,0,0:0:0:90:hihat.wav
109,192,50228,1,0,0:0:0:60:kick.wav
182,192,50228,1,0,0:0:0:60:hihat.wav
475,192,50405,1,0,0:0:0:90:hihat.wav
402,192,50581,1,0,0:0:0:60:kick.wav
329,192,50581,1,0,0:0:0:60:hihat.wav
182,192,50758,1,0,0:0:0:90:hihat.wav
36,192,50934,1,0,0:0:0:60:kick.wav
329,192,50934,1,0,0:0:0:60:hihat.wav
256,192,51110,1,0,0:0:0:90:hihat.wav
109,192,51287,1,0,0:0:0:60:kick.wav
402,192,51287,1,0,0:0:0:60:hihat.wav
182,192,51463,1,0,0:0:0:90:hihat.wav
329,192,51640,1,0,0:0:0:60:kick.wav
36,192,51640,1,0,0:0:0:60:hihat.wav
256,192,51816,1,0,0:0:0:90:hihat.wav
402,192,51993,1,0,0:0:0:60:kick.wav
109,192,51993,1,0,0:0:0:60:hihat.wav
182,192,52169,1,0,0:0:0:90:hihat.wav
36,192,52346,1,0,0:0:0:60:hihat.wav
256,192,52346,1,0,0:0:0:60:kick.wav
182,192,52522,1,0,0:0:0:90:hihat.wav
109,192,52699,1,0,0:0:0:60:kick.wav
329,192,52699,1,0,0:0:0:60:hihat.wav
256,192,52875,1,0,0:0:0:90:hihat.wav
402,192,53052,1,0,0:0:0:60:kick.wav
182,192,53052,1,0,0:0:0:60:hihat.wav
329,192,53228,1,0,0:0:0:90:hihat.wav
475,192,53405,1,0,0:0:0:60:kick.wav
256,192,53405,1,0,0:0:0:60:hihat.wav
402,192,53581,1,0,0:0:0:90:hihat.wav
182,192,53758,1,0,0:0:0:60:kick.wav
475,192,53758,1,0,0:0:0:60:hihat.wav
256,192,53934,1,0,0:0:0:90:hihat.wav
109,192,54110,1,0,0:0:0:60:hihat.wav
402,192,54110,1,0,0:0:0:60:kick.wav
329,192,54287,1,0,0:0:0:90:hihat.wav
182,192,54463,1,0,0:0:0:60:kick.wav
475,192,54463,1,0,0:0:0:60:hihat.wav
256,192,54640,1,0,0:0:0:90:hihat.wav
109,192,54816,1,0,0:0:0:60:hihat.wav
402,192,54816,1,0,0:0:0:60:kick.wav
329,192,54993,1,0,0:0:0:90:hihat.wav
256,192,55169,1,0,0:0:0:60:kick.wav
36,192,55169,1,0,0:0:0:60:hihat.wav
109,192,55346,1,0,0:0:0:90:hihat.wav
475,192,55522,1,0,0:0:0:60:kick.wav
182,192,55522,1,0,0:0:0:60:hihat.wav
402,192,55699,1,0,0:0:0:90:hihat.wav
36,192,55875,1,0,0:0:0:60:hihat.wav
329,192,55875,1,0,0:0:0:60:kick.wav
182,192,56052,1,0,0:0:0:90:hihat.wav
182,192,56405,1,0,0:0:0:90:hihat.wav
329,192,56581,1,0,0:0:0:60:hihat.wav
256,192,56581,1,0,0:0:0:60:kick.wav
475,192,56758,1,0,0:0:0:90:hihat.wav
36,192,56934,1,0,0:0:0:60:kick.wav
109,192,56934,1,0,0:0:0:60:hihat.wav
402,192,57110,1,0,0:0:0:90:hihat.wav
256,192,57287,1,0,0:0:0:60:hihat.wav
182,192,57287,1,0,0:0:0:60:kick.wav
36,192,57463,1,0,0:0:0:90:hihat.wav
475,192,57640,1,0,0:0:0:60:hihat.wav
402,192,57640,1,0,0:0:0:60:kick.wav
109,192,57816,1,0,0:0:0:90:hihat.wav
329,192,57993,1,0,0:0:0:60:hihat.wav
182,192,57993,1,0,0:0:0:60:kick.wav
475,192,58169,1,0,0:0:0:90:hihat.wav
402,192,58346,1,0,0:0:0:60:hihat.wav
256,192,58346,1,0,0:0:0:60:kick.wav
109,192,58522,1,0,0:0:0:90:hihat.wav
329,192,58699,1,0,0:0:0:60:hihat.wav
182,192,58699,1,0,0:0:0:60:kick.wav
36,192,58875,1,0,0:0:0:90:hihat.wav
256,192,59052,1,0,0:0:0:60:hihat.wav
109,192,59052,1,0,0:0:0:60:kick.wav
475,192,59228,1,0,0:0:0:90:hihat.wav
36,192,59405,1,0,0:0:0:60:hihat.wav
329,192,59405,1,0,0:0:0:60:kick.wav
109,192,59581,1,0,0:0:0:90:hihat.wav
475,192,59758,1,0,0:0:0:60:kick.wav
182,192,59758,1,0,0:0:0:60:hihat.wav
402,192,59934,1,0,0:0:0:90:hihat.wav
329,192,60110,1,0,0:0:0:60:kick.wav
36,192,60110,1,0,0:0:0:60:hihat.wav
109,192,60287,1,0,0:0:0:90:hihat.wav
182,192,60463,1,0,0:0:0:60:kick.wav
475,192,60463,1,0,0:0:0:60:hihat.wav
402,192,60640,1,0,0:0:0:90:hihat.wav
329,192,60816,1,0,0:0:0:60:hihat.wav
182,192,60816,1,0,0:0:0:60:kick.wav
109,192,60993,1,0,0:0:0:90:hihat.wav
329,192,61169,1,0,0:0:0:60:hihat.wav
36,192,61169,1,0,0:0:0:60:kick.wav
402,192,61346,1,0,0:0:0:90:hihat.wav
475,192,61522,1,0,0:0:0:60:hihat.wav
182,192,61522,1,0,0:0:0:60:kick.wav
109,192,61699,1,0,0:0:0:90:hihat.wav
36,192,61875,1,0,0:0:0:60:hihat.wav
329,192,61875,1,0,0:0:0:60:kick.wav
402,192,62052,1,0,0:0:0:90:hihat.wav
475,192,62228,1,0,0:0:0:60:kick.wav
182,192,62228,1,0,0:0:0:60:hihat.wav
329,192,62405,1,0,0:0:0:90:hihat.wav
109,192,62581,1,0,0:0:0:60:kick.wav
256,192,62581,1,0,0:0:0:60:hihat.wav
402,192,62758,1,0,0:0:0:90:hihat.wav
329,192,62934,1,0,0:0:0:60:kick.wav
36,192,62934,1,0,0:0:0:60:hihat.wav
182,192,63110,1,0,0:0:0:90:hihat.wav
256,192,63287,1,0,0:0:0:60:kick.wav
402,192,63287,1,0,0:0:0:60:hihat.wav
109,192,63463,1,0,0:0:0:90:hihat.wav
475,192,63640,1,0,0:0:0:60:kick.wav
36,192,63640,1,0,0:0:0:60:hihat.wav
256,192,63816,1,0,0:0:0:90:hihat.wav
109,192,63993,1,0,0:0:0:60:kick.wav
182,192,63993,1,0,0:0:0:60:hihat.wav
329,192,64169,1,0,0:0:0:90:hihat.wav
475,192,64346,1,0,0:0:0:60:kick.wav
36,192,64346,1,0,0:0:0:60:hihat.wav
109,192,64522,1,0,0:0:0:90:hihat.wav
402,192,64699,1,0,0:0:0:60:kick.wav
329,192,64699,1,0,0:0:0:60:hihat.wav
182,192,64875,1,0,0:0:0:90:hihat.wav
475,192,65052,1,0,0:0:0:60:hihat.wav
36,192,65052,1,0,0:0:0:60:kick.wav
256,192,65228,1,0,0:0:0:90:hihat.wav
402,192,65405,1,0,0:0:0:60:kick.wav
109,192,65405,1,0,0:0:0:60:hihat.wav
256,192,65581,1,0,0:0:0:90:hihat.wav
36,192,65758,1,0,0:0:0:60:hihat.wav
475,192,65758,1,0,0:0:0:60:kick.wav
256,192,65934,1,0,0:0:0:90:hihat.wav
109,192,66110,1,0,0:0:0:60:kick.wav
402,192,66110,1,0,0:0:0:60:hihat.wav
256,192,66287,1,0,0:0:0:90:hihat.wav
182,192,66463,1,0,0:0:0:60:kick.wav
329,192,66463,1,0,0:0:0:60:hihat.wav
402,192,66640,1,0,0:0:0:90:hihat.wav
36,192,66816,1,0,0:0:0:60:kick.wav
475,192,66816,1,0,0:0:0:60:hihat.wav
109,192,66993,1,0,0:0:0:90:hihat.wav
182,192,67169,1,0,0:0:0:60:hihat.wav
475,192,67169,1,0,0:0:0:60:kick.wav
402,192,67346,1,0,0:0:0:90:hihat.wav
329,192,67522,1,0,0:0:0:60:kick.wav
182,192,67522,1,0,0:0:0:60:hihat.wav
109,192,67699,1,0,0:0:0:90:hihat.wav
256,192,67875,1,4,1:0:0:90:
36,192,67875,1,0,0:0:0:60:kick.wav
475,192,67875,1,0,0:0:0:75:finish2.wav
402,192,68052,1,0,0:0:0:58:jingle.wav
329,192,68228,1,0,0:0:0:56:jingle.wav
182,192,68316,1,0,0:0:0:54:jingle.wav
109,192,68581,1,0,0:0:0:52:jingle.wav
402,192,68846,1,0,0:0:0:50:jingle.wav
256,192,69110,1,0,0:0:0:48:jingle.wav
109,192,69287,1,0,0:0:0:46:jingle.wav
402,192,69463,1,0,0:0:0:45:jingle.wav
329,192,69640,1,0,0:0:0:44:jingle.wav
182,192,69728,1,0,0:0:0:43:jingle.wav
256,192,69993,1,0,0:0:0:42:jingle.wav
402,192,70258,1,0,0:0:0:41:jingle.wav
109,192,70522,1,0,0:0:0:40:jingle.wav
329,192,70787,1,0,0:0:0:60:hihat.wav
182,192,70875,1,0,0:0:0:90:hihat.wav
329,192,70963,1,0,0:0:0:60:hihat.wav
109,192,71140,1,0,0:0:0:60:hihat.wav
402,192,71228,1,0,0:0:0:90:hihat.wav
109,192,71316,1,0,0:0:0:60:hihat.wav
475,192,71493,1,0,0:0:0:60:hihat.wav
182,192,71581,1,0,0:0:0:90:hihat.wav
475,192,71669,1,0,0:0:0:60:hihat.wav
36,192,71846,1,0,0:0:0:60:hihat.wav
329,192,71934,1,0,0:0:0:90:hihat.wav
36,192,72022,1,0,0:0:0:60:hihat.wav
402,192,72199,1,0,0:0:0:60:hihat.wav
109,192,72287,1,0,0:0:0:90:hihat.wav
402,192,72375,1,0,0:0:0:60:hihat.wav
182,192,72552,1,0,0:0:0:60:hihat.wav
329,192,72640,1,0,0:0:0:90:hihat.wav
182,192,72728,1,0,0:0:0:60:hihat.wav
475,192,72905,1,0,0:0:0:60:hihat.wav
256,192,72993,1,0,0:0:0:90:hihat.wav
475,192,73081,1,0,0:0:0:60:hihat.wav
36,192,73258,1,0,0:0:0:60:hihat.wav
256,192,73346,1,0,0:0:0:90:hihat.wav
36,192,73434,1,0,0:0:0:60:hihat.wav
109,192,73610,1,0,0:0:0:60:hihat.wav
329,192,73699,1,0,0:0:0:90:hihat.wav
109,192,73787,1,0,0:0:0:60:hihat.wav
402,192,73963,1,0,0:0:0:60:hihat.wav
182,192,74052,1,0,0:0:0:90:hihat.wav
402,192,74140,1,0,0:0:0:60:hihat.wav
36,192,74316,1,0,0:0:0:60:hihat.wav
256,192,74405,1,0,0:0:0:90:hihat.wav
36,192,74493,1,0,0:0:0:60:hihat.wav
475,192,74669,1,0,0:0:0:60:hihat.wav
256,192,74758,1,0,0:0:0:90:hihat.wav
475,192,74846,1,0,0:0:0:60:hihat.wav
109,192,74934,1,0,0:0:0:34:kick.wav
182,192,75022,1,0,0:0:0:35:kick.wav
402,192,75110,1,0,0:0:0:36:kick.wav
329,192,75199,1,0,0:0:0:37:kick.wav
109,192,75287,1,0,0:0:0:38:kick.wav
182,192,75375,1,0,0:0:0:39:kick.wav
402,192,75463,1,0,0:0:0:40:kick.wav
329,192,75552,1,0,0:0:0:41:kick.wav
36,192,75640,1,0,0:0:0:42:kick.wav
182,192,75728,1,0,0:0:0:43:kick.wav
475,192,75816,1,0,0:0:0:44:kick.wav
329,192,75905,1,0,0:0:0:45:kick.wav
36,192,75993,1,0,0:0:0:46:kick.wav
182,192,76081,1,0,0:0:0:47:kick.wav
475,192,76169,1,0,0:0:0:48:kick.wav
329,192,76258,1,0,0:0:0:49:kick.wav
36,192,76346,1,0,0:0:0:50:kick.wav
109,192,76434,1,0,0:0:0:50:kick.wav
475,192,76522,1,0,0:0:0:50:kick.wav
402,192,76610,1,0,0:0:0:50:kick.wav
36,192,76699,1,0,0:0:0:50:kick.wav
109,192,76787,1,0,0:0:0:50:kick.wav
475,192,76875,1,0,0:0:0:50:kick.wav
402,192,76963,1,0,0:0:0:50:kick.wav
36,192,77052,1,0,0:0:0:50:kick.wav
182,192,77140,1,0,0:0:0:50:kick.wav
475,192,77228,1,0,0:0:0:50:kick.wav
329,192,77316,1,0,0:0:0:50:kick.wav
109,192,77405,1,0,0:0:0:50:kick.wav
182,192,77493,1,0,0:0:0:50:kick.wav
402,192,77581,1,0,0:0:0:50:kick.wav
329,192,77669,1,0,0:0:0:50:kick.wav
256,192,77758,128,0,79169:0:0:0:60:kick.wav
36,192,77758,1,0,0:0:0:60:hihat.wav
109,192,77846,1,0,0:0:0:60:hihat.wav
182,192,77934,1,0,0:0:0:90:hihat.wav
329,192,78022,1,0,0:0:0:60:hihat.wav
475,192,78110,1,0,0:0:0:60:hihat.wav
402,192,78199,1,0,0:0:0:60:hihat.wav
329,192,78287,1,0,0:0:0:90:hihat.wav
182,192,78375,1,0,0:0:0:60:hihat.wav
36,192,78463,1,0,0:0:0:60:hihat.wav
109,192,78552,1,0,0:0:0:60:hihat.wav
182,192,78640,1,0,0:0:0:90:hihat.wav
329,192,78728,1,0,0:0:0:60:hihat.wav
475,192,78816,1,0,0:0:0:60:hihat.wav
402,192,78905,1,0,0:0:0:60:hihat.wav
329,192,78993,1,0,0:0:0:90:hihat.wav
182,192,79081,1,0,0:0:0:60:hihat.wav
109,192,79169,1,4,1:0:0:90:
475,192,79169,1,0,0:0:0:75:finish2.wav
36,192,79169,1,0,0:0:0:60:kick.wav
402,192,79169,1,0,0:0:0:0:
182,192,79522,1,0,0:0:0:0:
329,192,79699,1,0,0:0:0:0:
402,192,80052,128,0,80581:0:0:0:0:
36,192,80581,1,0,0:0:0:0:
109,192,80934,1,0,0:0:0:0:
256,192,81110,1,0,0:0:0:0:
329,192,81463,128,0,81993:0:0:0:0:
182,192,81993,1,0,0:0:0:0:
256,192,82346,1,0,0:0:0:0:
402,192,82522,1,0,0:0:0:0:
475,192,82875,128,0,83405:0:0:0:0:
109,192,83405,1,0,0:0:0:0:
182,192,83758,1,0,0:0:0:0:
329,192,83934,1,0,0:0:0:0:
402,192,84287,128,0,84816:0:0:0:0:
36,192,84816,1,0,0:0:0:0:
329,192,85169,1,0,0:0:0:0:
109,192,85346,1,0,0:0:0:0:
402,192,85699,128,0,86228:0:0:0:0:
475,192,86228,1,0,0:0:0:0:
182,192,86581,1,0,0:0:0:0:
402,192,86758,1,0,0:0:0:0:
109,192,87110,128,0,87640:0:0:0:0:
36,192,87640,1,0,0:0:0:0:
256,192,87993,1,0,0:0:0:0:
402,192,88169,1,0,0:0:0:0:
182,192,88522,128,0,89052:0:0:0:0:
475,192,89052,1,0,0:0:0:0:
256,192,89405,1,0,0:0:0:0:
109,192,89581,1,0,0:0:0:0:
402,192,89934,128,0,90463:0:0:0:0:
256,192,90463,1,0,0:0:0:0:
36,192,90816,128,0,91169:0:0:0:60:jingle.wav
182,192,90816,1,0,0:0:0:0:
475,192,91169,128,0,91522:0:0:0:60:jingle.wav
329,192,91169,1,0,0:0:0:0:
256,192,91522,128,0,93287:0:0:0:60:jingle.wav
109,192,91522,1,0,0:0:0:0:
36,192,91875,1,0,0:0:0:0:
182,192,92228,1,0,0:0:0:0:
329,192,92405,1,0,0:0:0:0:
475,192,92758,1,0,0:0:0:0:
109,192,93287,1,0,0:0:0:0:
182,192,93640,1,0,0:0:0:0:
329,192,93816,1,0,0:0:0:0:
475,192,94169,128,0,94699:0:0:0:0:
36,192,94699,1,0,0:0:0:0:
182,192,95052,1,0,0:0:0:0:
256,192,95228,1,0,0:0:0:0:
402,192,95581,128,0,96110:0:0:0:0:
256,192,96110,1,0,0:0:0:0:
182,192,96463,128,0,96816:0:0:0:60:jingle.wav
36,192,96463,1,0,0:0:0:0:
329,192,96816,128,0,97169:0:0:0:60:jingle.wav
475,192,96816,1,0,0:0:0:0:
256,192,97169,128,0,98934:0:0:0:60:jingle.wav
109,192,97169,1,0,0:0:0:0:
36,192,97522,1,0,0:0:0:0:
182,192,97875,1,0,0:0:0:0:
329,192,98052,1,0,0:0:0:0:
475,192,98405,1,0,0:0:0:0:
36,192,98934,1,0,0:0:0:28:snare.wav
329,192,99110,1,0,0:0:0:29:snare.wav
109,192,99287,1,0,0:0:0:30:snare.wav
402,192,99463,1,0,0:0:0:30:snare.wav
182,192,99640,1,0,0:0:0:31:snare.wav
329,192,99816,1,0,0:0:0:32:snare.wav
475,192,99816,128,0,100346:0:0:0:0:
109,192,99993,1,0,0:0:0:32:snare.wav
256,192,100169,1,0,0:0:0:33:snare.wav
182,192,100699,128,0,101758:0:0:0:0:
109,192,100699,1,0,0:0:0:0:
402,192,100875,1,0,0:0:0:0:
329,192,101228,128,0,101758:0:0:0:0:
475,192,101758,1,0,0:0:0:75:finish2.wav
256,192,101758,1,4,1:0:0:90:
36,192,101758,1,0,0:0:0:0:
109,192,102110,128,0,102463:0:0:0:60:jingle.wav
182,192,102110,1,0,0:0:0:0:
329,192,102463,1,0,0:0:0:60:jingle.wav
402,192,102463,128,0,102816:0:0:0:60:jingle.wav
256,192,102816,128,0,104581:0:0:0:60:jingle.wav
182,192,102816,1,0,0:0:0:0:
36,192,103169,1,0,0:0:0:0:
109,192,103522,1,0,0:0:0:0:
329,192,103699,1,0,0:0:0:0:
402,192,104052,1,0,0:0:0:0:
475,192,104581,1,0,0:0:0:0:
36,192,104934,128,0,105287:0:0:0:60:jingle.wav
182,192,104934,1,0,0:0:0:0:
329,192,105287,1,0,0:0:0:60:jingle.wav
475,192,105287,128,0,105640:0:0:0:60:jingle.wav
256,192,105640,128,0,107405:0:0:0:60:jingle.wav
36,192,105640,1,0,0:0:0:0:
109,192,105993,1,0,0:0:0:0:
182,192,106346,1,0,0:0:0:0:
329,192,106522,1,0,0:0:0:0:
475,192,106875,1,0,0:0:0:0:
182,192,107405,1,0,0:0:0:0:
36,192,107758,128,0,108110:0:0:0:60:jingle.wav
329,192,107758,1,0,0:0:0:0:
182,192,108110,1,0,0:0:0:60:jingle.wav
475,192,108110,128,0,108463:0:0:0:60:jingle.wav
329,192,108463,128,0,108993:0:0:0:60:jingle.wav
36,192,108463,1,0,0:0:0:0:
256,192,108993,128,0,109169:0:0:0:60:jingle.wav
182,192,109169,128,0,109522:0:0:0:60:jingle.wav
475,192,109169,1,0,0:0:0:0:
329,192,109522,1,0,0:0:0:60:jingle.wav
36,192,109522,128,0,109875:0:0:0:60:jingle.wav
109,192,109875,128,0,110581:0:0:0:60:jingle.wav
402,192,109875,1,0,0:0:0:0:
182,192,110581,128,0,110934:0:0:0:60:jingle.wav
475,192,110581,1,0,0:0:0:0:
36,192,111640,128,0,111993:0:0:0:60:jingle.wav
329,192,111640,1,0,0:0:0:0:
475,192,111993,128,0,112346:0:0:0:60:jingle.wav
256,192,111993,1,0,0:0:0:0:
182,192,112346,1,0,0:0:0:60:jingle.wav
402,192,112346,128,0,112699:0:0:0:0:
329,192,112699,128,0,113052:0:0:0:60:jingle.wav
109,192,112699,1,0,0:0:0:0:
256,192,113052,1,0,0:0:0:55:hihat.wav
182,192,113405,128,0,113758:0:0:0:60:jingle.wav
475,192,113405,1,0,0:0:0:55:hihat.wav
109,192,113758,128,0,114110:0:0:0:60:jingle.wav
402,192,113758,1,0,0:0:0:55:hihat.wav
36,192,114110,128,0,114816:0:0:0:60:jingle.wav
329,192,114110,1,0,0:0:0:55:hihat.wav
256,192,114463,1,0,0:0:0:55:hihat.wav
329,192,114816,128,0,115169:0:0:0:60:jingle.wav
109,192,114816,1,0,0:0:0:55:hihat.wav
402,192,115169,128,0,115522:0:0:0:60:jingle.wav
182,192,115169,1,0,0:0:0:55:hihat.wav
475,192,115522,128,0,115875:0:0:0:60:jingle.wav
256,192,115522,1,0,0:0:0:55:hihat.wav
36,192,115875,1,0,0:0:0:55:hihat.wav
109,192,116228,128,0,116581:0:0:0:60:jingle.wav
182,192,116228,1,0,0:0:0:55:hihat.wav
329,192,116581,128,0,116934:0:0:0:60:jingle.wav
402,192,116581,1,0,0:0:0:55:hihat.wav
256,192,116934,128,0,118699:0:0:0:60:jingle.wav
36,192,116934,1,0,0:0:0:55:hihat.wav
475,192,117287,1,0,0:0:0:55:hihat.wav
109,192,117640,1,0,0:0:0:55:hihat.wav
402,192,117993,1,0,0:0:0:55:hihat.wav
36,192,118346,1,0,0:0:0:55:hihat.wav
329,192,118699,1,0,0:0:0:55:hihat.wav
182,192,119052,128,0,119405:0:0:0:60:jingle.wav
109,192,119052,1,0,0:0:0:55:hihat.wav
402,192,119405,128,0,119758:0:0:0:60:jingle.wav
475,192,119405,1,0,0:0:0:55:hihat.wav
256,192,119758,128,0,121522:0:0:0:60:jingle.wav
36,192,119758,1,0,0:0:0:55:hihat.wav
329,192,120110,1,0,0:0:0:55:hihat.wav
109,192,120463,1,0,0:0:0:55:hihat.wav
402,192,120816,1,0,0:0:0:55:hihat.wav
182,192,121169,1,0,0:0:0:55:hihat.wav
475,192,121522,1,0,0:0:0:55:hihat.wav
36,192,121875,128,0,122228:0:0:0:60:jingle.wav
109,192,121875,1,0,0:0:0:55:hihat.wav
402,192,122228,128,0,122581:0:0:0:60:jingle.wav
329,192,122228,1,0,0:0:0:55:hihat.wav
182,192,122581,1,0,0:0:0:55:hihat.wav
256,192,122581,128,0,124346:0:0:0:60:jingle.wav
475,192,122934,1,0,0:0:0:50:finish1.wav
36,192,122934,1,0,0:0:0:0:
402,192,123110,1,8,3:0:0:40:
329,192,123287,1,4,3:0:0:30:
182,192,123463,1,4,3:0:0:30:
402,192,123640,1,0,0:0:0:0:
109,192,123640,1,8,3:0:0:40:
402,192,123993,1,0,0:0:0:0:
109,192,123993,1,8,3:0:0:40:
329,192,124346,1,4,1:0:0:90:
475,192,124346,1,0,0:0:0:75:finish2.wav
182,192,124346,128,0,125405:0:0:0:60:jingle.wav
36,192,124346,1,0,0:0:0:0:
402,192,124699,1,0,0:0:0:0:
329,192,124875,1,0,0:0:0:0:
475,192,125228,1,0,0:0:0:0:
36,192,125405,1,0,0:0:0:60:jingle.wav
182,192,125581,128,0,126463:0:0:0:60:jingle.wav
402,192,125758,1,0,0:0:0:0:
329,192,126110,1,0,0:0:0:0:
256,192,126287,1,0,0:0:0:0:
475,192,126463,128,0,127169:0:0:0:60:jingle.wav
109,192,126640,1,0,0:0:0:0:
329,192,127169,128,0,128228:0:0:0:60:jingle.wav
256,192,127169,1,0,0:0:0:0:
36,192,127522,1,0,0:0:0:0:
109,192,127699,1,0,0:0:0:0:
182,192,128052,1,0,0:0:0:0:
475,192,128228,1,0,0:0:0:60:jingle.wav
329,192,128405,128,0,129993:0:0:0:60:jingle.wav
109,192,128581,1,0,0:0:0:0:
182,192,128934,1,0,0:0:0:0:
256,192,129110,1,0,0:0:0:0:
475,192,129463,1,0,0:0:0:0:
36,192,129993,128,0,130699:0:0:0:61:jingle.wav
182,192,129993,1,0,0:0:0:41:hihat.wav
256,192,130169,1,0,0:0:0:42:hihat.wav
329,192,130434,1,0,0:0:0:44:hihat.wav
182,192,130699,128,0,131405:0:0:0:62:jingle.wav
402,192,130699,1,0,0:0:0:46:hihat.wav
329,192,130875,1,0,0:0:0:47:hihat.wav
475,192,131052,1,0,0:0:0:49:hihat.wav
402,192,131228,1,0,0:0:0:51:hihat.wav
256,192,131405,128,0,132110:0:0:0:63:jingle.wav
36,192,131405,1,0,0:0:0:53:hihat.wav
329,192,131581,1,0,0:0:0:54:hihat.wav
182,192,131846,1,0,0:0:0:55:hihat.wav
402,192,132110,128,0,132816:0:0:0:64:jingle.wav
109,192,132110,1,0,0:0:0:57:hihat.wav
36,192,132287,1,0,0:0:0:57:hihat.wav
256,192,132463,1,0,0:0:0:58:hihat.wav
182,192,132640,1,0,0:0:0:58:hihat.wav
109,192,132816,128,0,133522:0:0:0:65:jingle.wav
329,192,132816,1,0,0:0:0:59:hihat.wav
256,192,132993,1,0,0:0:0:59:hihat.wav
329,192,133258,1,0,0:0:0:60:hihat.wav
182,192,133522,128,0,134228:0:0:0:66:jingle.wav
402,192,133522,1,0,0:0:0:61:hihat.wav
329,192,133699,1,0,0:0:0:61:hihat.wav
475,192,133875,1,0,0:0:0:62:hihat.wav
402,192,134052,1,0,0:0:0:62:hihat.wav
329,192,134228,128,0,134934:0:0:0:67:jingle.wav
36,192,134228,1,0,0:0:0:63:hihat.wav
109,192,134405,1,0,0:0:0:63:hihat.wav
182,192,134669,1,0,0:0:0:63:hihat.wav
256,192,134934,1,0,0:0:0:68:jingle.wav
475,192,134934,128,0,135640:0:0:0:64:hihat.wav
36,192,135110,1,0,0:0:0:64:hihat.wav
329,192,135287,1,0,0:0:0:64:hihat.wav
182,192,135463,1,0,0:0:0:64:hihat.wav
109,192,135640,1,0,0:0:0:60:kick.wav
329,192,135640,1,0,0:0:0:65:hihat.wav
182,192,135816,1,0,0:0:0:65:hihat.wav
256,192,135993,1,0,0:0:0:65:hihat.wav
475,192,135993,1,0,0:0:0:0:
109,192,136169,1,0,0:0:0:60:kick.wav
329,192,136169,1,0,0:0:0:65:hihat.wav
329,192,136522,1,0,0:0:0:65:hihat.wav
109,192,136522,1,0,0:0:0:60:kick.wav
36,192,136699,1,0,0:0:0:65:hihat.wav
475,192,136699,1,0,0:0:0:0:
256,192,136875,1,0,0:0:0:65:hihat.wav
402,192,137052,1,0,0:0:0:65:hihat.wav
182,192,137052,1,0,0:0:0:60:kick.wav
329,192,137228,1,0,0:0:0:65:hihat.wav
256,192,137405,1,0,0:0:0:65:hihat.wav
36,192,137405,1,0,0:0:0:0:
182,192,137581,1,0,0:0:0:60:kick.wav
402,192,137581,1,0,0:0:0:65:hihat.wav
182,192,137934,1,0,0:0:0:65:hihat.wav
402,192,137934,1,0,0:0:0:60:kick.wav
475,192,138110,1,0,0:0:0:65:hihat.wav
36,192,138110,1,0,0:0:0:0:
256,192,138287,1,0,0:0:0:65:hihat.wav
36,192,138463,1,0,0:0:0:60:kick.wav
329,192,138463,1,0,0:0:0:65:hihat.wav
109,192,138640,1,0,0:0:0:65:hihat.wav
256,192,138816,1,0,0:0:0:65:hihat.wav
402,192,138816,1,0,0:0:0:0:
36,192,138993,1,0,0:0:0:60:kick.wav
329,192,138993,1,0,0:0:0:65:hihat.wav
329,192,139346,1,0,0:0:0:65:hihat.wav
36,192,139346,1,0,0:0:0:60:kick.wav
182,192,139522,1,0,0:0:0:65:hihat.wav
402,192,139522,1,0,0:0:0:0:
329,192,139699,1,0,0:0:0:65:hihat.wav
475,192,139875,1,0,0:0:0:65:hihat.wav
182,192,139875,1,0,0:0:0:60:kick.wav
402,192,140052,1,0,0:0:0:65:hihat.wav
256,192,140228,1,0,0:0:0:65:hihat.wav
109,192,140228,1,0,0:0:0:0:
475,192,140405,1,0,0:0:0:60:kick.wav
182,192,140405,1,0,0:0:0:65:hihat.wav
182,192,140758,1,0,0:0:0:65:hihat.wav
475,192,140758,1,0,0:0:0:60:kick.wav
329,192,140934,1,0,0:0:0:65:hihat.wav
109,192,140934,1,0,0:0:0:0:
182,192,141110,1,0,0:0:0:65:hihat.wav
36,192,141287,1,0,0:0:0:60:kick.wav
109,192,141287,1,0,0:0:0:65:hihat.wav
256,192,141463,1,0,0:0:0:65:hihat.wav
402,192,141640,1,0,0:0:0:65:hihat.wav
329,192,141640,1,0,0:0:0:0:
36,192,141816,1,0,0:0:0:60:kick.wav
109,192,141816,1,0,0:0:0:65:hihat.wav
36,192,142169,1,0,0:0:0:65:hihat.wav
109,192,142169,1,0,0:0:0:60:kick.wav
329,192,142346,1,0,0:0:0:65:hihat.wav
475,192,142346,1,0,0:0:0:0:
182,192,142522,1,0,0:0:0:65:hihat.wav
475,192,142699,1,0,0:0:0:60:kick.wav
402,192,142699,1,0,0:0:0:65:hihat.wav
256,192,142875,1,0,0:0:0:65:hihat.wav
109,192,143052,1,0,0:0:0:65:hihat.wav
182,192,143052,1,0,0:0:0:0:
475,192,143228,1,0,0:0:0:60:kick.wav
402,192,143228,1,0,0:0:0:65:hihat.wav
475,192,143581,1,0,0:0:0:65:hihat.wav
402,192,143581,1,0,0:0:0:60:kick.wav
182,192,143758,1,0,0:0:0:65:hihat.wav
36,192,143758,1,0,0:0:0:0:
329,192,143934,1,0,0:0:0:65:hihat.wav
256,192,144110,128,0,145522:0:0:0:70:jingle.wav
36,192,144110,1,0,0:0:0:60:kick.wav
475,192,144110,1,0,0:0:0:66:hihat.wav
182,192,144287,1,0,0:0:0:66:hihat.wav
475,192,144463,1,0,0:0:0:67:hihat.wav
36,192,144463,1,0,0:0:0:0:
182,192,144640,1,0,0:0:0:65:hihat.wav
329,192,144640,1,0,0:0:0:60:kick.wav
329,192,144993,1,0,0:0:0:68:hihat.wav
182,192,144993,1,0,0:0:0:60:kick.wav
475,192,145169,1,0,0:0:0:69:hihat.wav
36,192,145169,1,0,0:0:0:0:
329,192,145346,1,0,0:0:0:69:hihat.wav
402,192,145522,1,0,0:0:0:60:kick.wav
109,192,145522,1,0,0:0:0:70:hihat.wav
475,192,145522,1,0,0:0:0:0:
36,192,145875,128,0,146228:0:0:0:70:jingle.wav
475,192,146228,128,0,146581:0:0:0:70:jingle.wav
256,192,146581,128,0,148522:0:0:0:70:jingle.wav
329,192,146934,1,0,0:0:0:60:kick.wav
109,192,146934,1,0,0:0:0:75:hihat.wav
36,192,146934,1,0,0:0:0:0:
402,192,147110,1,0,0:0:0:75:hihat.wav
182,192,147287,1,0,0:0:0:60:kick.wav
475,192,147287,1,0,0:0:0:75:hihat.wav
109,192,147463,1,0,0:0:0:75:hihat.wav
36,192,147640,1,0,0:0:0:60:kick.wav
475,192,147640,1,0,0:0:0:75:hihat.wav
402,192,147816,1,0,0:0:0:75:hihat.wav
329,192,147993,1,0,0:0:0:60:kick.wav
36,192,147993,1,0,0:0:0:75:hihat.wav
109,192,148169,1,0,0:0:0:75:hihat.wav
329,192,148346,1,0,0:0:0:75:hihat.wav
182,192,148346,1,0,0:0:0:60:kick.wav
475,192,148522,1,0,0:0:0:75:jingle.wav
402,192,148610,1,0,0:0:0:75:jingle.wav
329,192,148699,1,0,0:0:0:75:jingle.wav
256,192,148787,1,0,0:0:0:75:jingle.wav
182,192,148875,1,0,0:0:0:75:jingle.wav
36,192,149052,1,0,0:0:0:75:jingle.wav
109,192,149140,1,0,0:0:0:75:jingle.wav
182,192,149228,1,0,0:0:0:75:jingle.wav
256,192,149316,1,0,0:0:0:75:jingle.wav
475,192,149493,1,0,0:0:0:75:jingle.wav
402,192,149581,1,0,0:0:0:75:jingle.wav
329,192,149669,1,0,0:0:0:75:jingle.wav
256,192,149758,1,0,0:0:0:75:jingle.wav
36,192,149934,1,0,0:0:0:75:jingle.wav
256,192,150022,1,0,0:0:0:75:jingle.wav
182,192,150110,1,0,0:0:0:75:jingle.wav
109,192,150199,1,0,0:0:0:75:jingle.wav
329,192,150287,1,0,0:0:0:75:jingle.wav
475,192,150463,1,0,0:0:0:75:jingle.wav
256,192,150552,1,0,0:0:0:75:jingle.wav
329,192,150640,1,0,0:0:0:75:jingle.wav
402,192,150728,1,0,0:0:0:75:jingle.wav
109,192,150905,1,0,0:0:0:75:jingle.wav
182,192,150993,1,0,0:0:0:75:jingle.wav
256,192,151081,1,0,0:0:0:75:jingle.wav
36,192,151169,1,0,0:0:0:75:jingle.wav
329,192,151346,1,0,0:0:0:75:jingle.wav
256,192,151434,1,0,0:0:0:75:jingle.wav
182,192,151522,1,0,0:0:0:75:jingle.wav
109,192,151610,1,0,0:0:0:75:jingle.wav
36,192,151699,1,0,0:0:0:75:jingle.wav
256,192,151875,1,0,0:0:0:75:jingle.wav
329,192,151963,1,0,0:0:0:75:jingle.wav
402,192,152052,1,0,0:0:0:75:jingle.wav
475,192,152140,1,0,0:0:0:75:jingle.wav
256,192,152316,1,0,0:0:0:75:jingle.wav
182,192,152405,1,0,0:0:0:75:jingle.wav
109,192,152493,1,0,0:0:0:75:jingle.wav
475,192,152581,1,0,0:0:0:60:kick.wav
36,192,152581,1,0,0:0:0:75:jingle.wav
402,192,152758,1,0,0:0:0:75:jingle.wav
329,192,152934,128,0,153287:0:0:0:60:jingle.wav
182,192,152934,128,0,153287:0:0:0:60:kick.wav
36,192,153287,1,0,0:0:0:75:jingle.wav
475,192,153287,1,0,0:0:0:60:kick.wav
109,192,153463,1,0,0:0:0:75:jingle.wav
329,192,153640,128,0,153993:0:0:0:60:jingle.wav
182,192,153640,128,0,153993:0:0:0:60:kick.wav
402,192,153993,1,0,0:0:0:75:jingle.wav
109,192,153993,1,0,0:0:0:60:kick.wav
256,192,154169,1,0,0:0:0:75:jingle.wav
36,192,154346,128,0,155052:0:0:0:60:jingle.wav
475,192,154346,128,0,155052:0:0:0:60:kick.wav
109,192,154699,128,0,155052:0:0:0:60:jingle.wav
402,192,154699,128,0,155052:0:0:0:60:kick.wav
182,192,155052,1,0,0:0:0:75:jingle.wav
329,192,155052,1,0,0:0:0:60:kick.wav
256,192,155228,1,0,0:0:0:75:jingle.wav
402,192,155405,128,0,155758:0:0:0:60:jingle.wav
109,192,155405,128,0,155758:0:0:0:60:kick.wav
182,192,155758,1,0,0:0:0:60:kick.wav
475,192,155758,1,0,0:0:0:75:jingle.wav
256,192,155934,1,0,0:0:0:75:jingle.wav
402,192,156110,128,0,156463:0:0:0:60:jingle.wav
109,192,156110,128,0,156463:0:0:0:60:kick.wav
329,192,156463,1,0,0:0:0:60:kick.wav
36,192,156463,1,0,0:0:0:75:jingle.wav
256,192,156640,1,0,0:0:0:75:jingle.wav
182,192,156816,128,0,157522:0:0:0:60:kick.wav
329,192,156816,128,0,157522:0:0:0:60:jingle.wav
402,192,157169,128,0,157522:0:0:0:60:jingle.wav
109,192,157169,128,0,157522:0:0:0:60:kick.wav
36,192,157522,1,0,0:0:0:60:kick.wav
475,192,157522,1,0,0:0:0:75:jingle.wav
329,192,157699,1,0,0:0:0:70:chime.wav
182,192,157787,1,0,0:0:0:0:
329,192,157875,1,0,0:0:0:70:chime.wav
256,192,158052,1,0,0:0:0:0:
182,192,158228,1,0,0:0:0:75:hihat.wav
36,192,158228,1,0,0:0:0:60:kick.wav
475,192,158405,1,0,0:0:0:75:hihat.wav
256,192,158581,1,0,0:0:0:75:hihat.wav
109,192,158581,1,0,0:0:0:60:kick.wav
402,192,158758,1,0,0:0:0:75:hihat.wav
36,192,158934,1,0,0:0:0:75:hihat.wav
182,192,158934,1,0,0:0:0:60:kick.wav
329,192,159110,1,0,0:0:0:75:hihat.wav
475,192,159287,1,0,0:0:0:75:hihat.wav
109,192,159287,1,0,0:0:0:60:kick.wav
182,192,159375,1,0,0:0:0:75:hihat.wav
256,192,159463,1,0,0:0:0:75:hihat.wav
329,192,159552,1,0,0:0:0:75:hihat.wav
36,192,159640,1,0,0:0:0:75:hihat.wav
402,192,159640,1,0,0:0:0:60:kick.wav
256,192,159816,1,0,0:0:0:75:hihat.wav
475,192,159993,1,0,0:0:0:75:hihat.wav
109,192,159993,1,0,0:0:0:60:kick.wav
256,192,160169,1,0,0:0:0:75:hihat.wav
36,192,160346,1,0,0:0:0:75:hihat.wav
402,192,160346,1,0,0:0:0:60:kick.wav
182,192,160522,1,0,0:0:0:70:chime.wav
329,192,160610,1,0,0:0:0:75:hihat.wav
182,192,160699,1,0,0:0:0:70:chime.wav
475,192,160699,1,0,0:0:0:60:kick.wav
329,192,160875,1,0,0:0:0:75:hihat.wav
182,192,161052,1,0,0:0:0:75:hihat.wav
36,192,161052,1,0,0:0:0:60:kick.wav
402,192,161228,1,0,0:0:0:75:hihat.wav
256,192,161405,1,0,0:0:0:60:kick.wav
109,192,161405,1,0,0:0:0:75:hihat.wav
475,192,161581,1,0,0:0:0:75:hihat.wav
329,192,161758,1,0,0:0:0:75:hihat.wav
36,192,161758,1,0,0:0:0:60:kick.wav
182,192,161934,1,0,0:0:0:75:hihat.wav
109,192,162110,1,0,0:0:0:60:kick.wav
402,192,162110,1,0,0:0:0:75:hihat.wav
329,192,162199,1,0,0:0:0:75:hihat.wav
256,192,162287,1,0,0:0:0:75:hihat.wav
182,192,162375,1,0,0:0:0:75:hihat.wav
36,192,162463,1,0,0:0:0:60:kick.wav
109,192,162463,1,0,0:0:0:75:hihat.wav
402,192,162640,1,0,0:0:0:75:hihat.wav
182,192,162816,1,0,0:0:0:60:kick.wav
475,192,162816,1,0,0:0:0:75:hihat.wav
329,192,162993,1,0,0:0:0:75:hihat.wav
109,192,163169,1,0,0:0:0:75:hihat.wav
36,192,163169,1,0,0:0:0:60:kick.wav
475,192,163346,1,0,0:0:0:70:chime.wav
329,192,163434,1,0,0:0:0:75:hihat.wav
182,192,163522,1,0,0:0:0:60:kick.wav
475,192,163522,1,0,0:0:0:70:chime.wav
109,192,163699,1,0,0:0:0:75:hihat.wav
36,192,163875,1,0,0:0:0:60:kick.wav
256,192,163875,1,0,0:0:0:75:hihat.wav
402,192,164052,1,0,0:0:0:75:hihat.wav
329,192,164228,1,0,0:0:0:60:kick.wav
109,192,164228,1,0,0:0:0:75:hihat.wav
475,192,164405,1,0,0:0:0:75:hihat.wav
182,192,164581,1,0,0:0:0:60:kick.wav
36,192,164581,1,0,0:0:0:75:hihat.wav
329,192,164758,1,0,0:0:0:75:hihat.wav
36,192,164934,1,0,0:0:0:60:kick.wav
402,192,164934,1,0,0:0:0:75:hihat.wav
109,192,165022,1,0,0:0:0:75:hihat.wav
182,192,165110,1,0,0:0:0:75:hihat.wav
256,192,165199,1,0,0:0:0:75:hihat.wav
475,192,165287,1,0,0:0:0:60:kick.wav
329,192,165287,1,0,0:0:0:75:hihat.wav
256,192,165463,1,0,0:0:0:75:hihat.wav
36,192,165640,1,0,0:0:0:75:hihat.wav
182,192,165640,1,0,0:0:0:60:kick.wav
256,192,165816,1,0,0:0:0:75:hihat.wav
329,192,165993,1,0,0:0:0:75:hihat.wav
475,192,165993,1,0,0:0:0:60:kick.wav
36,192,166169,1,0,0:0:0:70:chime.wav
182,192,166258,1,0,0:0:0:75:hihat.wav
36,192,166346,1,0,0:0:0:70:chime.wav
475,192,166346,1,0,0:0:0:60:kick.wav
256,192,166522,1,0,0:0:0:75:hihat.wav
36,192,166699,1,0,0:0:0:60:kick.wav
402,192,166699,1,0,0:0:0:75:hihat.wav
256,192,166875,1,0,0:0:0:75:hihat.wav
109,192,167052,1,0,0:0:0:75:hihat.wav
329,192,167052,1,0,0:0:0:60:kick.wav
182,192,167228,1,0,0:0:0:75:hihat.wav
36,192,167405,1,0,0:0:0:60:kick.wav
402,192,167405,1,0,0:0:0:75:hihat.wav
256,192,167581,1,0,0:0:0:75:hihat.wav
475,192,167758,1,0,0:0:0:60:kick.wav
109,192,167758,1,0,0:0:0:75:hihat.wav
402,192,167846,1,0,0:0:0:75:hihat.wav
329,192,167934,1,0,0:0:0:75:hihat.wav
256,192,168022,1,0,0:0:0:75:hihat.wav
182,192,168110,1,0,0:0:0:75:hihat.wav
329,192,168287,1,0,0:0:0:75:hihat.wav
36,192,168552,1,0,0:0:0:75:hihat.wav
256,192,168816,1,0,0:0:0:75:hihat.wav
329,192,168993,1,0,0:0:0:75:hihat.wav
475,192,169081,1,0,0:0:0:75:hihat.wav
182,192,169169,1,0,0:0:0:75:hihat.wav
109,192,169346,1,0,0:0:0:75:hihat.wav
256,192,169522,1,4,1:0:0:90:
475,192,169522,1,0,0:0:0:75:finish2.wav
36,192,169522,1,0,0:0:0:60:kick.wav
329,192,169522,128,0,170581:0:0:0:75:jingle.wav
182,192,169699,1,0,0:0:0:75:hihat.wav
402,192,169875,1,0,0:0:0:75:hihat.wav
109,192,169875,1,0,0:0:0:60:kick.wav
36,192,170052,1,0,0:0:0:75:hihat.wav
475,192,170228,1,0,0:0:0:60:kick.wav
182,192,170228,1,0,0:0:0:75:hihat.wav
256,192,170405,1,0,0:0:0:75:hihat.wav
109,192,170581,1,0,0:0:0:75:jingle.wav
475,192,170581,1,0,0:0:0:60:kick.wav
402,192,170581,1,0,0:0:0:75:hihat.wav
182,192,170758,1,0,0:0:0:75:hihat.wav
329,192,170758,128,0,171640:0:0:0:75:jingle.wav
475,192,170934,1,0,0:0:0:60:kick.wav
36,192,170934,1,0,0:0:0:75:hihat.wav
256,192,171110,1,0,0:0:0:75:hihat.wav
109,192,171287,1,0,0:0:0:60:kick.wav
402,192,171287,1,0,0:0:0:75:hihat.wav
182,192,171463,1,0,0:0:0:75:hihat.wav
256,192,171640,1,0,0:0:0:75:hihat.wav
475,192,171640,128,0,172346:0:0:0:75:jingle.wav
36,192,171640,1,0,0:0:0:60:kick.wav
109,192,171816,1,0,0:0:0:75:hihat.wav
182,192,171993,1,0,0:0:0:75:hihat.wav
36,192,171993,1,0,0:0:0:60:kick.wav
402,192,172081,1,0,0:0:0:75:hihat.wav
329,192,172169,1,0,0:0:0:75:hihat.wav
256,192,172258,1,0,0:0:0:75:hihat.wav
36,192,172346,1,0,0:0:0:60:kick.wav
182,192,172346,128,0,173405:0:0:0:75:jingle.wav
109,192,172346,1,0,0:0:0:75:hihat.wav
329,192,172522,1,0,0:0:0:75:hihat.wav
475,192,172699,1,0,0:0:0:60:kick.wav
109,192,172699,1,0,0:0:0:75:hihat.wav
402,192,172875,1,0,0:0:0:75:hihat.wav
36,192,173052,1,0,0:0:0:60:kick.wav
329,192,173052,1,0,0:0:0:75:hihat.wav
402,192,173228,1,0,0:0:0:75:hihat.wav
475,192,173405,1,0,0:0:0:75:jingle.wav
256,192,173405,1,0,0:0:0:75:hihat.wav
109,192,173405,1,0,0:0:0:60:kick.wav
329,192,173581,1,0,0:0:0:75:hihat.wav
182,192,173581,128,0,175169:0:0:0:75:jingle.wav
36,192,173758,1,0,0:0:0:75:hihat.wav
402,192,173758,1,0,0:0:0:60:kick.wav
256,192,173934,1,0,0:0:0:75:hihat.wav
475,192,174110,1,0,0:0:0:60:kick.wav
109,192,174110,1,0,0:0:0:75:hihat.wav
329,192,174287,1,0,0:0:0:75:hihat.wav
36,192,174463,1,0,0:0:0:60:kick.wav
402,192,174463,1,0,0:0:0:75:hihat.wav
329,192,174640,1,0,0:0:0:75:hihat.wav
475,192,174816,1,0,0:0:0:60:kick.wav
109,192,174816,1,0,0:0:0:75:hihat.wav
256,192,174905,1,0,0:0:0:75:hihat.wav
329,192,174993,1,0,0:0:0:75:hihat.wav
402,192,175081,1,0,0:0:0:75:hihat.wav
475,192,175169,1,0,0:0:0:75:hihat.wav
109,192,175169,1,0,0:0:0:60:kick.wav
36,192,175169,128,0,175875:0:0:0:75:jingle.wav
256,192,175346,1,0,0:0:0:75:hihat.wav
182,192,175522,1,0,0:0:0:60:kick.wav
402,192,175522,1,0,0:0:0:75:hihat.wav
329,192,175699,1,0,0:0:0:75:hihat.wav
109,192,175875,1,0,0:0:0:75:hihat.wav
475,192,175875,1,0,0:0:0:60:kick.wav
182,192,175875,128,0,176581:0:0:0:75:jingle.wav
329,192,176052,1,0,0:0:0:75:hihat.wav
402,192,176228,1,0,0:0:0:60:kick.wav
256,192,176228,1,0,0:0:0:75:hihat.wav
36,192,176405,1,0,0:0:0:75:hihat.wav
109,192,176581,1,0,0:0:0:75:hihat.wav
475,192,176581,1,0,0:0:0:60:kick.wav
256,192,176581,128,0,177287:0:0:0:75:jingle.wav
329,192,176758,1,0,0:0:0:75:hihat.wav
182,192,176934,1,0,0:0:0:60:kick.wav
402,192,176934,1,0,0:0:0:75:hihat.wav
36,192,177110,1,0,0:0:0:75:hihat.wav
109,192,177287,1,0,0:0:0:75:hihat.wav
402,192,177287,128,0,177993:0:0:0:75:jingle.wav
475,192,177287,1,0,0:0:0:60:kick.wav
182,192,177463,1,0,0:0:0:75:hihat.wav
36,192,177640,1,0,0:0:0:75:hihat.wav
109,192,177640,1,0,0:0:0:60:kick.wav
329,192,177728,1,0,0:0:0:75:hihat.wav
256,192,177816,1,0,0:0:0:75:hihat.wav
182,192,177905,1,0,0:0:0:75:hihat.wav
36,192,177993,1,0,0:0:0:60:kick.wav
475,192,177993,1,0,0:0:0:75:hihat.wav
109,192,177993,128,0,178699:0:0:0:75:jingle.wav
329,192,178169,1,0,0:0:0:75:hihat.wav
182,192,178346,1,0,0:0:0:60:kick.wav
402,192,178346,1,0,0:0:0:75:hihat.wav
475,192,178522,1,0,0:0:0:75:hihat.wav
36,192,178699,1,0,0:0:0:60:kick.wav
256,192,178699,128,0,179405:0:0:0:75:jingle.wav
329,192,178699,1,0,0:0:0:75:hihat.wav
109,192,178875,1,0,0:0:0:75:hihat.wav
475,192,179052,1,0,0:0:0:60:kick.wav
182,192,179052,1,0,0:0:0:75:hihat.wav
402,192,179228,1,0,0:0:0:75:hihat.wav
329,192,179405,128,0,180110:0:0:0:75:jingle.wav
36,192,179405,1,0,0:0:0:60:kick.wav
182,192,179405,1,0,0:0:0:75:hihat.wav
402,192,179581,1,0,0:0:0:75:hihat.wav
475,192,179758,1,0,0:0:0:60:kick.wav
109,192,179758,1,0,0:0:0:75:hihat.wav
36,192,179934,1,0,0:0:0:75:hihat.wav
182,192,180110,1,0,0:0:0:60:kick.wav
402,192,180110,1,0,0:0:0:75:hihat.wav
475,192,180110,128,0,180816:0:0:0:75:jingle.wav
256,192,180287,1,0,0:0:0:75:hihat.wav
329,192,180463,1,0,0:0:0:75:hihat.wav
36,192,180463,1,0,0:0:0:60:kick.wav
109,192,180552,1,0,0:0:0:75:hihat.wav
182,192,180640,1,0,0:0:0:75:hihat.wav
256,192,180728,1,0,0:0:0:75:hihat.wav
402,192,180816,1,4,1:0:0:90:
36,192,180816,1,0,0:0:0:75:jingle.wav
109,192,180816,1,0,0:0:0:75:finish2.wav
329,192,180816,1,0,0:0:0:60:kick.wav
182,192,180993,1,0,0:0:0:90:hihat.wav
329,192,181169,1,0,0:0:0:60:hihat.wav
475,192,181169,1,0,0:0:0:75:jingle.wav
182,192,181346,1,0,0:0:0:90:hihat.wav
36,192,181522,1,0,0:0:0:60:hihat.wav
256,192,181699,1,0,0:0:0:90:hihat.wav
402,192,181875,1,0,0:0:0:75:jingle.wav
475,192,181875,1,0,0:0:0:60:hihat.wav
256,192,182052,1,0,0:0:0:60:hihat.wav
36,192,182228,1,0,0:0:0:60:hihat.wav
329,192,182405,1,0,0:0:0:90:hihat.wav
475,192,182581,1,0,0:0:0:60:hihat.wav
182,192,182581,1,0,0:0:0:75:jingle.wav
329,192,182758,1,0,0:0:0:90:hihat.wav
36,192,182934,1,0,0:0:0:60:hihat.wav
182,192,183110,1,0,0:0:0:90:hihat.wav
329,192,183287,1,0,0:0:0:75:jingle.wav
256,192,183375,1,0,0:0:0:75:jingle.wav
182,192,183463,1,0,0:0:0:75:jingle.wav
109,192,183552,1,0,0:0:0:75:jingle.wav
475,192,183640,1,0,0:0:0:60:hihat.wav
329,192,183816,1,0,0:0:0:90:hihat.wav
182,192,183993,1,0,0:0:0:60:hihat.wav
36,192,183993,1,0,0:0:0:75:jingle.wav
329,192,184169,1,0,0:0:0:90:hihat.wav
475,192,184346,1,0,0:0:0:60:hihat.wav
256,192,184522,1,0,0:0:0:90:hihat.wav
109,192,184699,1,0,0:0:0:75:jingle.wav
36,192,184699,1,0,0:0:0:60:hihat.wav
256,192,184875,1,0,0:0:0:60:hihat.wav
475,192,185052,1,0,0:0:0:60:hihat.wav
182,192,185228,1,0,0:0:0:90:hihat.wav
36,192,185405,1,0,0:0:0:60:hihat.wav
329,192,185405,1,0,0:0:0:75:jingle.wav
182,192,185581,1,0,0:0:0:90:hihat.wav
475,192,185758,1,0,0:0:0:60:hihat.wav
329,192,185934,1,0,0:0:0:90:hihat.wav
182,192,186110,1,0,0:0:0:75:jingle.wav
256,192,186199,1,0,0:0:0:75:jingle.wav
329,192,186287,1,0,0:0:0:75:jingle.wav
402,192,186375,1,0,0:0:0:75:jingle.wav
36,192,186463,1,0,0:0:0:60:hihat.wav
182,192,186640,1,0,0:0:0:90:hihat.wav
402,192,186816,1,0,0:0:0:60:hihat.wav
475,192,186816,1,0,0:0:0:75:jingle.wav
256,192,186993,1,0,0:0:0:90:hihat.wav
109,192,187169,1,0,0:0:0:60:hihat.wav
329,192,187346,1,0,0:0:0:90:hihat.wav
475,192,187522,1,0,0:0:0:60:hihat.wav
36,192,187522,1,0,0:0:0:75:jingle.wav
182,192,187699,1,0,0:0:0:90:hihat.wav
475,192,187875,1,0,0:0:0:34:kick.wav
329,192,187963,1,0,0:0:0:35:kick.wav
36,192,188052,1,0,0:0:0:36:kick.wav
182,192,188140,1,0,0:0:0:37:kick.wav
256,192,188228,1,0,0:0:0:75:jingle.wav
475,192,188228,1,0,0:0:0:38:kick.wav
329,192,188316,1,0,0:0:0:39:kick.wav
36,192,188405,1,0,0:0:0:40:kick.wav
182,192,188493,1,0,0:0:0:41:kick.wav
402,192,188581,1,0,0:0:0:42:kick.wav
329,192,188669,1,0,0:0:0:43:kick.wav
109,192,188758,1,0,0:0:0:44:kick.wav
182,192,188846,1,0,0:0:0:45:kick.wav
475,192,188934,1,0,0:0:0:46:kick.wav
402,192,188934,1,0,0:0:0:75:jingle.wav
329,192,189022,1,0,0:0:0:47:kick.wav
36,192,189110,1,0,0:0:0:75:jingle.wav
109,192,189110,1,0,0:0:0:48:kick.wav
182,192,189199,1,0,0:0:0:49:kick.wav
475,192,189287,1,0,0:0:0:50:kick.wav
329,192,189375,1,0,0:0:0:50:kick.wav
36,192,189463,1,0,0:0:0:50:kick.wav
182,192,189552,1,0,0:0:0:50:kick.wav
475,192,189640,1,0,0:0:0:50:kick.wav
256,192,189640,1,0,0:0:0:75:jingle.wav
329,192,189728,1,0,0:0:0:50:kick.wav
36,192,189816,1,0,0:0:0:50:kick.wav
182,192,189905,1,0,0:0:0:50:kick.wav
475,192,189993,1,0,0:0:0:50:kick.wav
402,192,190081,1,0,0:0:0:50:kick.wav
36,192,190169,1,0,0:0:0:50:kick.wav
109,192,190258,1,0,0:0:0:50:kick.wav
475,192,190346,1,0,0:0:0:50:kick.wav
256,192,190346,1,0,0:0:0:75:jingle.wav
329,192,190434,1,0,0:0:0:50:kick.wav
36,192,190522,1,0,0:0:0:50:kick.wav
182,192,190610,1,0,0:0:0:50:kick.wav
256,192,190699,128,0,192110:0:0:0:60:kick.wav
329,192,190699,1,0,0:0:0:60:hihat.wav
402,192,190787,1,0,0:0:0:60:hihat.wav
182,192,190875,1,0,0:0:0:90:hihat.wav
109,192,190963,1,0,0:0:0:60:hihat.wav
475,192,191052,1,0,0:0:0:75:jingle.wav
402,192,191140,1,0,0:0:0:60:hihat.wav
36,192,191228,1,0,0:0:0:90:hihat.wav
109,192,191316,1,0,0:0:0:60:hihat.wav
475,192,191405,1,0,0:0:0:75:jingle.wav
402,192,191493,1,0,0:0:0:75:jingle.wav
329,192,191581,1,0,0:0:0:75:jingle.wav
182,192,191669,1,0,0:0:0:75:jingle.wav
109,192,191758,1,0,0:0:0:75:jingle.wav
36,192,191846,1,0,0:0:0:75:jingle.wav
329,192,191934,1,0,0:0:0:75:jingle.wav
182,192,192022,1,0,0:0:0:75:jingle.wav
402,192,192110,1,0,0:0:0:75:jingle.wav
109,192,192110,1,0,0:0:0:75:hihat.wav
36,192,192110,128,4,197758:1:0:0:90:
475,192,192110,128,0,197758:0:0:0:75:finish2.wav
329,192,192463,1,0,0:0:0:74:hihat.wav
256,192,192816,1,0,0:0:0:73:hihat.wav
182,192,192993,1,0,0:0:0:73:hihat.wav
402,192,193169,1,0,0:0:0:72:hihat.wav
109,192,193346,1,0,0:0:0:72:hihat.wav
329,192,193522,1,0,0:0:0:71:hihat.wav
182,192,193875,1,0,0:0:0:70:hihat.wav
256,192,194228,1,0,0:0:0:69:hihat.wav
402,192,194405,1,0,0:0:0:69:hihat.wav
329,192,194581,1,0,0:0:0:68:hihat.wav
182,192,194758,1,0,0:0:0:68:hihat.wav
109,192,194934,1,0,0:0:0:67:hihat.wav
329,192,195287,1,0,0:0:0:66:hihat.wav
256,192,195640,1,0,0:0:0:65:hihat.wav
402,192,195816,1,0,0:0:0:65:hihat.wav
182,192,195993,1,0,0:0:0:64:hihat.wav
109,192,196169,1,0,0:0:0:64:hihat.wav
329,192,196346,1,0,0:0:0:63:hihat.wav
256,192,196699,1,0,0:0:0:62:hihat.wav
182,192,197052,1,0,0:0:0:61:hihat.wav
402,192,197228,1,0,0:0:0:61:hihat.wav
329,192,197405,1,0,0:0:0:61:hihat.wav
256,192,197581,1,0,0:0:0:61:hihat.wav
109,192,197758,1,0,0:0:0:60:hihat.wav
256,192,197934,1,0,0:0:0:75:hihat.wav
329,192,198110,128,0,198463:0:0:0:60:jingle.wav
182,192,198287,1,0,0:0:0:75:hihat.wav
475,192,198463,128,0,198816:0:0:0:60:jingle.wav
36,192,198640,1,0,0:0:0:75:hihat.wav
402,192,198816,128,0,199346:0:0:0:60:jingle.wav
109,192,198993,1,0,0:0:0:75:hihat.wav
329,192,199346,1,0,0:0:0:60:jingle.wav
182,192,199346,1,0,0:0:0:75:hihat.wav
109,192,199522,128,0,199875:0:0:0:60:jingle.wav
402,192,199699,1,0,0:0:0:75:hihat.wav
36,192,199875,128,0,200228:0:0:0:60:jingle.wav
475,192,200052,1,0,0:0:0:75:hihat.wav
182,192,200228,128,0,200934:0:0:0:60:jingle.wav
402,192,200405,1,0,0:0:0:75:hihat.wav
329,192,200758,1,0,0:0:0:75:hihat.wav
256,192,200934,128,0,201287:0:0:0:60:jingle.wav
109,192,201110,1,0,0:0:0:75:hihat.wav
402,192,201463,1,0,0:0:0:75:hihat.wav
36,192,201816,1,0,0:0:0:75:hihat.wav
182,192,201993,128,0,202346:0:0:0:60:jingle.wav
329,192,202169,1,0,0:0:0:75:hihat.wav
475,192,202346,128,0,202699:0:0:0:60:jingle.wav
36,192,202522,1,0,0:0:0:75:hihat.wav
329,192,202699,128,0,203052:0:0:0:60:jingle.wav
182,192,202875,1,0,0:0:0:75:hihat.wav
36,192,203052,128,0,203405:0:0:0:60:jingle.wav
475,192,203228,1,0,0:0:0:75:hihat.wav
182,192,203581,1,0,0:0:0:75:hihat.wav
329,192,203758,128,0,204110:0:0:0:60:jingle.wav
36,192,203934,1,0,0:0:0:75:hihat.wav
182,192,204110,128,0,204463:0:0:0:60:jingle.wav
475,192,204287,1,0,0:0:0:75:hihat.wav
109,192,204463,128,0,205169:0:0:0:60:jingle.wav
329,192,204640,1,0,0:0:0:75:hihat.wav
402,192,204993,1,0,0:0:0:75:hihat.wav
182,192,205169,128,0,205522:0:0:0:60:jingle.wav
475,192,205346,1,0,0:0:0:75:hihat.wav
329,192,205522,128,0,205875:0:0:0:60:jingle.wav
36,192,205699,1,0,0:0:0:75:hihat.wav
402,192,205875,128,0,206228:0:0:0:60:jingle.wav
109,192,206052,1,0,0:0:0:75:hihat.wav
256,192,206405,1,0,0:0:0:75:hihat.wav
182,192,206581,128,0,206934:0:0:0:60:jingle.wav
402,192,206758,1,0,0:0:0:75:hihat.wav
329,192,206934,128,0,207287:0:0:0:60:jingle.wav
109,192,207110,1,0,0:0:0:75:hihat.wav
256,192,207287,128,0,209052:0:0:0:60:jingle.wav
36,192,207463,1,0,0:0:0:75:hihat.wav
475,192,207816,1,0,0:0:0:75:hihat.wav
109,192,208169,1,0,0:0:0:75:hihat.wav
402,192,208522,1,0,0:0:0:75:hihat.wav
182,192,208875,1,0,0:0:0:75:hihat.wav
329,192,209052,1,0,0:0:0:18:snare.wav
402,192,209228,1,0,0:0:0:18:snare.wav
182,192,209405,1,0,0:0:0:19:snare.wav
36,192,209405,128,0,209758:0:0:0:60:jingle.wav
329,192,209581,1,0,0:0:0:20:snare.wav
475,192,209758,128,0,210110:0:0:0:60:jingle.wav
256,192,209758,1,0,0:0:0:20:snare.wav
109,192,209934,1,0,0:0:0:21:snare.wav
182,192,210110,1,0,0:0:0:22:snare.wav
256,192,210110,128,0,211875:0:0:0:60:jingle.wav
329,192,210287,1,0,0:0:0:22:snare.wav
36,192,210463,1,0,0:0:0:23:snare.wav
475,192,210640,1,0,0:0:0:24:snare.wav
109,192,210816,1,0,0:0:0:24:snare.wav
402,192,210993,1,0,0:0:0:25:snare.wav
182,192,211169,1,0,0:0:0:26:snare.wav
329,192,211346,1,0,0:0:0:26:snare.wav
36,192,211522,1,0,0:0:0:27:snare.wav
475,192,211699,1,0,0:0:0:28:snare.wav
109,192,211875,1,0,0:0:0:28:snare.wav
329,192,212052,1,0,0:0:0:29:snare.wav
182,192,212228,1,0,0:0:0:30:snare.wav
36,192,212228,128,0,212581:0:0:0:60:jingle.wav
402,192,212405,1,0,0:0:0:30:snare.wav
109,192,212581,1,0,0:0:0:31:snare.wav
475,192,212581,128,0,212934:0:0:0:60:jingle.wav
329,192,212758,1,0,0:0:0:32:snare.wav
182,192,212934,1,0,0:0:0:32:snare.wav
256,192,212934,128,0,214699:0:0:0:60:jingle.wav
402,192,213110,1,0,0:0:0:33:snare.wav
475,192,213287,1,0,0:0:0:50:finish1.wav
36,192,213287,1,0,0:0:0:0:
109,192,213463,1,8,3:0:0:40:
182,192,213640,1,4,3:0:0:30:
329,192,213816,1,4,3:0:0:30:
109,192,213993,1,0,0:0:0:0:
402,192,213993,1,8,3:0:0:40:
109,192,214346,1,0,0:0:0:0:
402,192,214346,1,8,3:0:0:40:
36,192,214699,1,4,1:0:0:90:
329,192,214699,1,0,0:0:0:75:hihat.wav
182,192,214699,1,0,0:0:0:60:kick.wav
475,192,214699,1,0,0:0:0:75:finish2.wav
256,192,214875,1,0,0:0:0:75:hihat.wav
329,192,215052,1,0,0:0:0:75:jingle.wav
36,192,215052,1,0,0:0:0:60:kick.wav
402,192,215052,1,0,0:0:0:75:hihat.wav
256,192,215228,1,0,0:0:0:75:hihat.wav
109,192,215405,1,0,0:0:0:60:kick.wav
36,192,215405,1,0,0:0:0:75:hihat.wav
182,192,215581,1,0,0:0:0:75:hihat.wav
36,192,215758,1,0,0:0:0:75:jingle.wav
329,192,215758,1,0,0:0:0:75:hihat.wav
475,192,215758,1,0,0:0:0:60:kick.wav
256,192,215934,1,0,0:0:0:75:hihat.wav
109,192,216110,1,0,0:0:0:60:kick.wav
36,192,216110,1,0,0:0:0:75:hihat.wav
329,192,216287,1,0,0:0:0:75:hihat.wav
402,192,216463,1,0,0:0:0:75:jingle.wav
36,192,216463,1,0,0:0:0:60:kick.wav
475,192,216463,1,0,0:0:0:75:hihat.wav
256,192,216640,1,0,0:0:0:75:hihat.wav
182,192,216816,1,0,0:0:0:75:hihat.wav
36,192,216816,1,0,0:0:0:60:kick.wav
329,192,216993,1,0,0:0:0:75:hihat.wav
109,192,217169,1,0,0:0:0:60:kick.wav
36,192,217169,1,0,0:0:0:75:jingle.wav
475,192,217169,1,0,0:0:0:75:hihat.wav
402,192,217258,1,0,0:0:0:75:hihat.wav
329,192,217346,1,0,0:0:0:75:hihat.wav
256,192,217434,1,0,0:0:0:75:hihat.wav
182,192,217522,1,0,0:0:0:60:kick.wav
475,192,217522,1,0,0:0:0:75:hihat.wav
329,192,217699,1,0,0:0:0:75:hihat.wav
182,192,217875,1,0,0:0:0:75:jingle.wav
402,192,217875,1,0,0:0:0:60:kick.wav
36,192,217875,1,0,0:0:0:75:hihat.wav
256,192,218052,1,0,0:0:0:75:hihat.wav
182,192,218228,1,0,0:0:0:60:kick.wav
402,192,218228,1,0,0:0:0:75:hihat.wav
329,192,218405,1,0,0:0:0:75:hihat.wav
182,192,218581,1,0,0:0:0:60:kick.wav
109,192,218581,1,0,0:0:0:75:jingle.wav
475,192,218581,1,0,0:0:0:75:hihat.wav
402,192,218758,1,0,0:0:0:75:hihat.wav
182,192,218934,1,0,0:0:0:60:kick.wav
36,192,218934,1,0,0:0:0:75:hihat.wav
329,192,219110,1,0,0:0:0:75:hihat.wav
475,192,219287,1,0,0:0:0:75:jingle.wav
182,192,219287,1,0,0:0:0:60:kick.wav
256,192,219287,1,0,0:0:0:75:hihat.wav
109,192,219463,1,0,0:0:0:75:hihat.wav
182,192,219640,1,0,0:0:0:60:kick.wav
329,192,219640,1,0,0:0:0:75:hihat.wav
402,192,219816,1,0,0:0:0:75:hihat.wav
475,192,219993,1,0,0:0:0:75:jingle.wav
36,192,219993,1,0,0:0:0:60:kick.wav
182,192,219993,1,0,0:0:0:75:hihat.wav
256,192,220081,1,0,0:0:0:75:hihat.wav
329,192,220169,1,0,0:0:0:75:hihat.wav
109,192,220258,1,0,0:0:0:75:hihat.wav
402,192,220346,1,0,0:0:0:60:kick.wav
36,192,220346,1,0,0:0:0:75:hihat.wav
256,192,220522,1,0,0:0:0:75:hihat.wav
36,192,220699,1,0,0:0:0:75:jingle.wav
329,192,220699,1,0,0:0:0:75:hihat.wav
402,192,220699,1,0,0:0:0:60:kick.wav
109,192,220875,1,0,0:0:0:75:hihat.wav
402,192,221052,1,0,0:0:0:60:kick.wav
256,192,221052,1,0,0:0:0:75:hihat.wav
182,192,221228,1,0,0:0:0:75:hihat.wav
402,192,221405,1,0,0:0:0:60:kick.wav
475,192,221405,1,0,0:0:0:75:hihat.wav
109,192,221405,1,0,0:0:0:75:jingle.wav
256,192,221581,1,0,0:0:0:75:hihat.wav
402,192,221758,1,0,0:0:0:60:kick.wav
36,192,221758,1,0,0:0:0:75:hihat.wav
182,192,221934,1,0,0:0:0:75:hihat.wav
475,192,222110,1,0,0:0:0:75:hihat.wav
402,192,222110,1,0,0:0:0:75:jingle.wav
256,192,222110,1,0,0:0:0:60:kick.wav
109,192,222287,1,0,0:0:0:75:hihat.wav
329,192,222463,1,0,0:0:0:75:hihat.wav
402,192,222463,1,0,0:0:0:60:kick.wav
256,192,222640,1,0,0:0:0:75:hihat.wav
182,192,222816,1,0,0:0:0:75:jingle.wav
36,192,222816,1,0,0:0:0:60:kick.wav
402,192,222816,1,0,0:0:0:75:hihat.wav
329,192,222905,1,0,0:0:0:75:hihat.wav
256,192,222993,1,0,0:0:0:75:hihat.wav
182,192,223081,1,0,0:0:0:75:hihat.wav
475,192,223169,1,0,0:0:0:75:hihat.wav
109,192,223169,1,0,0:0:0:60:kick.wav
329,192,223346,1,0,0:0:0:75:hihat.wav
36,192,223522,1,0,0:0:0:75:hihat.wav
402,192,223522,1,0,0:0:0:75:jingle.wav
109,192,223522,1,0,0:0:0:60:kick.wav
256,192,223699,1,0,0:0:0:75:hihat.wav
109,192,223875,1,0,0:0:0:60:kick.wav
402,192,223875,1,0,0:0:0:75:hihat.wav
329,192,224052,1,0,0:0:0:75:hihat.wav
182,192,224228,1,0,0:0:0:75:jingle.wav
475,192,224228,1,0,0:0:0:75:hihat.wav
109,192,224228,1,0,0:0:0:60:kick.wav
402,192,224405,1,0,0:0:0:75:hihat.wav
329,192,224581,1,0,0:0:0:75:hihat.wav
109,192,224581,1,0,0:0:0:60:kick.wav
182,192,224758,1,0,0:0:0:75:hihat.wav
256,192,224934,1,0,0:0:0:75:hihat.wav
475,192,224934,1,0,0:0:0:75:jingle.wav
109,192,224934,1,0,0:0:0:60:kick.wav
402,192,225110,1,0,0:0:0:75:hihat.wav
36,192,225287,1,0,0:0:0:60:kick.wav
109,192,225287,1,0,0:0:0:75:hihat.wav
256,192,225463,1,0,0:0:0:75:hihat.wav
402,192,225640,1,0,0:0:0:75:hihat.wav
109,192,225640,1,0,0:0:0:60:kick.wav
329,192,225640,1,0,0:0:0:75:jingle.wav
182,192,225728,1,0,0:0:0:75:hihat.wav
256,192,225816,1,0,0:0:0:75:hihat.wav
329,192,225905,1,0,0:0:0:75:hihat.wav
475,192,225993,1,0,0:0:0:75:hihat.wav
36,192,225993,1,0,0:0:0:60:kick.wav
109,192,226169,1,0,0:0:0:75:hihat.wav
182,192,226346,1,0,0:0:0:75:hihat.wav
475,192,226346,1,0,0:0:0:75:jingle.wav
329,192,226346,1,0,0:0:0:60:kick.wav
36,192,226522,1,0,0:0:0:75:hihat.wav
475,192,226699,1,0,0:0:0:75:hihat.wav
256,192,226699,1,0,0:0:0:60:kick.wav
109,192,226875,1,0,0:0:0:75:hihat.wav
182,192,227052,1,0,0:0:0:75:hihat.wav
475,192,227052,1,0,0:0:0:75:jingle.wav
402,192,227052,1,0,0:0:0:60:kick.wav
36,192,227228,1,0,0:0:0:75:hihat.wav
475,192,227405,1,0,0:0:0:75:hihat.wav
329,192,227405,1,0,0:0:0:60:kick.wav
109,192,227581,1,0,0:0:0:75:hihat.wav
256,192,227758,1,0,0:0:0:60:kick.wav
475,192,227758,1,0,0:0:0:75:jingle.wav
402,192,227758,1,0,0:0:0:75:hihat.wav
182,192,227934,1,0,0:0:0:75:hihat.wav
36,192,228110,1,0,0:0:0:75:hihat.wav
475,192,228110,1,0,0:0:0:60:kick.wav
329,192,228287,1,0,0:0:0:75:hihat.wav
36,192,228463,1,0,0:0:0:60:kick.wav
475,192,228463,1,0,0:0:0:75:hihat.wav
182,192,228463,1,0,0:0:0:75:jingle.wav
402,192,228552,1,0,0:0:0:75:hihat.wav
256,192,228640,1,0,0:0:0:75:hihat.wav
109,192,228728,1,0,0:0:0:75:hihat.wav
36,192,228816,1,0,0:0:0:75:hihat.wav
329,192,228816,1,0,0:0:0:60:kick.wav
182,192,228993,1,0,0:0:0:75:hihat.wav
329,192,229169,1,0,0:0:0:60:kick.wav
402,192,229169,1,0,0:0:0:75:jingle.wav
109,192,229169,1,0,0:0:0:75:hihat.wav
256,192,229346,1,0,0:0:0:75:hihat.wav
329,192,229522,1,0,0:0:0:60:kick.wav
36,192,229522,1,0,0:0:0:75:hihat.wav
182,192,229699,1,0,0:0:0:75:hihat.wav
109,192,229875,1,0,0:0:0:75:jingle.wav
329,192,229875,1,0,0:0:0:60:kick.wav
475,192,229875,1,0,0:0:0:75:hihat.wav
256,192,230052,1,0,0:0:0:75:hihat.wav
36,192,230228,1,0,0:0:0:75:hihat.wav
329,192,230228,1,0,0:0:0:60:kick.wav
182,192,230405,1,0,0:0:0:75:hihat.wav
256,192,230581,1,0,0:0:0:75:jingle.wav
475,192,230581,1,0,0:0:0:75:hihat.wav
329,192,230581,1,0,0:0:0:60:kick.wav
109,192,230758,1,0,0:0:0:75:hihat.wav
36,192,230934,1,0,0:0:0:75:hihat.wav
329,192,230934,1,0,0:0:0:60:kick.wav
182,192,231110,1,0,0:0:0:75:hihat.wav
109,192,231287,1,0,0:0:0:75:hihat.wav
36,192,231287,1,0,0:0:0:75:jingle.wav
329,192,231287,1,0,0:0:0:60:kick.wav
402,192,231375,1,0,0:0:0:75:hihat.wav
475,192,231463,1,0,0:0:0:75:hihat.wav
256,192,231552,1,0,0:0:0:75:hihat.wav
182,192,231640,1,0,0:0:0:75:hihat.wav
402,192,231640,1,0,0:0:0:60:kick.wav
329,192,231816,1,0,0:0:0:60:kick.wav
109,192,231816,1,0,0:0:0:75:hihat.wav
475,192,231993,1,0,0:0:0:60:kick.wav
182,192,231993,1,0,0:0:0:75:hihat.wav
36,192,231993,1,0,0:0:0:75:jingle.wav
256,192,232169,1,0,0:0:0:75:hihat.wav
402,192,232169,1,0,0:0:0:60:kick.wav
109,192,232346,1,0,0:0:0:75:hihat.wav
329,192,232346,1,0,0:0:0:60:kick.wav
402,192,232522,1,0,0:0:0:75:hihat.wav
182,192,232522,1,0,0:0:0:60:kick.wav
256,192,232699,1,0,0:0:0:75:hihat.wav
475,192,232699,1,0,0:0:0:75:jingle.wav
36,192,232699,1,0,0:0:0:60:kick.wav
402,192,232875,1,0,0:0:0:60:kick.wav
109,192,232875,1,0,0:0:0:75:hihat.wav
329,192,233052,1,0,0:0:0:60:kick.wav
182,192,233052,1,0,0:0:0:75:hihat.wav
109,192,233228,1,0,0:0:0:75:hihat.wav
402,192,233228,1,0,0:0:0:60:kick.wav
256,192,233405,1,0,0:0:0:60:kick.wav
36,192,233405,1,0,0:0:0:75:jingle.wav
475,192,233405,1,0,0:0:0:75:hihat.wav
182,192,233581,1,0,0:0:0:60:kick.wav
402,192,233581,1,0,0:0:0:75:hihat.wav
109,192,233758,1,0,0:0:0:60:kick.wav
329,192,233758,1,0,0:0:0:75:hihat.wav
182,192,233934,1,0,0:0:0:60:kick.wav
402,192,233934,1,0,0:0:0:75:hihat.wav
36,192,234110,1,0,0:0:0:60:kick.wav
256,192,234110,1,0,0:0:0:75:jingle.wav
475,192,234110,1,0,0:0:0:75:hihat.wav
402,192,234199,1,0,0:0:0:75:hihat.wav
109,192,234287,1,0,0:0:0:60:kick.wav
329,192,234287,1,0,0:0:0:75:hihat.wav
256,192,234375,1,0,0:0:0:75:hihat.wav
475,192,234463,1,0,0:0:0:50:kick.wav
36,192,234463,1,0,0:0:0:0:
182,192,234552,1,0,0:0:0:50:kick.wav
329,192,234640,1,0,0:0:0:50:kick.wav
182,192,234728,1,0,0:0:0:50:kick.wav
36,192,234816,1,0,0:0:0:50:kick.wav
475,192,234816,1,0,0:0:0:75:jingle.wav
329,192,234905,1,0,0:0:0:50:kick.wav
182,192,234993,1,0,0:0:0:50:kick.wav
329,192,235081,1,0,0:0:0:50:kick.wav
475,192,235169,1,0,0:0:0:50:kick.wav
36,192,235169,1,0,0:0:0:0:
182,192,235258,1,0,0:0:0:50:kick.wav
329,192,235346,1,0,0:0:0:50:kick.wav
182,192,235434,1,0,0:0:0:50:kick.wav
36,192,235522,1,0,0:0:0:50:kick.wav
475,192,235522,1,0,0:0:0:75:jingle.wav
329,192,235610,1,0,0:0:0:50:kick.wav
182,192,235699,1,0,0:0:0:50:kick.wav
329,192,235787,1,0,0:0:0:50:kick.wav
256,192,235875,128,0,237287:0:0:0:60:kick.wav
475,192,235875,1,0,0:0:0:75:hihat.wav
36,192,235875,1,0,0:0:0:75:jingle.wav
182,192,235963,1,0,0:0:0:75:hihat.wav
329,192,236052,1,0,0:0:0:75:hihat.wav
109,192,236140,1,0,0:0:0:75:hihat.wav
475,192,236228,1,0,0:0:0:75:jingle.wav
36,192,236316,1,0,0:0:0:75:hihat.wav
402,192,236405,1,0,0:0:0:75:hihat.wav
109,192,236493,1,0,0:0:0:75:hihat.wav
475,192,236581,1,0,0:0:0:75:jingle.wav
329,192,236669,1,0,0:0:0:75:jingle.wav
182,192,236758,1,0,0:0:0:75:jingle.wav
36,192,236846,1,0,0:0:0:75:jingle.wav
475,192,236934,1,0,0:0:0:75:jingle.wav
329,192,237022,1,0,0:0:0:75:jingle.wav
182,192,237110,1,0,0:0:0:75:jingle.wav
109,192,237199,1,0,0:0:0:75:jingle.wav
402,192,237287,1,4,1:0:0:90:
36,192,237287,1,0,0:0:0:75:finish2.wav
329,192,237287,128,0,238346:0:0:0:75:jingle.wav
475,192,237287,1,0,0:0:0:60:kick.wav
182,192,237463,1,0,0:0:0:75:hihat.wav
109,192,237728,1,0,0:0:0:74:hihat.wav
36,192,237993,1,0,0:0:0:73:hihat.wav
182,192,238169,1,0,0:0:0:73:hihat.wav
109,192,238346,1,0,0:0:0:73:jingle.wav
475,192,238346,1,0,0:0:0:72:hihat.wav
329,192,238522,128,0,239405:0:0:0:70:jingle.wav
256,192,238522,1,0,0:0:0:72:hihat.wav
36,192,238699,1,0,0:0:0:71:hihat.wav
402,192,238875,1,0,0:0:0:71:hihat.wav
182,192,239140,1,0,0:0:0:70:hihat.wav
475,192,239405,128,0,240110:0:0:0:67:jingle.wav
256,192,239405,1,0,0:0:0:69:hihat.wav
36,192,239581,1,0,0:0:0:69:hihat.wav
329,192,239758,1,0,0:0:0:68:hihat.wav
109,192,239934,1,0,0:0:0:68:hihat.wav
182,192,240110,128,0,241169:0:0:0:64:jingle.wav
402,192,240110,1,0,0:0:0:67:hihat.wav
329,192,240287,1,0,0:0:0:66:hihat.wav
256,192,240552,1,0,0:0:0:64:hihat.wav
109,192,240816,1,0,0:0:0:62:hihat.wav
329,192,240993,1,0,0:0:0:61:hihat.wav
36,192,241169,1,0,0:0:0:61:jingle.wav
475,192,241169,1,0,0:0:0:59:hihat.wav
182,192,241346,128,0,242934:0:0:0:58:jingle.wav
402,192,241346,1,0,0:0:0:57:hihat.wav
329,192,241522,1,0,0:0:0:55:hihat.wav
36,192,241699,1,0,0:0:0:54:hihat.wav
402,192,241963,1,0,0:0:0:52:hihat.wav
109,192,242228,1,0,0:0:0:50:hihat.wav
475,192,242405,1,0,0:0:0:49:hihat.wav
402,192,242581,1,0,0:0:0:47:hihat.wav
329,192,242758,1,0,0:0:0:46:hihat.wav
36,192,242934,128,0,243640:0:0:0:55:jingle.wav
256,192,242934,1,0,0:0:0:45:hihat.wav
402,192,243287,1,0,0:0:0:43:hihat.wav
109,192,243640,128,0,244346:0:0:0:52:jingle.wav
329,192,243640,1,0,0:0:0:40:hihat.wav
475,192,243993,1,0,0:0:0:37:hihat.wav
256,192,244346,128,0,245052:0:0:0:49:jingle.wav
182,192,244346,1,0,0:0:0:33:hihat.wav
36,192,244699,1,0,0:0:0:31:hihat.wav
402,192,245052,128,0,245758:0:0:0:46:jingle.wav
109,192,245052,1,0,0:0:0:28:hihat.wav
182,192,245405,1,0,0:0:0:25:hihat.wav
109,192,245758,128,0,246463:0:0:0:43:jingle.wav
329,192,245758,1,0,0:0:0:23:hihat.wav
182,192,246463,128,0,247169:0:0:0:40:jingle.wav
402,192,246463,1,0,0:0:0:21:hihat.wav
329,192,247169,128,0,247875:0:0:0:37:jingle.wav
36,192,247169,1,0,0:0:0:20:hihat.wav
475,192,247875,128,0,248581:0:0:0:34:jingle.wav
402,192,248581,128,0,249640:0:0:0:30:jingle.wav
182,192,248581,1,0,0:0:0:0:
329,192,249640,1,0,0:0:0:30:jingle.wav
402,192,249816,128,0,250699:0:0:0:30:jingle.wav
36,192,249993,1,0,0:0:0:0:
475,192,250699,128,0,251405:0:0:0:30:jingle.wav
109,192,251405,128,0,252463:0:0:0:30:jingle.wav
329,192,251405,1,0,0:0:0:0:
182,192,252463,1,0,0:0:0:30:jingle.wav
109,192,252640,128,0,254228:0:0:0:30:jingle.wav
475,192,252816,1,0,0:0:0:0:
36,192,254228,128,0,254934:0:0:0:30:jingle.wav
329,192,254228,1,0,0:0:0:0:
182,192,254934,128,0,255640:0:0:0:30:jingle.wav
402,192,255640,128,0,256346:0:0:0:30:jingle.wav
475,192,255640,1,0,0:0:0:0:
182,192,256346,128,0,257052:0:0:0:30:jingle.wav
402,192,257052,128,0,257758:0:0:0:30:jingle.wav
36,192,257052,1,0,0:0:0:0:
475,192,257758,128,0,258110:0:0:0:30:jingle.wav
329,192,258110,128,0,258463:0:0:0:30:jingle.wav
109,192,258463,128,0,259169:0:0:0:30:jingle.wav
182,192,258463,1,0,0:0:0:0:
256,192,259169,128,0,259875:0:0:0:30:jingle.wav
402,192,259875,128,4,265522:1:0:0:90:
109,192,259875,128,0,265522:0:0:0:50:finish1.wav
475,192,259875,1,0,0:0:0:75:finish2.wav
36,192,259875,1,0,0:0:0:75:hihat.wav
