osu file format v14

[General]
AudioFilename: Just Hold on (To All Fighters) void.mp3
AudioLeadIn: 0
PreviewTime: 145522
Countdown: 0
SampleSet: Soft
StackLeniency: 0.7
Mode: 3
LetterboxInBreaks: 0
SpecialStyle: 0
WidescreenStoryboard: 0

[Editor]
DistanceSpacing: 1
BeatDivisor: 2
GridSize: 4
TimelineZoom: 0.8999989

[Metadata]
Title:Just Hold on (To All Fighters)
TitleUnicode:Just Hold on (To All Fighters)
Artist:void
ArtistUnicode:void
Creator:Blocko
Version:Easy
Source:
Tags:the diverse system pump it up prime 2015 hard trance expew soul evans collab collaboration
BeatmapID:888792
BeatmapSetID:409440

[Difficulty]
HPDrainRate:6.5
CircleSize:7
OverallDifficulty:6.5
ApproachRate:7
SliderMultiplier:1.4
SliderTickRate:1

[Events]
//Background and Video events
0,0,"justholdon_bg.jpg",0,0
//Break Periods
//Storyboard Layer 0 (Background)
//Storyboard Layer 1 (Fail)
//Storyboard Layer 2 (Pass)
//Storyboard Layer 3 (Foreground)
//Storyboard Sound Samples

[TimingPoints]
111,352.941176470588,4,2,0,15,1,0
5758,-100,4,2,0,17,0,0
8581,-100,4,2,0,19,0,0
11405,-100,4,2,0,21,0,0
14228,-100,4,2,0,23,0,0
17052,-100,4,2,0,24,0,0
19875,-100,4,2,0,25,0,0
22699,-100,4,2,0,20,0,0
79169,-100,4,2,0,25,0,0
79522,-100,4,2,0,21,0,0
79699,-100,4,2,0,18,0,0
80052,-100,4,2,0,15,0,0
90463,-100,4,2,0,18,0,0
93287,-100,4,2,0,21,0,0
96110,-100,4,2,0,23,0,0
98934,-100,4,2,0,25,0,0
146934,-100,4,2,0,25,0,1
168110,-100,4,2,0,25,0,0
169522,-100,4,2,0,25,0,1
180816,-100,4,2,0,25,0,0
192110,-100,4,2,0,25,0,1
192199,-100,4,2,0,25,0,0
214699,-100,4,2,0,25,0,1
237199,-100,4,2,0,25,0,0
237287,-100,4,2,0,20,0,1
237375,-100,4,2,0,20,0,0

[HitObjects]
329,192,111,5,0,0:0:0:0:
329,192,1522,1,0,0:0:0:0:
182,192,2934,1,0,0:0:0:0:
182,192,4346,1,0,0:0:0:0:
109,192,5758,1,0,0:0:0:0:
109,192,7169,1,0,0:0:0:0:
402,192,8581,1,0,0:0:0:0:
402,192,9993,1,0,0:0:0:0:
36,192,11405,128,0,12816:0:0:0:0:
182,192,12816,128,0,14228:0:0:0:0:
475,192,14228,128,0,15640:0:0:0:0:
329,192,15640,128,0,17052:0:0:0:0:
109,192,17052,128,0,18463:0:0:0:0:
402,192,18463,128,0,19875:0:0:0:0:
256,192,19875,128,0,21287:0:0:0:0:
36,192,21287,1,0,0:0:0:50:finish1.wav
475,192,21287,1,0,0:0:0:0:
329,192,22699,1,0,0:0:0:60:kick.wav
329,192,23052,1,0,0:0:0:60:kick.wav
329,192,23405,1,0,0:0:0:60:kick.wav
329,192,23758,1,0,0:0:0:60:kick.wav
182,192,24110,1,0,0:0:0:60:kick.wav
182,192,24463,1,0,0:0:0:60:kick.wav
182,192,24816,1,0,0:0:0:60:kick.wav
182,192,25169,1,0,0:0:0:60:kick.wav
402,192,25522,1,0,0:0:0:60:kick.wav
402,192,25875,1,0,0:0:0:60:kick.wav
402,192,26228,1,0,0:0:0:60:kick.wav
402,192,26581,1,0,0:0:0:60:kick.wav
109,192,26934,1,0,0:0:0:60:kick.wav
109,192,27287,1,0,0:0:0:60:kick.wav
109,192,27640,1,0,0:0:0:60:kick.wav
109,192,27993,1,0,0:0:0:60:kick.wav
256,192,28346,1,0,0:0:0:60:kick.wav
256,192,28699,1,0,0:0:0:60:kick.wav
256,192,29052,1,0,0:0:0:60:kick.wav
256,192,29405,1,0,0:0:0:60:kick.wav
475,192,29758,1,0,0:0:0:60:kick.wav
475,192,30110,1,0,0:0:0:60:kick.wav
475,192,30463,1,0,0:0:0:60:kick.wav
475,192,30816,1,0,0:0:0:60:kick.wav
36,192,31169,1,0,0:0:0:60:kick.wav
36,192,31522,1,0,0:0:0:60:kick.wav
36,192,31875,1,0,0:0:0:60:kick.wav
36,192,32228,1,0,0:0:0:60:kick.wav
256,192,32581,1,0,0:0:0:60:kick.wav
256,192,32934,1,0,0:0:0:60:kick.wav
256,192,33287,1,0,0:0:0:60:kick.wav
182,192,33993,1,0,0:0:0:60:kick.wav
182,192,34346,1,0,0:0:0:60:kick.wav
475,192,34699,1,0,0:0:0:60:kick.wav
475,192,35052,1,0,0:0:0:60:kick.wav
182,192,35405,1,0,0:0:0:60:kick.wav
182,192,35758,1,0,0:0:0:60:kick.wav
475,192,36110,1,0,0:0:0:60:kick.wav
475,192,36463,1,0,0:0:0:60:kick.wav
36,192,36816,1,0,0:0:0:60:kick.wav
36,192,37169,1,0,0:0:0:60:kick.wav
329,192,37522,1,0,0:0:0:60:kick.wav
329,192,37875,1,0,0:0:0:60:kick.wav
36,192,38228,1,0,0:0:0:60:kick.wav
36,192,38581,1,0,0:0:0:60:kick.wav
329,192,38934,1,0,0:0:0:60:kick.wav
329,192,39287,1,0,0:0:0:60:kick.wav
109,192,39640,1,0,0:0:0:60:kick.wav
109,192,39993,1,0,0:0:0:60:kick.wav
402,192,40346,1,0,0:0:0:60:kick.wav
402,192,40699,1,0,0:0:0:60:kick.wav
109,192,41052,1,0,0:0:0:60:kick.wav
109,192,41405,1,0,0:0:0:60:kick.wav
402,192,41758,1,0,0:0:0:60:kick.wav
402,192,42110,1,0,0:0:0:60:kick.wav
36,192,42463,1,0,0:0:0:60:kick.wav
36,192,42816,1,0,0:0:0:60:kick.wav
475,192,43169,1,0,0:0:0:60:kick.wav
475,192,43522,1,0,0:0:0:60:kick.wav
256,192,43875,1,0,0:0:0:60:kick.wav
256,192,44228,1,0,0:0:0:60:kick.wav
256,192,44581,1,0,0:0:0:60:kick.wav
182,192,45287,1,0,0:0:0:60:kick.wav
329,192,45640,1,0,0:0:0:60:kick.wav
182,192,45993,1,0,0:0:0:60:kick.wav
329,192,46346,1,0,0:0:0:60:kick.wav
36,192,46699,1,0,0:0:0:60:kick.wav
475,192,47052,1,0,0:0:0:60:kick.wav
36,192,47405,1,0,0:0:0:60:kick.wav
475,192,47758,1,0,0:0:0:60:kick.wav
329,192,48110,1,0,0:0:0:60:kick.wav
109,192,48463,1,0,0:0:0:60:kick.wav
329,192,48816,1,0,0:0:0:60:kick.wav
109,192,49169,1,0,0:0:0:60:kick.wav
402,192,49522,1,0,0:0:0:60:kick.wav
182,192,49875,1,0,0:0:0:60:kick.wav
402,192,50228,1,0,0:0:0:60:kick.wav
182,192,50581,1,0,0:0:0:60:kick.wav
36,192,50934,1,0,0:0:0:60:kick.wav
256,192,51287,1,0,0:0:0:60:kick.wav
36,192,51640,1,0,0:0:0:60:kick.wav
256,192,51993,1,0,0:0:0:60:kick.wav
109,192,52346,1,0,0:0:0:60:kick.wav
329,192,52699,1,0,0:0:0:60:kick.wav
109,192,53052,1,0,0:0:0:60:kick.wav
329,192,53405,1,0,0:0:0:60:kick.wav
475,192,53758,1,0,0:0:0:60:kick.wav
256,192,54110,1,0,0:0:0:60:kick.wav
475,192,54463,1,0,0:0:0:60:kick.wav
256,192,54816,1,0,0:0:0:60:kick.wav
402,192,55169,1,0,0:0:0:60:kick.wav
182,192,55522,1,0,0:0:0:60:kick.wav
402,192,55875,1,0,0:0:0:60:kick.wav
36,192,56581,1,0,0:0:0:60:kick.wav
182,192,56934,1,0,0:0:0:60:kick.wav
36,192,57287,1,0,0:0:0:60:kick.wav
182,192,57640,1,0,0:0:0:60:kick.wav
475,192,57993,1,0,0:0:0:60:kick.wav
329,192,58346,1,0,0:0:0:60:kick.wav
475,192,58699,1,0,0:0:0:60:kick.wav
329,192,59052,1,0,0:0:0:60:kick.wav
109,192,59405,1,0,0:0:0:60:kick.wav
256,192,59758,1,0,0:0:0:60:kick.wav
109,192,60110,1,0,0:0:0:60:kick.wav
256,192,60463,1,0,0:0:0:60:kick.wav
402,192,60816,1,0,0:0:0:60:kick.wav
256,192,61169,1,0,0:0:0:60:kick.wav
402,192,61522,1,0,0:0:0:60:kick.wav
256,192,61875,1,0,0:0:0:60:kick.wav
36,192,62228,1,0,0:0:0:60:kick.wav
329,192,62581,1,0,0:0:0:60:kick.wav
36,192,62934,1,0,0:0:0:60:kick.wav
329,192,63287,1,0,0:0:0:60:kick.wav
109,192,63640,1,0,0:0:0:60:kick.wav
402,192,63993,1,0,0:0:0:60:kick.wav
109,192,64346,1,0,0:0:0:60:kick.wav
402,192,64699,1,0,0:0:0:60:kick.wav
182,192,65052,1,0,0:0:0:60:kick.wav
475,192,65405,1,0,0:0:0:60:kick.wav
182,192,65758,1,0,0:0:0:60:kick.wav
475,192,66110,1,0,0:0:0:60:kick.wav
256,192,66463,1,0,0:0:0:60:kick.wav
109,192,66816,1,0,0:0:0:60:kick.wav
256,192,67169,1,0,0:0:0:60:kick.wav
402,192,67522,1,0,0:0:0:60:kick.wav
36,192,67875,1,4,1:0:0:90:
475,192,67875,1,0,0:0:0:60:kick.wav
182,192,68228,1,0,0:0:0:60:hihat.wav
329,192,68934,1,0,0:0:0:60:hihat.wav
182,192,69640,1,0,0:0:0:60:hihat.wav
329,192,70346,1,0,0:0:0:60:hihat.wav
256,192,70875,1,0,0:0:0:90:hihat.wav
256,192,71228,1,0,0:0:0:90:hihat.wav
256,192,71581,1,0,0:0:0:90:hihat.wav
256,192,71934,1,0,0:0:0:90:hihat.wav
36,192,72287,1,0,0:0:0:90:hihat.wav
36,192,72640,1,0,0:0:0:90:hihat.wav
36,192,72993,1,0,0:0:0:90:hihat.wav
36,192,73346,1,0,0:0:0:90:hihat.wav
329,192,73699,1,0,0:0:0:90:hihat.wav
329,192,74052,1,0,0:0:0:90:hihat.wav
329,192,74405,1,0,0:0:0:90:hihat.wav
329,192,74758,1,0,0:0:0:90:hihat.wav
182,192,75110,1,0,0:0:0:90:hihat.wav
182,192,75463,1,0,0:0:0:90:hihat.wav
182,192,75816,1,0,0:0:0:90:hihat.wav
182,192,76169,1,0,0:0:0:90:hihat.wav
475,192,76522,1,0,0:0:0:90:hihat.wav
475,192,76875,1,0,0:0:0:90:hihat.wav
475,192,77228,1,0,0:0:0:90:hihat.wav
475,192,77581,1,0,0:0:0:90:hihat.wav
256,192,77758,128,0,79169:0:0:0:60:kick.wav
109,192,79169,1,4,1:0:0:90:
402,192,79169,1,0,0:0:0:75:finish2.wav
256,192,80581,1,0,0:0:0:0:
402,192,81993,1,0,0:0:0:0:
109,192,83405,1,0,0:0:0:0:
36,192,84816,1,0,0:0:0:0:
329,192,86228,1,0,0:0:0:0:
475,192,87640,1,0,0:0:0:0:
182,192,89052,1,0,0:0:0:0:
256,192,90463,128,0,91875:0:0:0:0:
36,192,91875,128,0,93287:0:0:0:0:
109,192,93287,128,0,94699:0:0:0:0:
182,192,94699,128,0,96110:0:0:0:0:
329,192,96110,128,0,97522:0:0:0:0:
475,192,97522,128,0,98934:0:0:0:0:
402,192,98934,128,0,100346:0:0:0:0:
256,192,100346,128,0,101758:0:0:0:0:
109,192,101758,1,4,1:0:0:90:
402,192,101758,1,0,0:0:0:75:finish2.wav
36,192,103169,1,0,0:0:0:0:
475,192,104581,1,0,0:0:0:0:
329,192,105993,1,0,0:0:0:0:
109,192,107405,1,0,0:0:0:0:
256,192,108816,1,0,0:0:0:0:
402,192,110228,1,0,0:0:0:0:
182,192,111640,1,0,0:0:0:0:
402,192,113052,128,0,114463:0:0:0:55:hihat.wav
256,192,114463,128,0,115875:0:0:0:55:hihat.wav
109,192,115875,128,0,117287:0:0:0:55:hihat.wav
402,192,117287,128,0,118699:0:0:0:55:hihat.wav
36,192,118699,128,0,120110:0:0:0:55:hihat.wav
475,192,120110,128,0,121522:0:0:0:55:hihat.wav
256,192,121522,128,0,122934:0:0:0:55:hihat.wav
402,192,122934,1,0,0:0:0:50:finish1.wav
36,192,122934,128,0,124346:0:0:0:55:hihat.wav
329,192,124346,1,4,1:0:0:90:
475,192,124346,1,0,0:0:0:75:finish2.wav
109,192,125052,1,0,0:0:0:0:
329,192,125758,1,0,0:0:0:0:
109,192,126463,1,0,0:0:0:0:
402,192,127169,1,0,0:0:0:0:
182,192,127875,1,0,0:0:0:0:
402,192,128581,1,0,0:0:0:0:
182,192,129287,1,0,0:0:0:0:
109,192,129993,128,0,130699:0:0:0:41:hihat.wav
182,192,130699,128,0,131405:0:0:0:46:hihat.wav
329,192,131405,128,0,132110:0:0:0:53:hihat.wav
402,192,132110,128,0,132816:0:0:0:57:hihat.wav
36,192,132816,128,0,133522:0:0:0:59:hihat.wav
182,192,133522,128,0,134228:0:0:0:61:hihat.wav
329,192,134228,128,0,134934:0:0:0:63:hihat.wav
475,192,134934,128,0,135640:0:0:0:64:hihat.wav
182,192,135640,1,0,0:0:0:60:kick.wav
182,192,136169,1,0,0:0:0:60:kick.wav
182,192,136522,1,0,0:0:0:60:kick.wav
329,192,137052,1,0,0:0:0:60:kick.wav
329,192,137581,1,0,0:0:0:60:kick.wav
329,192,137934,1,0,0:0:0:60:kick.wav
36,192,138463,1,0,0:0:0:60:kick.wav
36,192,138993,1,0,0:0:0:60:kick.wav
36,192,139346,1,0,0:0:0:60:kick.wav
475,192,139875,1,0,0:0:0:60:kick.wav
475,192,140405,1,0,0:0:0:60:kick.wav
475,192,140758,1,0,0:0:0:60:kick.wav
109,192,141287,1,0,0:0:0:60:kick.wav
109,192,141816,1,0,0:0:0:60:kick.wav
109,192,142169,1,0,0:0:0:60:kick.wav
402,192,142699,1,0,0:0:0:60:kick.wav
402,192,143228,1,0,0:0:0:60:kick.wav
402,192,143581,1,0,0:0:0:60:kick.wav
256,192,144110,1,0,0:0:0:60:kick.wav
256,192,144640,1,0,0:0:0:60:kick.wav
256,192,144993,1,0,0:0:0:60:kick.wav
256,192,145522,1,0,0:0:0:60:kick.wav
402,192,146934,1,0,0:0:0:60:kick.wav
36,192,146934,1,0,0:0:0:0:
182,192,147287,1,0,0:0:0:60:kick.wav
402,192,147640,1,0,0:0:0:60:kick.wav
182,192,147993,1,0,0:0:0:60:kick.wav
329,192,148346,1,0,0:0:0:60:kick.wav
109,192,148699,1,0,0:0:0:60:kick.wav
329,192,149052,1,0,0:0:0:60:kick.wav
109,192,149405,1,0,0:0:0:60:kick.wav
256,192,149758,1,0,0:0:0:60:kick.wav
475,192,150110,1,0,0:0:0:60:kick.wav
256,192,150463,1,0,0:0:0:60:kick.wav
475,192,150816,1,0,0:0:0:60:kick.wav
36,192,151169,1,0,0:0:0:60:kick.wav
256,192,151522,1,0,0:0:0:60:kick.wav
36,192,151875,1,0,0:0:0:60:kick.wav
256,192,152228,1,0,0:0:0:60:kick.wav
182,192,152581,1,0,0:0:0:60:kick.wav
329,192,152934,128,0,153287:0:0:0:60:kick.wav
182,192,153287,1,0,0:0:0:60:kick.wav
329,192,153640,128,0,153993:0:0:0:60:kick.wav
109,192,153993,1,0,0:0:0:60:kick.wav
402,192,154346,128,0,154699:0:0:0:60:kick.wav
109,192,154699,128,0,155052:0:0:0:60:kick.wav
402,192,155052,1,0,0:0:0:60:kick.wav
36,192,155405,128,0,155758:0:0:0:60:kick.wav
475,192,155758,1,0,0:0:0:60:kick.wav
36,192,156110,128,0,156463:0:0:0:60:kick.wav
475,192,156463,1,0,0:0:0:60:kick.wav
109,192,156816,128,0,157169:0:0:0:60:kick.wav
402,192,157169,128,0,157522:0:0:0:60:kick.wav
256,192,157522,1,0,0:0:0:60:kick.wav
182,192,158228,1,0,0:0:0:60:kick.wav
475,192,158581,1,0,0:0:0:60:kick.wav
182,192,158934,1,0,0:0:0:60:kick.wav
402,192,159287,1,0,0:0:0:60:kick.wav
36,192,159640,1,0,0:0:0:60:kick.wav
329,192,159993,1,0,0:0:0:60:kick.wav
36,192,160346,1,0,0:0:0:60:kick.wav
256,192,160699,1,0,0:0:0:60:kick.wav
329,192,161052,1,0,0:0:0:60:kick.wav
36,192,161405,1,0,0:0:0:60:kick.wav
329,192,161758,1,0,0:0:0:60:kick.wav
109,192,162110,1,0,0:0:0:60:kick.wav
475,192,162463,1,0,0:0:0:60:kick.wav
182,192,162816,1,0,0:0:0:60:kick.wav
475,192,163169,1,0,0:0:0:60:kick.wav
256,192,163522,1,0,0:0:0:60:kick.wav
36,192,163875,1,0,0:0:0:60:kick.wav
329,192,164228,1,0,0:0:0:60:kick.wav
109,192,164581,1,0,0:0:0:60:kick.wav
329,192,164934,1,0,0:0:0:60:kick.wav
182,192,165287,1,0,0:0:0:60:kick.wav
475,192,165640,1,0,0:0:0:60:kick.wav
182,192,165993,1,0,0:0:0:60:kick.wav
402,192,166346,1,0,0:0:0:60:kick.wav
109,192,166699,1,0,0:0:0:60:kick.wav
329,192,167052,1,0,0:0:0:60:kick.wav
182,192,167405,1,0,0:0:0:60:kick.wav
402,192,167758,1,0,0:0:0:60:kick.wav
256,192,168110,1,0,0:0:0:0:
475,192,169522,1,4,1:0:0:90:
36,192,169522,1,0,0:0:0:75:finish2.wav
256,192,169875,1,0,0:0:0:60:kick.wav
109,192,170228,1,0,0:0:0:60:kick.wav
329,192,170581,1,0,0:0:0:60:kick.wav
182,192,170934,1,0,0:0:0:60:kick.wav
402,192,171287,1,0,0:0:0:60:kick.wav
256,192,171640,1,0,0:0:0:60:kick.wav
475,192,171993,1,0,0:0:0:60:kick.wav
182,192,172346,1,0,0:0:0:60:kick.wav
329,192,172699,1,0,0:0:0:60:kick.wav
109,192,173052,1,0,0:0:0:60:kick.wav
402,192,173405,1,0,0:0:0:60:kick.wav
36,192,173758,1,0,0:0:0:60:kick.wav
475,192,174110,1,0,0:0:0:60:kick.wav
109,192,174463,1,0,0:0:0:60:kick.wav
402,192,174816,1,0,0:0:0:60:kick.wav
256,192,175169,1,0,0:0:0:60:kick.wav
36,192,175522,1,0,0:0:0:60:kick.wav
329,192,175875,1,0,0:0:0:60:kick.wav
109,192,176228,1,0,0:0:0:60:kick.wav
402,192,176581,1,0,0:0:0:60:kick.wav
182,192,176934,1,0,0:0:0:60:kick.wav
475,192,177287,1,0,0:0:0:60:kick.wav
256,192,177640,1,0,0:0:0:60:kick.wav
109,192,177993,1,0,0:0:0:60:kick.wav
402,192,178346,1,0,0:0:0:60:kick.wav
36,192,178699,1,0,0:0:0:60:kick.wav
475,192,179052,1,0,0:0:0:60:kick.wav
182,192,179405,1,0,0:0:0:60:kick.wav
329,192,179758,1,0,0:0:0:60:kick.wav
109,192,180110,1,0,0:0:0:60:kick.wav
402,192,180463,1,0,0:0:0:60:kick.wav
36,192,180816,1,4,1:0:0:90:
475,192,180816,1,0,0:0:0:75:finish2.wav
182,192,181169,1,0,0:0:0:75:jingle.wav
329,192,181875,1,0,0:0:0:75:jingle.wav
475,192,182581,1,0,0:0:0:75:jingle.wav
256,192,183287,128,0,183640:0:0:0:75:jingle.wav
36,192,183993,1,0,0:0:0:75:jingle.wav
182,192,184699,1,0,0:0:0:75:jingle.wav
475,192,185405,1,0,0:0:0:75:jingle.wav
329,192,186110,128,0,186463:0:0:0:75:jingle.wav
109,192,186816,1,0,0:0:0:75:jingle.wav
402,192,187522,1,0,0:0:0:75:jingle.wav
182,192,187875,1,0,0:0:0:34:kick.wav
329,192,188228,1,0,0:0:0:38:kick.wav
109,192,188581,1,0,0:0:0:42:kick.wav
402,192,188934,1,0,0:0:0:46:kick.wav
36,192,189287,1,0,0:0:0:50:kick.wav
475,192,189640,1,0,0:0:0:50:kick.wav
109,192,189993,1,0,0:0:0:50:kick.wav
402,192,190346,1,0,0:0:0:50:kick.wav
256,192,190699,128,0,192110:0:0:0:60:kick.wav
36,192,192110,1,4,1:0:0:90:
475,192,192110,1,0,0:0:0:75:finish2.wav
109,192,193522,1,0,0:0:0:71:hihat.wav
402,192,194934,1,0,0:0:0:67:hihat.wav
256,192,196346,1,0,0:0:0:63:hihat.wav
36,192,197758,128,0,199169:0:0:0:60:hihat.wav
256,192,199169,128,0,200581:0:0:0:60:hihat.wav
475,192,200581,128,0,201993:0:0:0:60:hihat.wav
109,192,201993,128,0,203405:0:0:0:60:hihat.wav
402,192,203405,128,0,204816:0:0:0:60:hihat.wav
182,192,204816,128,0,206228:0:0:0:60:hihat.wav
329,192,206228,128,0,207640:0:0:0:60:hihat.wav
109,192,207640,128,0,209052:0:0:0:60:hihat.wav
256,192,209052,128,0,210463:0:0:0:60:hihat.wav
475,192,210463,128,0,211875:0:0:0:60:hihat.wav
36,192,211875,128,0,213287:0:0:0:60:hihat.wav
329,192,213287,1,0,0:0:0:50:finish1.wav
182,192,213287,1,0,0:0:0:0:
36,192,214699,1,4,1:0:0:90:
475,192,214699,1,0,0:0:0:75:finish2.wav
329,192,215052,1,0,0:0:0:60:kick.wav
109,192,215405,1,0,0:0:0:60:kick.wav
402,192,215758,1,0,0:0:0:60:kick.wav
182,192,216110,1,0,0:0:0:60:kick.wav
475,192,216463,1,0,0:0:0:60:kick.wav
256,192,216816,1,0,0:0:0:60:kick.wav
36,192,217169,128,0,217522:0:0:0:60:kick.wav
475,192,217522,1,0,0:0:0:60:kick.wav
182,192,217875,1,0,0:0:0:60:kick.wav
402,192,218228,1,0,0:0:0:60:kick.wav
109,192,218581,1,0,0:0:0:60:kick.wav
329,192,218934,1,0,0:0:0:60:kick.wav
36,192,219287,1,0,0:0:0:60:kick.wav
256,192,219640,1,0,0:0:0:60:kick.wav
475,192,219993,128,0,220346:0:0:0:60:kick.wav
36,192,220346,1,0,0:0:0:60:kick.wav
256,192,220699,1,0,0:0:0:60:kick.wav
475,192,221052,1,0,0:0:0:60:kick.wav
182,192,221405,1,0,0:0:0:60:kick.wav
402,192,221758,1,0,0:0:0:60:kick.wav
109,192,222110,1,0,0:0:0:60:kick.wav
329,192,222463,1,0,0:0:0:60:kick.wav
36,192,222816,128,0,223169:0:0:0:60:kick.wav
475,192,223169,1,0,0:0:0:60:kick.wav
256,192,223522,1,0,0:0:0:60:kick.wav
36,192,223875,1,0,0:0:0:60:kick.wav
329,192,224228,1,0,0:0:0:60:kick.wav
109,192,224581,1,0,0:0:0:60:kick.wav
402,192,224934,1,0,0:0:0:60:kick.wav
182,192,225287,1,0,0:0:0:60:kick.wav
475,192,225640,128,0,225993:0:0:0:60:kick.wav
36,192,225993,1,0,0:0:0:60:kick.wav
329,192,226346,1,0,0:0:0:60:kick.wav
109,192,226699,1,0,0:0:0:60:kick.wav
402,192,227052,1,0,0:0:0:60:kick.wav
182,192,227405,1,0,0:0:0:60:kick.wav
475,192,227758,1,0,0:0:0:60:kick.wav
256,192,228110,1,0,0:0:0:60:kick.wav
109,192,228463,128,0,228816:0:0:0:60:kick.wav
475,192,228816,1,0,0:0:0:60:kick.wav
182,192,229169,1,0,0:0:0:60:kick.wav
402,192,229522,1,0,0:0:0:60:kick.wav
109,192,229875,1,0,0:0:0:60:kick.wav
329,192,230228,1,0,0:0:0:60:kick.wav
36,192,230581,1,0,0:0:0:60:kick.wav
256,192,230934,1,0,0:0:0:60:kick.wav
402,192,231287,128,0,231640:0:0:0:60:kick.wav
36,192,231640,1,0,0:0:0:60:kick.wav
329,192,231993,1,0,0:0:0:60:kick.wav
182,192,231993,1,0,0:0:0:75:jingle.wav
475,192,232346,1,0,0:0:0:60:kick.wav
182,192,232699,1,0,0:0:0:60:kick.wav
329,192,232699,1,0,0:0:0:75:jingle.wav
36,192,233052,1,0,0:0:0:60:kick.wav
109,192,233405,1,0,0:0:0:60:kick.wav
402,192,233405,1,0,0:0:0:75:jingle.wav
475,192,233758,1,0,0:0:0:60:kick.wav
402,192,234110,1,0,0:0:0:60:kick.wav
109,192,234110,1,0,0:0:0:75:jingle.wav
329,192,234463,1,0,0:0:0:75:hihat.wav
182,192,234463,1,0,0:0:0:60:kick.wav
36,192,234816,1,0,0:0:0:60:kick.wav
475,192,234816,1,0,0:0:0:75:jingle.wav
182,192,235169,1,0,0:0:0:60:kick.wav
329,192,235169,1,0,0:0:0:75:hihat.wav
109,192,235522,1,0,0:0:0:60:kick.wav
402,192,235522,1,0,0:0:0:75:jingle.wav
36,192,235875,128,0,237287:0:0:0:60:kick.wav
475,192,235875,128,0,237287:0:0:0:75:hihat.wav
182,192,237287,1,4,1:0:0:90:
329,192,237287,1,0,0:0:0:75:finish2.wav
402,192,238699,1,0,0:0:0:71:hihat.wav
109,192,240110,1,0,0:0:0:67:hihat.wav
256,192,241522,1,0,0:0:0:55:hihat.wav
109,192,242934,1,0,0:0:0:55:jingle.wav
182,192,243640,1,0,0:0:0:52:jingle.wav
329,192,244346,1,0,0:0:0:49:jingle.wav
402,192,245052,1,0,0:0:0:46:jingle.wav
36,192,245758,1,0,0:0:0:43:jingle.wav
182,192,246463,1,0,0:0:0:40:jingle.wav
329,192,247169,1,0,0:0:0:37:jingle.wav
475,192,247875,1,0,0:0:0:34:jingle.wav
256,192,248581,1,0,0:0:0:30:jingle.wav
109,192,249993,1,0,0:0:0:30:jingle.wav
256,192,251405,1,0,0:0:0:30:jingle.wav
402,192,252816,1,0,0:0:0:30:jingle.wav
36,192,254228,1,0,0:0:0:30:jingle.wav
182,192,254934,1,0,0:0:0:30:jingle.wav
329,192,255640,1,0,0:0:0:30:jingle.wav
182,192,256346,1,0,0:0:0:30:jingle.wav
329,192,257052,1,0,0:0:0:30:jingle.wav
475,192,257758,1,0,0:0:0:30:jingle.wav
329,192,258110,1,0,0:0:0:30:jingle.wav
182,192,258463,1,0,0:0:0:30:jingle.wav
36,192,259169,1,0,0:0:0:30:jingle.wav
109,192,259875,128,0,265522:0:0:0:75:finish2.wav
402,192,259875,128,0,265522:0:0:0:50:finish1.wav
256,192,259875,1,4,1:0:0:90:
