osu file format v14

[General]
AudioFilename: Just Hold on (To All Fighters) void.mp3
AudioLeadIn: 0
PreviewTime: 145522
Countdown: 0
SampleSet: Soft
StackLeniency: 0.7
Mode: 3
LetterboxInBreaks: 0
SpecialStyle: 0
WidescreenStoryboard: 0

[Editor]
DistanceSpacing: 1
BeatDivisor: 4
GridSize: 4
TimelineZoom: 1.799999

[Metadata]
Title:Just Hold on (To All Fighters)
TitleUnicode:Just Hold on (To All Fighters)
Artist:void
ArtistUnicode:void
Creator:Blocko
Version:Resolve
Source:
Tags:the diverse system pump it up prime 2015 hard trance expew soul evans collab collaboration
BeatmapID:888793
BeatmapSetID:409440

[Difficulty]
HPDrainRate:9
CircleSize:7
OverallDifficulty:8
ApproachRate:9.5
SliderMultiplier:1.4
SliderTickRate:1

[Events]
//Background and Video events
0,0,"justholdon_bg.jpg",0,0
//Break Periods
//Storyboard Layer 0 (Background)
//Storyboard Layer 1 (Fail)
//Storyboard Layer 2 (Pass)
//Storyboard Layer 3 (Foreground)
//Storyboard Sound Samples

[TimingPoints]
111,352.941176470588,4,2,0,15,1,0
111,-133.333333333333,4,2,0,15,0,0
5758,-133.333333333333,4,2,0,17,0,0
8581,-133.333333333333,4,2,0,19,0,0
11405,-125,4,2,0,21,0,0
14228,-117.647058823529,4,2,0,23,0,0
17052,-111.111111111111,4,2,0,24,0,0
19875,-105.263157894737,4,2,0,25,0,0
21287,-117.647058823529,4,2,0,25,0,0
22346,-200,4,2,0,25,0,0
22434,-150.15015015015,4,2,0,25,0,0
22522,-75.187969924812,4,2,0,25,0,0
22610,-66.6666666666667,4,2,0,25,0,0
22699,-100,4,2,0,20,0,0
33287,-102.040816326531,4,2,0,20,0,0
33375,-104.166666666667,4,2,0,20,0,0
33463,-106.382978723404,4,2,0,20,0,0
33552,-108.695652173913,4,2,0,20,0,0
33728,-102.040816326531,4,2,0,20,0,0
33816,-96.1538461538461,4,2,0,20,0,0
33905,-90.9090909090909,4,2,0,20,0,0
33993,-100,4,2,0,20,0,0
44581,-102.040816326531,4,2,0,20,0,0
44669,-104.166666666667,4,2,0,20,0,0
44758,-106.382978723404,4,2,0,20,0,0
44846,-108.695652173913,4,2,0,20,0,0
45022,-102.040816326531,4,2,0,20,0,0
45110,-96.1538461538461,4,2,0,20,0,0
45199,-90.9090909090909,4,2,0,20,0,0
45287,-100,4,2,0,20,0,0
79169,-133.333333333333,4,2,0,25,0,0
79522,-133.333333333333,4,2,0,21,0,0
79699,-133.333333333333,4,2,0,18,0,0
80052,-133.333333333333,4,2,0,15,0,0
90463,-125,4,2,0,18,0,0
93287,-117.647058823529,4,2,0,21,0,0
96110,-111.111111111111,4,2,0,23,0,0
98934,-105.263157894737,4,2,0,25,0,0
100346,-125,4,2,0,25,0,0
100875,-131.578947368421,4,2,0,25,0,0
100963,-138.888888888889,4,2,0,25,0,0
101052,-149.253731343284,4,2,0,25,0,0
101140,-163.934426229508,4,2,0,25,0,0
101228,-181.818181818182,4,2,0,25,0,0
101316,-166.666666666667,4,2,0,25,0,0
101405,-133.333333333333,4,2,0,25,0,0
101493,-111.111111111111,4,2,0,25,0,0
101581,-95.2380952380952,4,2,0,25,0,0
101669,-80,4,2,0,25,0,0
101758,-133.333333333333,4,2,0,25,0,0
111640,-125,4,2,0,25,0,0
111993,-117.647058823529,4,2,0,25,0,0
112346,-111.111111111111,4,2,0,25,0,0
112699,-105.263157894737,4,2,0,25,0,0
113052,-100,4,2,0,25,0,0
123993,-200,4,2,0,25,0,0
124081,-150.15015015015,4,2,0,25,0,0
124169,-100,4,2,0,25,0,0
124258,-54.5454546446281,4,2,0,25,0,0
124346,-100,4,2,0,25,0,0
146758,-200,4,2,0,25,0,0
146846,-66.6666666666667,4,2,0,25,0,0
146934,-100,4,2,0,25,0,1
168110,-111.111111111111,4,2,0,25,0,0
169346,-200,4,2,0,25,0,0
169434,-66.6666666666667,4,2,0,25,0,0
169522,-100,4,2,0,25,0,1
180816,-100,4,2,0,25,0,0
192110,-100,4,2,0,25,0,1
192199,-100,4,2,0,25,0,0
214346,-200,4,2,0,25,0,0
214434,-150.15015015015,4,2,0,25,0,0
214522,-100,4,2,0,25,0,0
214610,-54.5455537191886,4,2,0,25,0,0
214699,-100,4,2,0,25,0,1
237199,-100,4,2,0,25,0,0
237287,-101.010101010101,4,2,0,20,0,1
237375,-101.010101010101,4,2,0,20,0,0
237993,-102.040816326531,4,2,0,20,0,0
238699,-103.092783505155,4,2,0,20,0,0
239405,-104.166666666667,4,2,0,20,0,0
240110,-105.263157894737,4,2,0,20,0,0
240816,-106.382978723404,4,2,0,20,0,0
241522,-107.52688172043,4,2,0,20,0,0
242228,-108.695652173913,4,2,0,20,0,0
242934,-109.89010989011,4,2,0,20,0,0
243110,-111.111111111111,4,2,0,20,0,0
243287,-112.359550561798,4,2,0,20,0,0
243463,-113.636363636364,4,2,0,20,0,0
243640,-114.942528735632,4,2,0,20,0,0
243816,-116.279069767442,4,2,0,20,0,0
243993,-117.647058823529,4,2,0,20,0,0
244169,-119.047619047619,4,2,0,20,0,0
244346,-120.481927710843,4,2,0,20,0,0
244522,-121.951219512195,4,2,0,20,0,0
244699,-123.456790123457,4,2,0,20,0,0
244875,-125,4,2,0,20,0,0
245052,-126.582278481013,4,2,0,20,0,0
245228,-128.205128205128,4,2,0,20,0,0
245405,-129.87012987013,4,2,0,20,0,0
245581,-131.578947368421,4,2,0,20,0,0
245758,-133.333333333333,4,2,0,20,0,0
259875,-200,4,2,0,20,0,0

[HitObjects]
36,192,111,128,0,1522:0:0:0:0:
109,192,111,1,0,0:0:0:0:
182,192,463,128,0,1522:0:0:0:0:
329,192,640,128,0,1522:0:0:0:0:
475,192,993,128,0,1522:0:0:0:0:
109,192,1522,128,0,2934:0:0:0:0:
256,192,1522,1,0,0:0:0:0:
182,192,1875,128,0,2934:0:0:0:0:
329,192,2052,128,0,2934:0:0:0:0:
402,192,2405,128,0,2934:0:0:0:0:
256,192,2934,128,0,4346:0:0:0:0:
475,192,2934,1,0,0:0:0:0:
36,192,3287,128,0,4346:0:0:0:0:
182,192,3463,128,0,4346:0:0:0:0:
475,192,3816,128,0,4346:0:0:0:0:
402,192,4346,128,0,5758:0:0:0:0:
329,192,4346,1,0,0:0:0:0:
109,192,4699,128,0,5758:0:0:0:0:
256,192,4875,128,0,5758:0:0:0:0:
475,192,5228,128,0,5758:0:0:0:0:
36,192,5758,128,0,7169:0:0:0:0:
182,192,5758,1,0,0:0:0:0:
256,192,6110,128,0,7169:0:0:0:0:
329,192,6287,128,0,7169:0:0:0:0:
475,192,6640,128,0,7169:0:0:0:0:
182,192,7169,128,0,8581:0:0:0:0:
402,192,7169,1,0,0:0:0:0:
109,192,7522,128,0,8581:0:0:0:0:
402,192,7699,128,0,8581:0:0:0:0:
475,192,8052,128,0,8581:0:0:0:0:
256,192,8581,128,0,9993:0:0:0:0:
329,192,8581,1,0,0:0:0:0:
36,192,8934,128,0,9993:0:0:0:0:
402,192,9110,128,0,9993:0:0:0:0:
475,192,9463,128,0,9993:0:0:0:0:
182,192,9993,128,0,11405:0:0:0:0:
329,192,9993,1,0,0:0:0:0:
109,192,10346,128,0,11405:0:0:0:0:
329,192,10522,128,0,11405:0:0:0:0:
402,192,10875,128,0,11405:0:0:0:0:
36,192,11405,128,0,12816:0:0:0:0:
256,192,11405,1,0,0:0:0:0:
109,192,11758,128,0,12816:0:0:0:0:
329,192,11758,128,0,12110:0:0:0:60:jingle.wav
182,192,11934,128,0,12816:0:0:0:0:
475,192,12110,128,0,12463:0:0:0:60:jingle.wav
256,192,12287,128,0,12816:0:0:0:0:
402,192,12463,128,0,14228:0:0:0:60:jingle.wav
475,192,12816,1,0,0:0:0:0:
329,192,12816,128,0,14228:0:0:0:0:
109,192,13169,128,0,14228:0:0:0:0:
256,192,13346,128,0,14228:0:0:0:0:
182,192,13699,128,0,14228:0:0:0:0:
475,192,14228,128,0,15640:0:0:0:0:
36,192,14228,1,0,0:0:0:0:
36,192,14581,128,0,15640:0:0:0:0:
182,192,14758,128,0,15640:0:0:0:0:
329,192,15110,128,0,15640:0:0:0:0:
256,192,15640,128,0,17052:0:0:0:0:
402,192,15640,1,0,0:0:0:0:
109,192,15993,128,0,17052:0:0:0:0:
329,192,16169,128,0,17052:0:0:0:0:
402,192,16522,128,0,17052:0:0:0:0:
36,192,17052,128,0,18463:0:0:0:0:
475,192,17052,1,0,0:0:0:0:
182,192,17052,1,0,0:0:0:18:snare.wav
402,192,17140,1,0,0:0:0:18:snare.wav
256,192,17228,1,0,0:0:0:18:snare.wav
109,192,17316,1,0,0:0:0:19:snare.wav
329,192,17405,128,0,17758:0:0:0:60:jingle.wav
475,192,17405,1,0,0:0:0:19:snare.wav
182,192,17493,1,0,0:0:0:19:snare.wav
109,192,17581,1,0,0:0:0:20:snare.wav
256,192,17669,1,0,0:0:0:20:snare.wav
475,192,17758,128,0,18110:0:0:0:60:jingle.wav
402,192,17758,1,0,0:0:0:20:snare.wav
182,192,17846,1,0,0:0:0:21:snare.wav
329,192,17934,1,0,0:0:0:21:snare.wav
109,192,18022,1,0,0:0:0:21:snare.wav
402,192,18110,128,0,19875:0:0:0:60:jingle.wav
256,192,18110,1,0,0:0:0:22:snare.wav
182,192,18199,1,0,0:0:0:22:snare.wav
329,192,18287,1,0,0:0:0:22:snare.wav
256,192,18375,1,0,0:0:0:23:snare.wav
109,192,18463,128,0,19875:0:0:0:0:
475,192,18463,1,0,0:0:0:0:
182,192,18463,1,0,0:0:0:23:snare.wav
329,192,18552,1,0,0:0:0:23:snare.wav
36,192,18640,1,0,0:0:0:24:snare.wav
256,192,18728,1,0,0:0:0:24:snare.wav
475,192,18816,1,0,0:0:0:24:snare.wav
182,192,18905,1,0,0:0:0:25:snare.wav
329,192,18993,1,0,0:0:0:25:snare.wav
256,192,19081,1,0,0:0:0:25:snare.wav
36,192,19169,1,0,0:0:0:26:snare.wav
182,192,19258,1,0,0:0:0:26:snare.wav
475,192,19346,1,0,0:0:0:26:snare.wav
329,192,19434,1,0,0:0:0:27:snare.wav
36,192,19522,1,0,0:0:0:27:snare.wav
475,192,19610,1,0,0:0:0:27:snare.wav
182,192,19699,1,0,0:0:0:28:snare.wav
256,192,19787,1,0,0:0:0:28:snare.wav
475,192,19875,128,0,21287:0:0:0:0:
329,192,19875,1,0,0:0:0:28:snare.wav
36,192,19875,128,0,21287:0:0:0:0:
182,192,19963,1,0,0:0:0:29:snare.wav
329,192,20052,1,0,0:0:0:29:snare.wav
182,192,20140,1,0,0:0:0:29:snare.wav
256,192,20228,1,0,0:0:0:30:snare.wav
109,192,20316,1,0,0:0:0:30:snare.wav
256,192,20405,1,0,0:0:0:30:snare.wav
109,192,20493,1,0,0:0:0:31:snare.wav
402,192,20581,1,0,0:0:0:31:snare.wav
256,192,20669,1,0,0:0:0:31:snare.wav
402,192,20758,1,0,0:0:0:32:snare.wav
256,192,20846,1,0,0:0:0:32:snare.wav
329,192,20934,1,0,0:0:0:32:snare.wav
182,192,21022,1,0,0:0:0:33:snare.wav
329,192,21110,1,0,0:0:0:33:snare.wav
182,192,21199,1,0,0:0:0:33:snare.wav
109,192,21287,1,0,0:0:0:0:
402,192,21287,1,0,0:0:0:0:
256,192,21287,1,0,0:0:0:50:finish1.wav
329,192,21287,1,0,0:0:0:0:
109,192,21463,1,8,3:0:0:40:
402,192,21552,1,8,3:0:0:40:
182,192,21640,1,4,3:0:0:30:
329,192,21728,1,4,3:0:0:30:
182,192,21816,1,4,3:0:0:30:
36,192,21993,1,0,0:0:0:0:
256,192,21993,1,8,3:0:0:40:
475,192,21993,1,0,0:0:0:0:
402,192,22081,1,4,3:0:0:30:
109,192,22169,1,4,3:0:0:30:
182,192,22258,1,4,3:0:0:30:
36,192,22346,1,0,0:0:0:0:
475,192,22346,1,0,0:0:0:0:
329,192,22346,128,8,22699:3:0:0:40:
475,192,22699,1,0,0:0:0:0:
36,192,22699,1,0,0:0:0:60:kick.wav
256,192,22699,1,0,0:0:0:0:
109,192,22699,1,0,0:0:0:0:
182,192,22787,1,0,0:0:0:0:
329,192,22875,1,0,0:0:0:0:
109,192,22963,1,0,0:0:0:0:
36,192,23052,1,0,0:0:0:0:
475,192,23052,1,0,0:0:0:60:kick.wav
256,192,23052,1,0,0:0:0:0:
329,192,23140,1,0,0:0:0:0:
182,192,23228,1,0,0:0:0:0:
402,192,23316,1,0,0:0:0:0:
36,192,23405,1,0,0:0:0:60:kick.wav
475,192,23405,1,0,0:0:0:0:
256,192,23405,1,0,0:0:0:0:
182,192,23493,1,0,0:0:0:0:
329,192,23581,1,0,0:0:0:0:
109,192,23669,1,0,0:0:0:0:
475,192,23758,1,0,0:0:0:60:kick.wav
36,192,23758,1,0,0:0:0:0:
256,192,23758,1,0,0:0:0:0:
329,192,23846,1,0,0:0:0:0:
109,192,23934,1,0,0:0:0:0:
402,192,24022,1,0,0:0:0:0:
475,192,24110,1,0,0:0:0:0:
36,192,24110,1,0,0:0:0:60:kick.wav
182,192,24110,1,0,0:0:0:0:
329,192,24199,1,0,0:0:0:0:
256,192,24287,1,0,0:0:0:0:
182,192,24375,1,0,0:0:0:0:
475,192,24463,1,0,0:0:0:60:kick.wav
36,192,24463,1,0,0:0:0:0:
329,192,24463,1,0,0:0:0:0:
109,192,24552,1,0,0:0:0:0:
256,192,24640,1,0,0:0:0:0:
402,192,24728,1,0,0:0:0:0:
475,192,24816,1,0,0:0:0:0:
36,192,24816,1,0,0:0:0:60:kick.wav
182,192,24816,1,0,0:0:0:0:
329,192,24905,1,0,0:0:0:0:
256,192,24993,1,0,0:0:0:0:
182,192,25081,1,0,0:0:0:0:
475,192,25169,1,0,0:0:0:60:kick.wav
36,192,25169,1,0,0:0:0:0:
329,192,25169,1,0,0:0:0:0:
109,192,25258,1,0,0:0:0:0:
256,192,25346,1,0,0:0:0:0:
402,192,25434,1,0,0:0:0:0:
36,192,25522,1,0,0:0:0:60:kick.wav
329,192,25522,1,0,0:0:0:0:
182,192,25522,1,0,0:0:0:0:
475,192,25610,1,0,0:0:0:0:
256,192,25699,1,0,0:0:0:0:
182,192,25787,1,0,0:0:0:0:
36,192,25875,1,0,0:0:0:0:
329,192,25875,1,0,0:0:0:60:kick.wav
109,192,25875,1,0,0:0:0:0:
402,192,25963,1,0,0:0:0:0:
256,192,26052,1,0,0:0:0:0:
109,192,26140,1,0,0:0:0:0:
36,192,26228,1,0,0:0:0:60:kick.wav
329,192,26228,1,0,0:0:0:0:
182,192,26228,1,0,0:0:0:0:
475,192,26316,1,0,0:0:0:0:
256,192,26405,1,0,0:0:0:0:
182,192,26493,1,0,0:0:0:0:
36,192,26581,1,0,0:0:0:0:
329,192,26581,1,0,0:0:0:60:kick.wav
109,192,26581,1,0,0:0:0:0:
402,192,26669,1,0,0:0:0:0:
256,192,26758,1,0,0:0:0:0:
109,192,26846,1,0,0:0:0:0:
36,192,26934,1,0,0:0:0:60:kick.wav
329,192,26934,1,0,0:0:0:0:
475,192,26934,1,0,0:0:0:0:
182,192,27022,1,0,0:0:0:0:
402,192,27110,1,0,0:0:0:0:
109,192,27199,1,0,0:0:0:0:
36,192,27287,1,0,0:0:0:0:
329,192,27287,1,0,0:0:0:60:kick.wav
256,192,27287,1,0,0:0:0:0:
475,192,27375,1,0,0:0:0:0:
182,192,27463,1,0,0:0:0:0:
402,192,27552,1,0,0:0:0:0:
36,192,27640,1,0,0:0:0:60:kick.wav
329,192,27640,1,0,0:0:0:0:
475,192,27640,1,0,0:0:0:0:
182,192,27728,1,0,0:0:0:0:
402,192,27816,1,0,0:0:0:0:
109,192,27905,1,0,0:0:0:0:
36,192,27993,1,0,0:0:0:0:
329,192,27993,1,0,0:0:0:60:kick.wav
256,192,27993,1,0,0:0:0:0:
475,192,28081,1,0,0:0:0:0:
109,192,28169,1,0,0:0:0:0:
402,192,28258,1,0,0:0:0:0:
475,192,28346,1,0,0:0:0:60:kick.wav
182,192,28346,1,0,0:0:0:0:
36,192,28346,1,0,0:0:0:0:
256,192,28434,1,0,0:0:0:0:
109,192,28522,1,0,0:0:0:0:
329,192,28610,1,0,0:0:0:0:
475,192,28699,1,0,0:0:0:0:
182,192,28699,1,0,0:0:0:60:kick.wav
402,192,28699,1,0,0:0:0:0:
36,192,28787,1,0,0:0:0:0:
256,192,28875,1,0,0:0:0:0:
109,192,28963,1,0,0:0:0:0:
475,192,29052,1,0,0:0:0:60:kick.wav
36,192,29052,1,0,0:0:0:0:
329,192,29052,1,0,0:0:0:0:
256,192,29140,1,0,0:0:0:0:
109,192,29228,1,0,0:0:0:0:
329,192,29316,1,0,0:0:0:0:
475,192,29405,1,0,0:0:0:0:
182,192,29405,1,0,0:0:0:60:kick.wav
402,192,29405,1,0,0:0:0:0:
36,192,29493,1,0,0:0:0:0:
256,192,29581,1,0,0:0:0:0:
109,192,29669,1,0,0:0:0:0:
329,192,29758,1,0,0:0:0:0:
475,192,29758,1,0,0:0:0:60:kick.wav
36,192,29758,1,0,0:0:0:0:
256,192,29846,1,0,0:0:0:0:
402,192,29934,1,0,0:0:0:0:
109,192,30022,1,0,0:0:0:0:
182,192,30110,1,0,0:0:0:60:kick.wav
475,192,30110,1,0,0:0:0:0:
329,192,30110,1,0,0:0:0:0:
36,192,30199,1,0,0:0:0:0:
256,192,30287,1,0,0:0:0:0:
182,192,30375,1,0,0:0:0:0:
329,192,30463,1,0,0:0:0:0:
475,192,30463,1,0,0:0:0:60:kick.wav
36,192,30463,1,0,0:0:0:0:
256,192,30552,1,0,0:0:0:0:
402,192,30640,1,0,0:0:0:0:
109,192,30728,1,0,0:0:0:0:
182,192,30816,1,0,0:0:0:60:kick.wav
475,192,30816,1,0,0:0:0:0:
329,192,30816,1,0,0:0:0:0:
36,192,30905,1,0,0:0:0:0:
256,192,30993,1,0,0:0:0:0:
182,192,31081,1,0,0:0:0:0:
402,192,31169,1,0,0:0:0:60:kick.wav
109,192,31169,1,0,0:0:0:0:
36,192,31169,1,0,0:0:0:0:
329,192,31258,1,0,0:0:0:0:
182,192,31346,1,0,0:0:0:0:
256,192,31434,1,0,0:0:0:0:
402,192,31522,1,0,0:0:0:0:
109,192,31522,1,0,0:0:0:60:kick.wav
475,192,31522,1,0,0:0:0:0:
182,192,31610,1,0,0:0:0:0:
329,192,31699,1,0,0:0:0:0:
256,192,31787,1,0,0:0:0:0:
402,192,31875,1,0,0:0:0:60:kick.wav
109,192,31875,1,0,0:0:0:0:
36,192,31875,1,0,0:0:0:0:
329,192,31963,1,0,0:0:0:0:
182,192,32052,1,0,0:0:0:0:
256,192,32140,1,0,0:0:0:0:
109,192,32228,1,0,0:0:0:60:kick.wav
402,192,32228,1,0,0:0:0:0:
475,192,32228,1,0,0:0:0:0:
182,192,32316,1,0,0:0:0:0:
329,192,32405,1,0,0:0:0:0:
256,192,32493,1,0,0:0:0:0:
109,192,32581,1,0,0:0:0:0:
402,192,32581,1,0,0:0:0:60:kick.wav
36,192,32581,128,0,32669:0:0:0:60:jingle.wav
182,192,32669,1,0,0:0:0:0:
329,192,32758,1,0,0:0:0:0:
475,192,32758,128,0,32846:0:0:0:60:jingle.wav
182,192,32846,1,0,0:0:0:0:
402,192,32934,1,0,0:0:0:0:
109,192,32934,1,0,0:0:0:60:kick.wav
256,192,32934,128,0,33022:0:0:0:60:jingle.wav
36,192,33022,128,0,33110:0:0:0:60:jingle.wav
329,192,33022,1,0,0:0:0:0:
182,192,33110,1,0,0:0:0:0:
329,192,33199,1,0,0:0:0:0:
402,192,33287,1,0,0:0:0:60:kick.wav
256,192,33287,128,0,33375:0:0:0:60:jingle.wav
109,192,33287,1,0,0:0:0:0:
182,192,33375,1,0,0:0:0:0:
329,192,33463,1,0,0:0:0:0:
475,192,33552,128,0,33640:0:0:0:60:jingle.wav
182,192,33552,1,0,0:0:0:0:
329,192,33728,1,0,0:0:0:0:
109,192,33816,128,0,33905:0:0:0:60:jingle.wav
182,192,33816,1,0,0:0:0:0:
329,192,33905,1,0,0:0:0:0:
475,192,33993,1,0,0:0:0:60:kick.wav
182,192,33993,128,0,34081:0:0:0:60:jingle.wav
36,192,33993,1,0,0:0:0:60:hihat.wav
402,192,34081,1,0,0:0:0:0:
329,192,34169,128,0,34258:0:0:0:60:jingle.wav
36,192,34169,1,0,0:0:0:60:hihat.wav
109,192,34258,1,0,0:0:0:0:
475,192,34346,1,0,0:0:0:60:kick.wav
182,192,34346,128,0,34434:0:0:0:60:jingle.wav
402,192,34346,1,0,0:0:0:60:hihat.wav
36,192,34434,128,0,34522:0:0:0:60:jingle.wav
329,192,34434,1,0,0:0:0:0:
256,192,34522,1,0,0:0:0:60:hihat.wav
402,192,34610,1,0,0:0:0:0:
182,192,34699,128,0,34787:0:0:0:60:jingle.wav
329,192,34699,1,0,0:0:0:60:kick.wav
36,192,34699,1,0,0:0:0:60:hihat.wav
475,192,34787,1,0,0:0:0:0:
256,192,34875,1,0,0:0:0:60:hihat.wav
329,192,34963,128,0,35052:0:0:0:60:jingle.wav
36,192,34963,1,0,0:0:0:0:
182,192,35052,1,0,0:0:0:60:hihat.wav
475,192,35052,1,0,0:0:0:60:kick.wav
402,192,35052,1,0,0:0:0:0:
109,192,35140,1,0,0:0:0:0:
36,192,35228,128,0,35316:0:0:0:60:jingle.wav
256,192,35228,1,0,0:0:0:60:hihat.wav
329,192,35316,1,0,0:0:0:0:
182,192,35405,128,0,35493:0:0:0:60:jingle.wav
475,192,35405,1,0,0:0:0:60:kick.wav
109,192,35405,1,0,0:0:0:60:hihat.wav
402,192,35493,1,0,0:0:0:0:
329,192,35581,128,0,35669:0:0:0:60:jingle.wav
36,192,35581,1,0,0:0:0:60:hihat.wav
109,192,35669,1,0,0:0:0:0:
182,192,35758,128,0,35846:0:0:0:60:jingle.wav
402,192,35758,1,0,0:0:0:60:hihat.wav
475,192,35758,1,0,0:0:0:60:kick.wav
36,192,35846,128,0,35934:0:0:0:60:jingle.wav
329,192,35846,1,0,0:0:0:0:
256,192,35934,1,0,0:0:0:60:hihat.wav
402,192,36022,1,0,0:0:0:0:
182,192,36110,128,0,36199:0:0:0:60:jingle.wav
329,192,36110,1,0,0:0:0:60:hihat.wav
36,192,36110,1,0,0:0:0:60:kick.wav
475,192,36199,1,0,0:0:0:0:
256,192,36287,1,0,0:0:0:60:hihat.wav
329,192,36375,128,0,36463:0:0:0:60:jingle.wav
36,192,36375,1,0,0:0:0:0:
475,192,36463,1,0,0:0:0:60:kick.wav
182,192,36463,1,0,0:0:0:0:
402,192,36463,1,0,0:0:0:60:hihat.wav
109,192,36552,1,0,0:0:0:0:
36,192,36640,128,0,36728:0:0:0:60:jingle.wav
256,192,36640,1,0,0:0:0:60:hihat.wav
475,192,36728,1,0,0:0:0:0:
329,192,36816,128,0,36905:0:0:0:60:jingle.wav
402,192,36816,1,0,0:0:0:60:kick.wav
182,192,36816,1,0,0:0:0:60:hihat.wav
109,192,36905,1,0,0:0:0:0:
475,192,36993,128,0,37081:0:0:0:60:jingle.wav
256,192,36993,1,0,0:0:0:60:hihat.wav
182,192,37081,1,0,0:0:0:0:
329,192,37169,128,0,37258:0:0:0:60:jingle.wav
109,192,37169,1,0,0:0:0:60:hihat.wav
36,192,37169,1,0,0:0:0:60:kick.wav
182,192,37258,128,0,37346:0:0:0:60:jingle.wav
475,192,37258,1,0,0:0:0:0:
402,192,37346,1,0,0:0:0:60:hihat.wav
109,192,37434,1,0,0:0:0:0:
329,192,37522,128,0,37610:0:0:0:60:jingle.wav
475,192,37522,1,0,0:0:0:60:hihat.wav
36,192,37522,1,0,0:0:0:60:kick.wav
256,192,37610,1,0,0:0:0:0:
402,192,37699,1,0,0:0:0:60:hihat.wav
475,192,37787,128,0,37875:0:0:0:60:jingle.wav
182,192,37787,1,0,0:0:0:0:
36,192,37875,1,0,0:0:0:60:kick.wav
329,192,37875,1,0,0:0:0:60:hihat.wav
256,192,37875,1,0,0:0:0:0:
109,192,37963,1,0,0:0:0:0:
182,192,38052,128,0,38140:0:0:0:60:jingle.wav
402,192,38052,1,0,0:0:0:60:hihat.wav
475,192,38140,1,0,0:0:0:0:
256,192,38228,1,0,0:0:0:60:hihat.wav
36,192,38228,1,0,0:0:0:60:kick.wav
329,192,38228,128,0,38316:0:0:0:60:jingle.wav
109,192,38316,1,0,0:0:0:0:
475,192,38405,128,0,38493:0:0:0:60:jingle.wav
402,192,38405,1,0,0:0:0:60:hihat.wav
182,192,38493,1,0,0:0:0:0:
329,192,38581,128,0,38669:0:0:0:60:jingle.wav
36,192,38581,1,0,0:0:0:60:kick.wav
109,192,38581,1,0,0:0:0:60:hihat.wav
182,192,38669,128,0,38758:0:0:0:60:jingle.wav
475,192,38669,1,0,0:0:0:0:
402,192,38758,1,0,0:0:0:60:hihat.wav
109,192,38846,1,0,0:0:0:0:
329,192,38934,128,0,39022:0:0:0:60:jingle.wav
36,192,38934,1,0,0:0:0:60:kick.wav
475,192,38934,1,0,0:0:0:60:hihat.wav
256,192,39022,1,0,0:0:0:0:
402,192,39110,1,0,0:0:0:60:hihat.wav
475,192,39199,128,0,39287:0:0:0:60:jingle.wav
182,192,39199,1,0,0:0:0:0:
256,192,39287,1,0,0:0:0:60:hihat.wav
36,192,39287,1,0,0:0:0:60:kick.wav
329,192,39287,1,0,0:0:0:0:
109,192,39375,1,0,0:0:0:0:
182,192,39463,128,0,39552:0:0:0:60:jingle.wav
402,192,39463,1,0,0:0:0:60:hihat.wav
329,192,39552,1,0,0:0:0:0:
109,192,39640,128,0,39728:0:0:0:60:jingle.wav
36,192,39640,1,0,0:0:0:60:kick.wav
475,192,39640,1,0,0:0:0:60:hihat.wav
329,192,39728,1,0,0:0:0:0:
402,192,39816,128,0,39905:0:0:0:60:jingle.wav
182,192,39816,1,0,0:0:0:60:hihat.wav
109,192,39905,1,0,0:0:0:0:
256,192,39993,128,0,40081:0:0:0:60:jingle.wav
36,192,39993,1,0,0:0:0:60:hihat.wav
475,192,39993,1,0,0:0:0:60:kick.wav
109,192,40081,128,0,40169:0:0:0:60:jingle.wav
402,192,40081,1,0,0:0:0:0:
329,192,40169,1,0,0:0:0:60:hihat.wav
182,192,40258,1,0,0:0:0:0:
256,192,40346,128,0,40434:0:0:0:60:jingle.wav
402,192,40346,1,0,0:0:0:60:hihat.wav
36,192,40346,1,0,0:0:0:60:kick.wav
475,192,40434,1,0,0:0:0:0:
329,192,40522,1,0,0:0:0:60:hihat.wav
402,192,40610,128,0,40699:0:0:0:60:jingle.wav
109,192,40610,1,0,0:0:0:0:
36,192,40699,1,0,0:0:0:60:kick.wav
475,192,40699,1,0,0:0:0:60:hihat.wav
256,192,40699,1,0,0:0:0:0:
182,192,40787,1,0,0:0:0:0:
109,192,40875,128,0,40963:0:0:0:60:jingle.wav
329,192,40875,1,0,0:0:0:60:hihat.wav
256,192,40963,1,0,0:0:0:0:
182,192,41052,128,0,41140:0:0:0:60:jingle.wav
475,192,41052,1,0,0:0:0:60:kick.wav
36,192,41052,1,0,0:0:0:60:hihat.wav
402,192,41140,1,0,0:0:0:0:
329,192,41228,128,0,41316:0:0:0:60:jingle.wav
109,192,41228,1,0,0:0:0:60:hihat.wav
182,192,41316,1,0,0:0:0:0:
256,192,41405,128,0,41493:0:0:0:60:jingle.wav
475,192,41405,1,0,0:0:0:60:kick.wav
36,192,41405,1,0,0:0:0:60:hihat.wav
182,192,41493,128,0,41581:0:0:0:60:jingle.wav
402,192,41493,1,0,0:0:0:0:
329,192,41581,1,0,0:0:0:60:hihat.wav
109,192,41669,1,0,0:0:0:0:
256,192,41758,128,0,41846:0:0:0:60:jingle.wav
36,192,41758,1,0,0:0:0:60:kick.wav
475,192,41758,1,0,0:0:0:60:hihat.wav
402,192,41846,1,0,0:0:0:0:
109,192,41934,1,0,0:0:0:60:hihat.wav
329,192,42022,128,0,42110:0:0:0:60:jingle.wav
182,192,42022,1,0,0:0:0:0:
256,192,42110,1,0,0:0:0:60:hihat.wav
475,192,42110,1,0,0:0:0:60:kick.wav
36,192,42110,1,0,0:0:0:0:
109,192,42199,1,0,0:0:0:0:
182,192,42287,128,0,42375:0:0:0:60:jingle.wav
329,192,42287,1,0,0:0:0:60:hihat.wav
475,192,42375,1,0,0:0:0:0:
109,192,42463,1,0,0:0:0:60:kick.wav
402,192,42463,1,0,0:0:0:60:hihat.wav
36,192,42463,128,0,42552:0:0:0:60:jingle.wav
182,192,42552,1,0,0:0:0:0:
329,192,42640,1,0,0:0:0:60:hihat.wav
475,192,42640,128,0,42728:0:0:0:60:jingle.wav
182,192,42728,1,0,0:0:0:0:
402,192,42816,1,0,0:0:0:60:kick.wav
109,192,42816,1,0,0:0:0:60:hihat.wav
256,192,42816,128,0,42905:0:0:0:60:jingle.wav
329,192,42905,1,0,0:0:0:0:
36,192,42905,128,0,42993:0:0:0:60:jingle.wav
182,192,42993,1,0,0:0:0:60:hihat.wav
329,192,43081,1,0,0:0:0:0:
109,192,43169,1,0,0:0:0:60:kick.wav
402,192,43169,1,0,0:0:0:60:hihat.wav
256,192,43169,128,0,43258:0:0:0:60:jingle.wav
182,192,43258,1,0,0:0:0:0:
329,192,43346,1,0,0:0:0:60:hihat.wav
182,192,43434,1,0,0:0:0:0:
475,192,43434,128,0,43522:0:0:0:60:jingle.wav
109,192,43522,1,0,0:0:0:60:hihat.wav
402,192,43522,1,0,0:0:0:60:kick.wav
256,192,43522,1,0,0:0:0:0:
329,192,43610,1,0,0:0:0:0:
182,192,43699,1,0,0:0:0:60:hihat.wav
36,192,43699,128,0,43787:0:0:0:60:jingle.wav
329,192,43787,1,0,0:0:0:0:
36,192,43875,1,0,0:0:0:60:kick.wav
475,192,43875,1,0,0:0:0:60:hihat.wav
109,192,43875,128,0,43963:0:0:0:60:jingle.wav
182,192,43963,1,0,0:0:0:0:
402,192,44052,128,0,44140:0:0:0:60:jingle.wav
329,192,44052,1,0,0:0:0:60:hihat.wav
182,192,44140,1,0,0:0:0:0:
256,192,44228,128,0,44316:0:0:0:60:jingle.wav
36,192,44228,1,0,0:0:0:60:hihat.wav
475,192,44228,1,0,0:0:0:60:kick.wav
109,192,44316,128,0,44405:0:0:0:60:jingle.wav
329,192,44316,1,0,0:0:0:0:
182,192,44405,1,0,0:0:0:60:hihat.wav
329,192,44493,1,0,0:0:0:0:
36,192,44581,5,0,0:0:0:60:kick.wav
475,192,44581,1,0,0:0:0:60:hihat.wav
256,192,44581,128,0,44669:0:0:0:60:jingle.wav
182,192,44669,1,0,0:0:0:0:
329,192,44758,1,0,0:0:0:60:hihat.wav
402,192,44846,128,0,44934:0:0:0:60:jingle.wav
109,192,44846,1,0,0:0:0:0:
182,192,45022,1,0,0:0:0:0:
109,192,45110,128,0,45199:0:0:0:60:jingle.wav
329,192,45110,1,0,0:0:0:60:hihat.wav
402,192,45199,1,0,0:0:0:0:
36,192,45287,1,0,0:0:0:60:hihat.wav
256,192,45287,1,0,0:0:0:0:
475,192,45287,1,0,0:0:0:60:kick.wav
109,192,45375,1,0,0:0:0:60:hihat.wav
182,192,45463,128,0,45640:0:0:0:0:
402,192,45463,1,0,0:0:0:90:hihat.wav
329,192,45552,1,0,0:0:0:60:hihat.wav
256,192,45640,1,0,0:0:0:0:
109,192,45640,1,0,0:0:0:60:hihat.wav
475,192,45640,1,0,0:0:0:60:kick.wav
36,192,45728,1,0,0:0:0:60:hihat.wav
182,192,45816,128,0,45993:0:0:0:0:
329,192,45816,1,0,0:0:0:90:hihat.wav
402,192,45905,1,0,0:0:0:60:hihat.wav
256,192,45993,1,0,0:0:0:0:
475,192,45993,1,0,0:0:0:60:kick.wav
36,192,45993,1,0,0:0:0:60:hihat.wav
109,192,46081,1,0,0:0:0:60:hihat.wav
402,192,46169,1,0,0:0:0:90:hihat.wav
182,192,46169,128,0,46346:0:0:0:0:
329,192,46258,1,0,0:0:0:60:hihat.wav
109,192,46346,1,0,0:0:0:60:hihat.wav
256,192,46346,1,0,0:0:0:0:
475,192,46346,1,0,0:0:0:60:kick.wav
36,192,46434,1,0,0:0:0:60:hihat.wav
329,192,46522,1,0,0:0:0:90:hihat.wav
182,192,46522,128,0,46699:0:0:0:0:
402,192,46610,1,0,0:0:0:60:hihat.wav
475,192,46699,1,0,0:0:0:60:hihat.wav
36,192,46699,1,0,0:0:0:60:kick.wav
256,192,46699,1,0,0:0:0:0:
402,192,46787,1,0,0:0:0:60:hihat.wav
329,192,46875,128,0,47052:0:0:0:0:
109,192,46875,1,0,0:0:0:90:hihat.wav
182,192,46963,1,0,0:0:0:60:hihat.wav
256,192,47052,1,0,0:0:0:0:
36,192,47052,1,0,0:0:0:60:kick.wav
402,192,47052,1,0,0:0:0:60:hihat.wav
475,192,47140,1,0,0:0:0:60:hihat.wav
329,192,47228,128,0,47405:0:0:0:0:
182,192,47228,1,0,0:0:0:90:hihat.wav
109,192,47316,1,0,0:0:0:60:hihat.wav
475,192,47405,1,0,0:0:0:60:hihat.wav
256,192,47405,1,0,0:0:0:0:
36,192,47405,1,0,0:0:0:60:kick.wav
402,192,47493,1,0,0:0:0:60:hihat.wav
329,192,47581,128,0,47758:0:0:0:0:
109,192,47581,1,0,0:0:0:90:hihat.wav
182,192,47669,1,0,0:0:0:60:hihat.wav
256,192,47758,1,0,0:0:0:0:
402,192,47758,1,0,0:0:0:60:hihat.wav
36,192,47758,1,0,0:0:0:60:kick.wav
475,192,47846,1,0,0:0:0:60:hihat.wav
182,192,47934,1,0,0:0:0:90:hihat.wav
329,192,47934,128,0,48110:0:0:0:0:
109,192,48022,1,0,0:0:0:60:hihat.wav
36,192,48110,1,0,0:0:0:60:kick.wav
256,192,48110,1,0,0:0:0:60:hihat.wav
475,192,48110,1,0,0:0:0:0:
109,192,48199,1,0,0:0:0:0:
329,192,48199,1,0,0:0:0:60:hihat.wav
402,192,48287,1,0,0:0:0:90:hihat.wav
182,192,48287,1,0,0:0:0:0:
109,192,48375,1,0,0:0:0:0:
329,192,48375,1,0,0:0:0:60:hihat.wav
475,192,48463,1,0,0:0:0:60:kick.wav
256,192,48463,1,0,0:0:0:60:hihat.wav
36,192,48463,1,0,0:0:0:0:
402,192,48552,1,0,0:0:0:0:
182,192,48552,1,0,0:0:0:60:hihat.wav
329,192,48640,1,0,0:0:0:0:
109,192,48640,1,0,0:0:0:90:hihat.wav
402,192,48728,1,0,0:0:0:0:
182,192,48728,1,0,0:0:0:60:hihat.wav
36,192,48816,1,0,0:0:0:60:kick.wav
475,192,48816,1,0,0:0:0:0:
256,192,48816,1,0,0:0:0:60:hihat.wav
182,192,48905,1,0,0:0:0:0:
329,192,48905,1,0,0:0:0:60:hihat.wav
109,192,48993,1,0,0:0:0:0:
402,192,48993,1,0,0:0:0:90:hihat.wav
182,192,49081,1,0,0:0:0:0:
329,192,49081,1,0,0:0:0:60:hihat.wav
475,192,49169,1,0,0:0:0:60:kick.wav
36,192,49169,1,0,0:0:0:0:
256,192,49169,1,0,0:0:0:60:hihat.wav
402,192,49258,1,0,0:0:0:0:
109,192,49258,1,0,0:0:0:60:hihat.wav
329,192,49346,1,0,0:0:0:0:
182,192,49346,1,0,0:0:0:90:hihat.wav
402,192,49434,1,0,0:0:0:0:
109,192,49434,1,0,0:0:0:60:hihat.wav
256,192,49522,1,0,0:0:0:60:hihat.wav
475,192,49522,1,0,0:0:0:0:
36,192,49522,1,0,0:0:0:60:kick.wav
182,192,49610,1,0,0:0:0:0:
329,192,49610,1,0,0:0:0:60:hihat.wav
109,192,49699,1,0,0:0:0:0:
402,192,49699,1,0,0:0:0:90:hihat.wav
36,192,49787,1,0,0:0:0:0:
256,192,49787,1,0,0:0:0:60:hihat.wav
329,192,49875,1,0,0:0:0:0:
182,192,49875,1,0,0:0:0:60:hihat.wav
475,192,49875,1,0,0:0:0:60:kick.wav
402,192,49963,1,0,0:0:0:0:
36,192,49963,1,0,0:0:0:60:hihat.wav
109,192,50052,1,0,0:0:0:90:hihat.wav
256,192,50052,1,0,0:0:0:0:
329,192,50140,1,0,0:0:0:0:
182,192,50140,1,0,0:0:0:60:hihat.wav
402,192,50228,1,0,0:0:0:60:kick.wav
109,192,50228,1,0,0:0:0:0:
475,192,50228,1,0,0:0:0:60:hihat.wav
36,192,50316,1,0,0:0:0:0:
256,192,50316,1,0,0:0:0:60:hihat.wav
182,192,50405,1,0,0:0:0:0:
329,192,50405,1,0,0:0:0:90:hihat.wav
109,192,50493,1,0,0:0:0:0:
402,192,50493,1,0,0:0:0:60:hihat.wav
475,192,50581,1,0,0:0:0:0:
182,192,50581,1,0,0:0:0:60:kick.wav
256,192,50581,1,0,0:0:0:60:hihat.wav
329,192,50669,1,0,0:0:0:0:
36,192,50669,1,0,0:0:0:60:hihat.wav
402,192,50758,1,0,0:0:0:0:
109,192,50758,1,0,0:0:0:90:hihat.wav
329,192,50846,1,0,0:0:0:0:
182,192,50846,1,0,0:0:0:60:hihat.wav
36,192,50934,1,0,0:0:0:60:kick.wav
475,192,50934,1,0,0:0:0:0:
256,192,50934,1,0,0:0:0:60:hihat.wav
329,192,51022,1,0,0:0:0:60:hihat.wav
402,192,51110,1,0,0:0:0:90:hihat.wav
109,192,51110,128,0,51287:0:0:0:0:
256,192,51199,1,0,0:0:0:60:hihat.wav
475,192,51287,1,0,0:0:0:0:
36,192,51287,1,0,0:0:0:60:kick.wav
329,192,51287,1,0,0:0:0:60:hihat.wav
182,192,51375,1,0,0:0:0:60:hihat.wav
109,192,51463,128,0,51640:0:0:0:0:
402,192,51463,1,0,0:0:0:90:hihat.wav
329,192,51552,1,0,0:0:0:60:hihat.wav
36,192,51640,1,0,0:0:0:60:kick.wav
256,192,51640,1,0,0:0:0:60:hihat.wav
475,192,51640,1,0,0:0:0:0:
329,192,51728,1,0,0:0:0:60:hihat.wav
402,192,51816,1,0,0:0:0:90:hihat.wav
109,192,51816,128,0,51993:0:0:0:0:
256,192,51905,1,0,0:0:0:60:hihat.wav
475,192,51993,1,0,0:0:0:0:
36,192,51993,1,0,0:0:0:60:kick.wav
329,192,51993,1,0,0:0:0:60:hihat.wav
182,192,52081,1,0,0:0:0:60:hihat.wav
402,192,52169,1,0,0:0:0:90:hihat.wav
109,192,52169,128,0,52346:0:0:0:0:
329,192,52258,1,0,0:0:0:60:hihat.wav
256,192,52346,1,0,0:0:0:60:hihat.wav
36,192,52346,1,0,0:0:0:0:
475,192,52346,1,0,0:0:0:60:kick.wav
182,192,52434,1,0,0:0:0:60:hihat.wav
402,192,52522,128,0,52699:0:0:0:0:
109,192,52522,1,0,0:0:0:90:hihat.wav
256,192,52610,1,0,0:0:0:60:hihat.wav
475,192,52699,1,0,0:0:0:60:kick.wav
36,192,52699,1,0,0:0:0:0:
182,192,52699,1,0,0:0:0:60:hihat.wav
329,192,52787,1,0,0:0:0:60:hihat.wav
402,192,52875,128,0,53052:0:0:0:0:
109,192,52875,1,0,0:0:0:90:hihat.wav
182,192,52963,1,0,0:0:0:60:hihat.wav
475,192,53052,1,0,0:0:0:60:kick.wav
36,192,53052,1,0,0:0:0:0:
256,192,53052,1,0,0:0:0:60:hihat.wav
182,192,53140,1,0,0:0:0:60:hihat.wav
109,192,53228,1,0,0:0:0:90:hihat.wav
402,192,53228,128,0,53405:0:0:0:0:
256,192,53316,1,0,0:0:0:60:hihat.wav
475,192,53405,1,0,0:0:0:60:kick.wav
182,192,53405,1,0,0:0:0:60:hihat.wav
36,192,53405,1,0,0:0:0:0:
329,192,53493,1,0,0:0:0:60:hihat.wav
109,192,53581,1,0,0:0:0:90:hihat.wav
402,192,53581,128,0,53758:0:0:0:0:
182,192,53669,1,0,0:0:0:60:hihat.wav
36,192,53758,1,0,0:0:0:60:kick.wav
256,192,53758,1,0,0:0:0:0:
329,192,53758,1,0,0:0:0:60:hihat.wav
109,192,53846,1,0,0:0:0:60:hihat.wav
182,192,53934,1,0,0:0:0:90:hihat.wav
475,192,53934,128,0,54110:0:0:0:0:
329,192,54022,1,0,0:0:0:60:hihat.wav
402,192,54110,1,0,0:0:0:0:
256,192,54110,1,0,0:0:0:60:hihat.wav
36,192,54110,1,0,0:0:0:60:kick.wav
109,192,54199,1,0,0:0:0:60:hihat.wav
329,192,54287,1,0,0:0:0:90:hihat.wav
475,192,54287,128,0,54463:0:0:0:0:
182,192,54375,1,0,0:0:0:60:hihat.wav
36,192,54463,1,0,0:0:0:60:kick.wav
256,192,54463,1,0,0:0:0:60:hihat.wav
402,192,54463,1,0,0:0:0:0:
109,192,54552,1,0,0:0:0:60:hihat.wav
182,192,54640,1,0,0:0:0:90:hihat.wav
475,192,54640,128,0,54816:0:0:0:0:
329,192,54728,1,0,0:0:0:60:hihat.wav
402,192,54816,1,0,0:0:0:0:
256,192,54816,1,0,0:0:0:60:hihat.wav
36,192,54816,1,0,0:0:0:60:kick.wav
182,192,54905,1,0,0:0:0:60:hihat.wav
329,192,54993,1,0,0:0:0:90:hihat.wav
475,192,54993,128,0,55169:0:0:0:0:
36,192,55081,1,0,0:0:0:60:hihat.wav
256,192,55169,1,0,0:0:0:60:kick.wav
182,192,55169,1,0,0:0:0:60:hihat.wav
402,192,55169,1,0,0:0:0:0:
109,192,55258,1,0,0:0:0:60:hihat.wav
329,192,55346,1,0,0:0:0:90:hihat.wav
36,192,55346,128,0,55522:0:0:0:0:
402,192,55434,1,0,0:0:0:60:hihat.wav
475,192,55522,1,0,0:0:0:60:kick.wav
256,192,55522,1,0,0:0:0:0:
182,192,55522,1,0,0:0:0:60:hihat.wav
109,192,55610,1,0,0:0:0:60:hihat.wav
329,192,55699,1,0,0:0:0:90:hihat.wav
36,192,55699,128,0,55875:0:0:0:0:
402,192,55787,1,0,0:0:0:60:hihat.wav
182,192,55875,1,0,0:0:0:60:hihat.wav
256,192,55875,1,0,0:0:0:0:
475,192,55875,1,0,0:0:0:60:kick.wav
109,192,55963,1,0,0:0:0:60:hihat.wav
36,192,56052,128,0,56228:0:0:0:0:
329,192,56052,1,0,0:0:0:90:hihat.wav
402,192,56140,1,0,0:0:0:60:hihat.wav
182,192,56316,1,0,0:0:0:60:hihat.wav
329,192,56405,1,0,0:0:0:90:hihat.wav
36,192,56405,128,0,56581:0:0:0:0:
402,192,56493,1,0,0:0:0:60:hihat.wav
182,192,56581,1,0,0:0:0:60:hihat.wav
256,192,56581,1,0,0:0:0:0:
475,192,56581,1,0,0:0:0:60:kick.wav
329,192,56669,1,0,0:0:0:60:hihat.wav
256,192,56758,1,0,0:0:0:90:hihat.wav
109,192,56758,128,0,56934:0:0:0:0:
182,192,56846,1,0,0:0:0:60:hihat.wav
475,192,56934,1,0,0:0:0:60:kick.wav
36,192,56934,1,0,0:0:0:0:
329,192,56934,1,0,0:0:0:60:hihat.wav
402,192,57022,1,0,0:0:0:60:hihat.wav
109,192,57110,128,0,57287:0:0:0:0:
256,192,57110,1,0,0:0:0:90:hihat.wav
329,192,57199,1,0,0:0:0:60:hihat.wav
36,192,57287,1,0,0:0:0:0:
182,192,57287,1,0,0:0:0:60:hihat.wav
475,192,57287,1,0,0:0:0:60:kick.wav
329,192,57375,1,0,0:0:0:60:hihat.wav
256,192,57463,1,0,0:0:0:90:hihat.wav
109,192,57463,128,0,57640:0:0:0:0:
182,192,57552,1,0,0:0:0:60:hihat.wav
329,192,57640,1,0,0:0:0:60:hihat.wav
475,192,57640,1,0,0:0:0:60:kick.wav
36,192,57640,1,0,0:0:0:0:
402,192,57728,1,0,0:0:0:60:hihat.wav
109,192,57816,128,0,57993:0:0:0:0:
256,192,57816,1,0,0:0:0:90:hihat.wav
329,192,57905,1,0,0:0:0:60:hihat.wav
256,192,57993,1,0,0:0:0:60:hihat.wav
36,192,57993,1,0,0:0:0:60:kick.wav
475,192,57993,1,0,0:0:0:0:
182,192,58081,1,0,0:0:0:60:hihat.wav
329,192,58169,1,0,0:0:0:90:hihat.wav
402,192,58169,128,0,58346:0:0:0:0:
109,192,58258,1,0,0:0:0:60:hihat.wav
182,192,58346,1,0,0:0:0:60:hihat.wav
475,192,58346,1,0,0:0:0:0:
36,192,58346,1,0,0:0:0:60:kick.wav
329,192,58434,1,0,0:0:0:60:hihat.wav
109,192,58522,1,0,0:0:0:90:hihat.wav
402,192,58522,128,0,58699:0:0:0:0:
182,192,58610,1,0,0:0:0:60:hihat.wav
256,192,58699,1,0,0:0:0:60:hihat.wav
36,192,58699,1,0,0:0:0:60:kick.wav
475,192,58699,1,0,0:0:0:0:
182,192,58787,1,0,0:0:0:60:hihat.wav
329,192,58875,1,0,0:0:0:90:hihat.wav
402,192,58875,128,0,59052:0:0:0:0:
109,192,58963,1,0,0:0:0:60:hihat.wav
182,192,59052,1,0,0:0:0:60:hihat.wav
475,192,59052,1,0,0:0:0:0:
36,192,59052,1,0,0:0:0:60:kick.wav
329,192,59140,1,0,0:0:0:60:hihat.wav
109,192,59228,1,0,0:0:0:90:hihat.wav
402,192,59228,128,0,59405:0:0:0:0:
182,192,59316,1,0,0:0:0:60:hihat.wav
256,192,59405,1,0,0:0:0:0:
475,192,59405,1,0,0:0:0:60:hihat.wav
36,192,59405,1,0,0:0:0:60:kick.wav
182,192,59493,1,0,0:0:0:0:
402,192,59493,1,0,0:0:0:60:hihat.wav
329,192,59581,1,0,0:0:0:90:hihat.wav
109,192,59581,1,0,0:0:0:0:
402,192,59669,1,0,0:0:0:0:
256,192,59669,1,0,0:0:0:60:hihat.wav
182,192,59758,1,0,0:0:0:0:
475,192,59758,1,0,0:0:0:60:kick.wav
36,192,59758,1,0,0:0:0:60:hihat.wav
329,192,59846,1,0,0:0:0:0:
109,192,59846,1,0,0:0:0:60:hihat.wav
402,192,59934,1,0,0:0:0:0:
182,192,59934,1,0,0:0:0:90:hihat.wav
475,192,60022,1,0,0:0:0:0:
109,192,60022,1,0,0:0:0:60:hihat.wav
36,192,60110,1,0,0:0:0:60:kick.wav
256,192,60110,1,0,0:0:0:0:
329,192,60110,1,0,0:0:0:60:hihat.wav
182,192,60199,1,0,0:0:0:60:hihat.wav
475,192,60199,1,0,0:0:0:0:
109,192,60287,1,0,0:0:0:90:hihat.wav
402,192,60287,1,0,0:0:0:0:
329,192,60375,1,0,0:0:0:0:
182,192,60375,1,0,0:0:0:60:hihat.wav
36,192,60463,1,0,0:0:0:60:kick.wav
256,192,60463,1,0,0:0:0:0:
475,192,60463,1,0,0:0:0:60:hihat.wav
402,192,60552,1,0,0:0:0:60:hihat.wav
109,192,60552,1,0,0:0:0:0:
182,192,60640,1,0,0:0:0:0:
329,192,60640,1,0,0:0:0:90:hihat.wav
109,192,60728,1,0,0:0:0:60:hihat.wav
402,192,60728,1,0,0:0:0:0:
475,192,60816,1,0,0:0:0:0:
256,192,60816,1,0,0:0:0:60:hihat.wav
36,192,60816,1,0,0:0:0:60:kick.wav
402,192,60905,1,0,0:0:0:0:
182,192,60905,1,0,0:0:0:60:hihat.wav
329,192,60993,1,0,0:0:0:0:
109,192,60993,1,0,0:0:0:90:hihat.wav
36,192,61081,1,0,0:0:0:0:
475,192,61081,1,0,0:0:0:60:hihat.wav
402,192,61169,1,0,0:0:0:60:hihat.wav
256,192,61169,1,0,0:0:0:60:kick.wav
109,192,61169,1,0,0:0:0:0:
329,192,61258,1,0,0:0:0:60:hihat.wav
182,192,61258,1,0,0:0:0:0:
36,192,61346,1,0,0:0:0:90:hihat.wav
475,192,61346,1,0,0:0:0:0:
402,192,61434,1,0,0:0:0:0:
109,192,61434,1,0,0:0:0:60:hihat.wav
182,192,61522,1,0,0:0:0:60:hihat.wav
329,192,61522,1,0,0:0:0:0:
256,192,61522,1,0,0:0:0:60:kick.wav
109,192,61610,1,0,0:0:0:0:
475,192,61610,1,0,0:0:0:60:hihat.wav
256,192,61699,1,0,0:0:0:0:
402,192,61699,1,0,0:0:0:90:hihat.wav
182,192,61787,1,0,0:0:0:60:hihat.wav
36,192,61787,1,0,0:0:0:0:
329,192,61875,1,0,0:0:0:60:hihat.wav
475,192,61875,1,0,0:0:0:60:kick.wav
109,192,61875,1,0,0:0:0:0:
402,192,61963,1,0,0:0:0:0:
182,192,61963,1,0,0:0:0:60:hihat.wav
36,192,62052,1,0,0:0:0:0:
329,192,62052,1,0,0:0:0:90:hihat.wav
109,192,62140,1,0,0:0:0:60:hihat.wav
256,192,62140,1,0,0:0:0:0:
329,192,62228,1,0,0:0:0:60:kick.wav
182,192,62228,1,0,0:0:0:0:
475,192,62228,1,0,0:0:0:60:hihat.wav
109,192,62316,1,0,0:0:0:60:hihat.wav
36,192,62405,128,0,62581:0:0:0:0:
256,192,62405,1,0,0:0:0:90:hihat.wav
182,192,62493,1,0,0:0:0:60:hihat.wav
475,192,62581,1,0,0:0:0:0:
329,192,62581,1,0,0:0:0:60:kick.wav
109,192,62581,1,0,0:0:0:60:hihat.wav
256,192,62669,1,0,0:0:0:60:hihat.wav
36,192,62758,128,0,62934:0:0:0:0:
402,192,62758,1,0,0:0:0:90:hihat.wav
256,192,62846,1,0,0:0:0:60:hihat.wav
329,192,62934,1,0,0:0:0:60:kick.wav
182,192,62934,1,0,0:0:0:0:
475,192,62934,1,0,0:0:0:60:hihat.wav
109,192,63022,1,0,0:0:0:60:hihat.wav
36,192,63110,128,0,63287:0:0:0:0:
256,192,63110,1,0,0:0:0:90:hihat.wav
182,192,63199,1,0,0:0:0:60:hihat.wav
329,192,63287,1,0,0:0:0:60:kick.wav
475,192,63287,1,0,0:0:0:0:
109,192,63287,1,0,0:0:0:60:hihat.wav
256,192,63375,1,0,0:0:0:60:hihat.wav
402,192,63463,1,0,0:0:0:90:hihat.wav
36,192,63463,128,0,63640:0:0:0:0:
256,192,63552,1,0,0:0:0:60:hihat.wav
109,192,63640,1,0,0:0:0:0:
182,192,63640,1,0,0:0:0:60:kick.wav
475,192,63640,1,0,0:0:0:60:hihat.wav
402,192,63728,1,0,0:0:0:60:hihat.wav
36,192,63816,1,0,0:0:0:90:hihat.wav
329,192,63816,128,0,63993:0:0:0:0:
109,192,63905,1,0,0:0:0:60:hihat.wav
256,192,63993,1,0,0:0:0:0:
182,192,63993,1,0,0:0:0:60:kick.wav
475,192,63993,1,0,0:0:0:60:hihat.wav
109,192,64081,1,0,0:0:0:60:hihat.wav
329,192,64169,128,0,64346:0:0:0:0:
402,192,64169,1,0,0:0:0:90:hihat.wav
36,192,64258,1,0,0:0:0:60:hihat.wav
109,192,64346,1,0,0:0:0:0:
182,192,64346,1,0,0:0:0:60:kick.wav
475,192,64346,1,0,0:0:0:60:hihat.wav
402,192,64434,1,0,0:0:0:60:hihat.wav
36,192,64522,1,0,0:0:0:90:hihat.wav
329,192,64522,128,0,64699:0:0:0:0:
109,192,64610,1,0,0:0:0:60:hihat.wav
182,192,64699,1,0,0:0:0:60:kick.wav
256,192,64699,1,0,0:0:0:0:
402,192,64699,1,0,0:0:0:60:hihat.wav
109,192,64787,1,0,0:0:0:60:hihat.wav
329,192,64875,128,0,65052:0:0:0:0:
475,192,64875,1,0,0:0:0:90:hihat.wav
36,192,64963,1,0,0:0:0:60:hihat.wav
109,192,65052,1,0,0:0:0:0:
256,192,65052,1,0,0:0:0:60:hihat.wav
402,192,65052,1,0,0:0:0:60:kick.wav
182,192,65140,1,0,0:0:0:60:hihat.wav
475,192,65228,128,0,65405:0:0:0:0:
109,192,65228,1,0,0:0:0:90:hihat.wav
329,192,65316,1,0,0:0:0:60:hihat.wav
402,192,65405,1,0,0:0:0:60:kick.wav
36,192,65405,1,0,0:0:0:0:
182,192,65405,1,0,0:0:0:60:hihat.wav
256,192,65493,1,0,0:0:0:60:hihat.wav
329,192,65581,1,0,0:0:0:90:hihat.wav
475,192,65581,128,0,65758:0:0:0:0:
36,192,65669,1,0,0:0:0:60:hihat.wav
256,192,65758,1,0,0:0:0:60:hihat.wav
402,192,65758,1,0,0:0:0:60:kick.wav
109,192,65758,1,0,0:0:0:0:
182,192,65846,1,0,0:0:0:60:hihat.wav
475,192,65934,128,0,66110:0:0:0:0:
109,192,65934,1,0,0:0:0:90:hihat.wav
329,192,66022,1,0,0:0:0:60:hihat.wav
402,192,66110,1,0,0:0:0:60:kick.wav
182,192,66110,1,0,0:0:0:60:hihat.wav
36,192,66110,1,0,0:0:0:0:
256,192,66199,1,0,0:0:0:60:hihat.wav
475,192,66287,128,0,66463:0:0:0:0:
329,192,66287,1,0,0:0:0:90:hihat.wav
36,192,66375,1,0,0:0:0:60:hihat.wav
109,192,66463,1,0,0:0:0:60:kick.wav
402,192,66463,1,0,0:0:0:0:
329,192,66463,1,0,0:0:0:60:hihat.wav
256,192,66552,1,0,0:0:0:60:hihat.wav
182,192,66640,128,0,66816:0:0:0:0:
475,192,66640,1,0,0:0:0:90:hihat.wav
36,192,66728,1,0,0:0:0:60:hihat.wav
402,192,66816,1,0,0:0:0:0:
109,192,66816,1,0,0:0:0:60:kick.wav
256,192,66816,1,0,0:0:0:60:hihat.wav
329,192,66905,1,0,0:0:0:60:hihat.wav
182,192,66993,128,0,67169:0:0:0:0:
36,192,66993,1,0,0:0:0:90:hihat.wav
475,192,67081,1,0,0:0:0:60:hihat.wav
329,192,67169,1,0,0:0:0:60:hihat.wav
109,192,67169,1,0,0:0:0:60:kick.wav
402,192,67169,1,0,0:0:0:0:
256,192,67258,1,0,0:0:0:60:hihat.wav
182,192,67346,128,0,67522:0:0:0:0:
475,192,67346,1,0,0:0:0:90:hihat.wav
36,192,67434,1,0,0:0:0:60:hihat.wav
109,192,67522,1,0,0:0:0:60:kick.wav
402,192,67522,1,0,0:0:0:60:hihat.wav
329,192,67522,1,0,0:0:0:0:
256,192,67610,1,0,0:0:0:60:hihat.wav
182,192,67699,128,0,67875:0:0:0:0:
402,192,67699,1,0,0:0:0:90:hihat.wav
329,192,67787,1,0,0:0:0:60:hihat.wav
36,192,67875,1,0,0:0:0:60:kick.wav
256,192,67875,1,4,1:0:0:90:
402,192,67875,128,0,67963:0:0:0:60:jingle.wav
475,192,67875,1,0,0:0:0:60:hihat.wav
109,192,67875,1,0,0:0:0:75:finish2.wav
182,192,67963,1,0,0:0:0:60:hihat.wav
475,192,68052,128,0,68140:0:0:0:58:jingle.wav
329,192,68052,1,0,0:0:0:90:hihat.wav
182,192,68140,1,0,0:0:0:60:hihat.wav
402,192,68228,1,0,0:0:0:60:hihat.wav
109,192,68228,128,0,68316:0:0:0:56:jingle.wav
329,192,68316,1,0,0:0:0:60:hihat.wav
36,192,68316,128,0,68405:0:0:0:54:jingle.wav
256,192,68405,1,0,0:0:0:90:hihat.wav
402,192,68493,1,0,0:0:0:60:hihat.wav
36,192,68581,1,0,0:0:0:60:hihat.wav
329,192,68581,128,0,68669:0:0:0:52:jingle.wav
109,192,68669,1,0,0:0:0:60:hihat.wav
182,192,68758,1,0,0:0:0:90:hihat.wav
36,192,68846,1,0,0:0:0:60:hihat.wav
256,192,68846,128,0,68934:0:0:0:50:jingle.wav
475,192,68934,1,0,0:0:0:60:hihat.wav
402,192,69022,1,0,0:0:0:60:hihat.wav
182,192,69110,128,0,69199:0:0:0:48:jingle.wav
329,192,69110,1,0,0:0:0:90:hihat.wav
475,192,69199,1,0,0:0:0:60:hihat.wav
36,192,69287,1,0,0:0:0:60:hihat.wav
256,192,69287,128,0,69375:0:0:0:46:jingle.wav
109,192,69375,1,0,0:0:0:60:hihat.wav
182,192,69463,1,0,0:0:0:90:hihat.wav
402,192,69463,128,0,69552:0:0:0:45:jingle.wav
36,192,69552,1,0,0:0:0:60:hihat.wav
475,192,69640,1,0,0:0:0:60:hihat.wav
256,192,69640,128,0,69728:0:0:0:44:jingle.wav
402,192,69728,1,0,0:0:0:60:hihat.wav
109,192,69728,128,0,69816:0:0:0:43:jingle.wav
329,192,69816,1,0,0:0:0:90:hihat.wav
475,192,69905,1,0,0:0:0:60:hihat.wav
109,192,69993,1,0,0:0:0:60:hihat.wav
36,192,69993,128,0,70081:0:0:0:42:jingle.wav
256,192,70081,1,0,0:0:0:60:hihat.wav
182,192,70169,5,0,0:0:0:90:hihat.wav
109,192,70258,1,0,0:0:0:60:hihat.wav
329,192,70258,128,0,70346:0:0:0:41:jingle.wav
402,192,70346,1,0,0:0:0:60:hihat.wav
256,192,70434,1,0,0:0:0:60:hihat.wav
329,192,70522,1,0,0:0:0:90:hihat.wav
109,192,70522,128,0,70610:0:0:0:40:jingle.wav
402,192,70610,1,0,0:0:0:60:hihat.wav
256,192,70699,5,0,0:0:0:60:hihat.wav
182,192,70787,1,0,0:0:0:60:hihat.wav
329,192,70787,1,0,0:0:0:0:
36,192,70875,1,0,0:0:0:90:hihat.wav
475,192,70875,1,0,0:0:0:0:
182,192,70963,1,0,0:0:0:60:hihat.wav
329,192,70963,1,0,0:0:0:0:
256,192,71052,1,0,0:0:0:60:hihat.wav
109,192,71140,1,0,0:0:0:0:
402,192,71140,1,0,0:0:0:60:hihat.wav
36,192,71228,1,0,0:0:0:0:
475,192,71228,1,0,0:0:0:90:hihat.wav
109,192,71316,1,0,0:0:0:0:
402,192,71316,1,0,0:0:0:60:hihat.wav
256,192,71405,1,0,0:0:0:60:hihat.wav
182,192,71493,1,0,0:0:0:60:hihat.wav
329,192,71493,1,0,0:0:0:0:
109,192,71581,1,0,0:0:0:90:hihat.wav
402,192,71581,1,0,0:0:0:0:
182,192,71669,1,0,0:0:0:60:hihat.wav
329,192,71669,1,0,0:0:0:0:
256,192,71758,1,0,0:0:0:60:hihat.wav
475,192,71846,1,0,0:0:0:60:hihat.wav
36,192,71846,1,0,0:0:0:0:
329,192,71934,1,0,0:0:0:90:hihat.wav
182,192,71934,1,0,0:0:0:0:
475,192,72022,1,0,0:0:0:60:hihat.wav
36,192,72022,1,0,0:0:0:0:
256,192,72110,1,0,0:0:0:60:hihat.wav
109,192,72199,1,0,0:0:0:60:hihat.wav
402,192,72199,1,0,0:0:0:0:
182,192,72287,1,0,0:0:0:90:hihat.wav
329,192,72287,1,0,0:0:0:0:
109,192,72375,1,0,0:0:0:60:hihat.wav
402,192,72375,1,0,0:0:0:0:
256,192,72463,1,0,0:0:0:60:hihat.wav
475,192,72552,1,0,0:0:0:60:hihat.wav
36,192,72552,1,0,0:0:0:0:
402,192,72640,1,0,0:0:0:90:hihat.wav
109,192,72640,1,0,0:0:0:0:
36,192,72728,1,0,0:0:0:0:
475,192,72728,1,0,0:0:0:60:hihat.wav
256,192,72816,1,0,0:0:0:60:hihat.wav
182,192,72905,1,0,0:0:0:60:hihat.wav
329,192,72905,1,0,0:0:0:0:
36,192,72993,1,0,0:0:0:90:hihat.wav
475,192,72993,1,0,0:0:0:0:
182,192,73081,1,0,0:0:0:60:hihat.wav
329,192,73081,1,0,0:0:0:0:
256,192,73169,1,0,0:0:0:60:hihat.wav
182,192,73258,1,0,0:0:0:0:
329,192,73258,1,0,0:0:0:60:hihat.wav
109,192,73346,1,0,0:0:0:0:
402,192,73346,1,0,0:0:0:90:hihat.wav
182,192,73434,1,0,0:0:0:0:
329,192,73434,1,0,0:0:0:60:hihat.wav
256,192,73522,1,0,0:0:0:60:hihat.wav
36,192,73610,1,0,0:0:0:60:hihat.wav
329,192,73610,1,0,0:0:0:0:
182,192,73699,1,0,0:0:0:90:hihat.wav
475,192,73699,1,0,0:0:0:0:
36,192,73787,1,0,0:0:0:60:hihat.wav
329,192,73787,1,0,0:0:0:0:
256,192,73875,1,0,0:0:0:60:hihat.wav
402,192,73963,1,0,0:0:0:60:hihat.wav
182,192,73963,1,0,0:0:0:0:
109,192,74052,1,0,0:0:0:0:
329,192,74052,1,0,0:0:0:90:hihat.wav
182,192,74140,1,0,0:0:0:0:
402,192,74140,1,0,0:0:0:60:hihat.wav
256,192,74228,1,0,0:0:0:60:hihat.wav
36,192,74316,1,0,0:0:0:60:hihat.wav
329,192,74316,1,0,0:0:0:0:
475,192,74405,1,0,0:0:0:0:
182,192,74405,1,0,0:0:0:90:hihat.wav
36,192,74493,1,0,0:0:0:60:hihat.wav
329,192,74493,1,0,0:0:0:0:
402,192,74581,1,0,0:0:0:60:hihat.wav
109,192,74581,1,0,0:0:0:32:kick.wav
329,192,74669,1,0,0:0:0:60:hihat.wav
182,192,74669,1,0,0:0:0:0:
36,192,74758,1,0,0:0:0:0:
256,192,74758,1,0,0:0:0:90:hihat.wav
475,192,74758,1,0,0:0:0:33:kick.wav
109,192,74846,1,0,0:0:0:0:
329,192,74846,1,0,0:0:0:60:hihat.wav
475,192,74934,1,0,0:0:0:0:
402,192,74934,1,0,0:0:0:34:kick.wav
182,192,74934,1,0,0:0:0:50:hihat.wav
109,192,75022,1,0,0:0:0:35:kick.wav
36,192,75022,1,0,0:0:0:0:
256,192,75022,1,0,0:0:0:50:hihat.wav
402,192,75110,1,0,0:0:0:36:kick.wav
475,192,75110,1,0,0:0:0:0:
329,192,75110,1,0,0:0:0:90:hihat.wav
109,192,75199,1,0,0:0:0:37:kick.wav
36,192,75199,1,0,0:0:0:0:
182,192,75199,1,0,0:0:0:50:hihat.wav
402,192,75287,1,0,0:0:0:0:
475,192,75287,1,0,0:0:0:38:kick.wav
329,192,75287,1,0,0:0:0:50:hihat.wav
109,192,75375,1,0,0:0:0:0:
36,192,75375,1,0,0:0:0:39:kick.wav
256,192,75375,1,0,0:0:0:50:hihat.wav
402,192,75463,1,0,0:0:0:0:
475,192,75463,1,0,0:0:0:40:kick.wav
182,192,75463,1,0,0:0:0:90:hihat.wav
36,192,75552,1,0,0:0:0:41:kick.wav
109,192,75552,1,0,0:0:0:0:
329,192,75552,1,0,0:0:0:50:hihat.wav
402,192,75640,1,0,0:0:0:42:kick.wav
182,192,75640,1,0,0:0:0:50:hihat.wav
475,192,75640,1,0,0:0:0:0:
109,192,75728,1,0,0:0:0:43:kick.wav
36,192,75728,1,0,0:0:0:0:
256,192,75728,1,0,0:0:0:50:hihat.wav
475,192,75816,1,0,0:0:0:0:
329,192,75816,1,0,0:0:0:90:hihat.wav
402,192,75816,1,0,0:0:0:44:kick.wav
109,192,75905,1,0,0:0:0:45:kick.wav
36,192,75905,1,0,0:0:0:0:
182,192,75905,1,0,0:0:0:50:hihat.wav
402,192,75993,1,0,0:0:0:0:
475,192,75993,1,0,0:0:0:46:kick.wav
329,192,75993,1,0,0:0:0:50:hihat.wav
36,192,76081,1,0,0:0:0:47:kick.wav
109,192,76081,1,0,0:0:0:0:
256,192,76081,1,0,0:0:0:50:hihat.wav
402,192,76169,1,0,0:0:0:0:
475,192,76169,1,0,0:0:0:48:kick.wav
182,192,76169,1,0,0:0:0:90:hihat.wav
109,192,76258,1,0,0:0:0:0:
36,192,76258,1,0,0:0:0:49:kick.wav
329,192,76258,1,0,0:0:0:50:hihat.wav
256,192,76346,1,0,0:0:0:0:
402,192,76346,1,0,0:0:0:50:kick.wav
475,192,76346,1,0,0:0:0:60:hihat.wav
109,192,76434,1,0,0:0:0:60:hihat.wav
182,192,76434,1,0,0:0:0:0:
36,192,76434,1,0,0:0:0:50:kick.wav
329,192,76522,1,0,0:0:0:90:hihat.wav
475,192,76522,1,0,0:0:0:50:kick.wav
256,192,76522,1,0,0:0:0:0:
36,192,76610,1,0,0:0:0:60:hihat.wav
182,192,76610,1,0,0:0:0:0:
109,192,76610,1,0,0:0:0:50:kick.wav
329,192,76699,1,0,0:0:0:50:kick.wav
402,192,76699,1,0,0:0:0:60:hihat.wav
256,192,76699,1,0,0:0:0:0:
36,192,76787,1,0,0:0:0:50:kick.wav
109,192,76787,1,0,0:0:0:60:hihat.wav
182,192,76787,1,0,0:0:0:0:
475,192,76875,1,0,0:0:0:50:kick.wav
329,192,76875,1,0,0:0:0:0:
402,192,76875,1,0,0:0:0:90:hihat.wav
109,192,76963,1,0,0:0:0:50:kick.wav
256,192,76963,1,0,0:0:0:0:
182,192,76963,1,0,0:0:0:60:hihat.wav
402,192,77052,1,0,0:0:0:60:hihat.wav
475,192,77052,1,0,0:0:0:50:kick.wav
329,192,77052,1,0,0:0:0:0:
36,192,77140,1,0,0:0:0:60:hihat.wav
182,192,77140,1,0,0:0:0:50:kick.wav
256,192,77140,1,0,0:0:0:0:
475,192,77228,1,0,0:0:0:90:hihat.wav
329,192,77228,1,0,0:0:0:0:
402,192,77228,1,0,0:0:0:50:kick.wav
109,192,77316,1,0,0:0:0:60:hihat.wav
36,192,77316,1,0,0:0:0:50:kick.wav
256,192,77316,1,0,0:0:0:0:
402,192,77405,1,0,0:0:0:60:hihat.wav
475,192,77405,1,0,0:0:0:50:kick.wav
329,192,77405,1,0,0:0:0:0:
109,192,77493,1,0,0:0:0:50:kick.wav
36,192,77493,1,0,0:0:0:60:hihat.wav
182,192,77493,1,0,0:0:0:0:
475,192,77581,1,0,0:0:0:90:hihat.wav
402,192,77581,1,0,0:0:0:50:kick.wav
256,192,77581,1,0,0:0:0:0:
329,192,77669,1,0,0:0:0:0:
109,192,77669,1,0,0:0:0:60:hihat.wav
36,192,77669,1,0,0:0:0:50:kick.wav
182,192,77758,1,0,0:0:0:60:hihat.wav
475,192,77758,1,0,0:0:0:40:kick.wav
402,192,77816,1,0,0:0:0:40:kick.wav
109,192,77846,1,0,0:0:0:60:hihat.wav
329,192,77875,1,0,0:0:0:40:kick.wav
475,192,77934,1,0,0:0:0:90:hihat.wav
36,192,77934,1,0,0:0:0:0:
256,192,77934,1,0,0:0:0:40:kick.wav
182,192,77993,1,0,0:0:0:40:kick.wav
402,192,78022,1,0,0:0:0:60:hihat.wav
109,192,78052,1,0,0:0:0:40:kick.wav
329,192,78110,1,0,0:0:0:40:kick.wav
36,192,78110,1,0,0:0:0:60:hihat.wav
256,192,78169,1,0,0:0:0:40:kick.wav
475,192,78199,1,0,0:0:0:60:hihat.wav
182,192,78228,1,0,0:0:0:40:kick.wav
109,192,78287,1,0,0:0:0:90:hihat.wav
36,192,78287,1,0,0:0:0:0:
402,192,78287,1,0,0:0:0:40:kick.wav
329,192,78346,1,0,0:0:0:40:kick.wav
182,192,78375,1,0,0:0:0:60:hihat.wav
256,192,78405,1,0,0:0:0:40:kick.wav
402,192,78463,1,0,0:0:0:60:hihat.wav
36,192,78463,1,0,0:0:0:40:kick.wav
109,192,78522,1,0,0:0:0:40:kick.wav
329,192,78552,1,0,0:0:0:60:hihat.wav
182,192,78581,1,0,0:0:0:40:kick.wav
475,192,78640,1,0,0:0:0:0:
36,192,78640,1,0,0:0:0:90:hihat.wav
256,192,78640,1,0,0:0:0:40:kick.wav
329,192,78699,1,0,0:0:0:40:kick.wav
109,192,78728,1,0,0:0:0:60:hihat.wav
402,192,78758,1,0,0:0:0:40:kick.wav
182,192,78816,1,0,0:0:0:40:kick.wav
475,192,78816,1,0,0:0:0:60:hihat.wav
256,192,78875,1,0,0:0:0:40:kick.wav
36,192,78905,1,0,0:0:0:60:hihat.wav
329,192,78934,1,0,0:0:0:40:kick.wav
475,192,78993,1,0,0:0:0:0:
402,192,78993,1,0,0:0:0:90:hihat.wav
109,192,78993,1,0,0:0:0:40:kick.wav
182,192,79052,1,0,0:0:0:40:kick.wav
329,192,79081,1,0,0:0:0:60:hihat.wav
256,192,79110,1,0,0:0:0:40:kick.wav
402,192,79169,1,0,0:0:0:75:finish2.wav
182,192,79169,1,4,1:0:0:90:
109,192,79169,1,0,0:0:0:60:kick.wav
36,192,79169,128,0,80581:0:0:0:0:
475,192,79169,1,0,0:0:0:0:
182,192,79522,128,0,80581:0:0:0:0:
256,192,79699,128,0,80581:0:0:0:0:
475,192,80052,128,0,80581:0:0:0:0:
329,192,80581,128,0,81993:0:0:0:0:
402,192,80581,1,0,0:0:0:0:
109,192,80934,128,0,81993:0:0:0:0:
182,192,81110,128,0,81993:0:0:0:0:
256,192,81463,128,0,81993:0:0:0:0:
475,192,81993,128,0,83405:0:0:0:0:
402,192,81993,1,0,0:0:0:0:
36,192,82346,128,0,83405:0:0:0:0:
256,192,82522,128,0,83405:0:0:0:0:
402,192,82875,128,0,83405:0:0:0:0:
182,192,83405,128,0,84816:0:0:0:0:
329,192,83405,1,0,0:0:0:0:
36,192,83758,128,0,84816:0:0:0:0:
329,192,83934,128,0,84816:0:0:0:0:
402,192,84287,128,0,84816:0:0:0:0:
109,192,84816,128,0,86228:0:0:0:0:
256,192,84816,1,0,0:0:0:0:
182,192,85169,128,0,86228:0:0:0:0:
256,192,85346,128,0,86228:0:0:0:0:
475,192,85699,128,0,86228:0:0:0:0:
329,192,86228,128,0,87640:0:0:0:0:
402,192,86228,1,0,0:0:0:0:
36,192,86581,128,0,87640:0:0:0:0:
182,192,86758,128,0,87640:0:0:0:0:
256,192,87110,128,0,87640:0:0:0:0:
402,192,87640,128,0,89052:0:0:0:0:
109,192,87640,1,0,0:0:0:0:
36,192,87993,128,0,89052:0:0:0:0:
256,192,88169,128,0,89052:0:0:0:0:
475,192,88522,128,0,89052:0:0:0:0:
182,192,89052,128,0,90463:0:0:0:0:
329,192,89052,1,0,0:0:0:0:
109,192,89405,128,0,90463:0:0:0:0:
329,192,89581,128,0,90463:0:0:0:0:
402,192,89934,128,0,90463:0:0:0:0:
256,192,90463,128,0,91875:0:0:0:0:
36,192,90463,1,0,0:0:0:0:
36,192,90816,128,0,91169:0:0:0:60:jingle.wav
329,192,90816,128,0,91875:0:0:0:0:
402,192,90993,128,0,91875:0:0:0:0:
182,192,91169,128,0,91522:0:0:0:60:jingle.wav
475,192,91346,128,0,91875:0:0:0:0:
109,192,91522,128,0,93287:0:0:0:60:jingle.wav
36,192,91875,128,0,93287:0:0:0:0:
182,192,91875,1,0,0:0:0:0:
256,192,92228,128,0,93287:0:0:0:0:
402,192,92405,128,0,93287:0:0:0:0:
475,192,92758,128,0,93287:0:0:0:0:
182,192,93287,128,0,94699:0:0:0:0:
329,192,93287,1,0,0:0:0:0:
36,192,93640,128,0,94699:0:0:0:0:
256,192,93816,128,0,94699:0:0:0:0:
475,192,94169,128,0,94699:0:0:0:0:
329,192,94699,128,0,96110:0:0:0:0:
109,192,94699,1,0,0:0:0:0:
36,192,95052,128,0,96110:0:0:0:0:
182,192,95228,128,0,96110:0:0:0:0:
475,192,95581,128,0,96110:0:0:0:0:
402,192,96110,128,0,97522:0:0:0:0:
109,192,96110,1,0,0:0:0:0:
256,192,96110,1,0,0:0:0:18:snare.wav
36,192,96199,1,0,0:0:0:18:snare.wav
182,192,96287,1,0,0:0:0:18:snare.wav
329,192,96375,1,0,0:0:0:19:snare.wav
109,192,96463,128,0,96816:0:0:0:60:jingle.wav
256,192,96463,1,0,0:0:0:19:snare.wav
475,192,96552,1,0,0:0:0:19:snare.wav
182,192,96640,1,0,0:0:0:20:snare.wav
329,192,96728,1,0,0:0:0:20:snare.wav
256,192,96816,128,0,97169:0:0:0:60:jingle.wav
36,192,96816,1,0,0:0:0:20:snare.wav
329,192,96905,1,0,0:0:0:21:snare.wav
182,192,96993,1,0,0:0:0:21:snare.wav
109,192,97081,1,0,0:0:0:21:snare.wav
36,192,97169,128,0,98934:0:0:0:60:jingle.wav
475,192,97169,1,0,0:0:0:22:snare.wav
329,192,97258,1,0,0:0:0:22:snare.wav
256,192,97346,1,0,0:0:0:22:snare.wav
182,192,97434,1,0,0:0:0:23:snare.wav
475,192,97522,128,0,98934:0:0:0:0:
109,192,97522,1,0,0:0:0:23:snare.wav
329,192,97522,1,0,0:0:0:0:
256,192,97610,1,0,0:0:0:23:snare.wav
182,192,97699,1,0,0:0:0:24:snare.wav
329,192,97787,1,0,0:0:0:24:snare.wav
402,192,97875,1,0,0:0:0:24:snare.wav
256,192,97963,1,0,0:0:0:25:snare.wav
329,192,98052,1,0,0:0:0:25:snare.wav
182,192,98140,1,0,0:0:0:25:snare.wav
109,192,98228,1,0,0:0:0:26:snare.wav
256,192,98316,1,0,0:0:0:26:snare.wav
182,192,98405,1,0,0:0:0:26:snare.wav
329,192,98493,1,0,0:0:0:27:snare.wav
402,192,98581,1,0,0:0:0:27:snare.wav
256,192,98669,1,0,0:0:0:27:snare.wav
329,192,98758,1,0,0:0:0:28:snare.wav
182,192,98846,1,0,0:0:0:28:snare.wav
329,192,98934,128,0,100346:0:0:0:0:
109,192,98934,1,0,0:0:0:28:snare.wav
402,192,98934,1,0,0:0:0:0:
256,192,99022,1,0,0:0:0:29:snare.wav
182,192,99110,1,0,0:0:0:29:snare.wav
109,192,99199,1,0,0:0:0:29:snare.wav
256,192,99287,1,0,0:0:0:30:snare.wav
36,192,99287,128,0,100346:0:0:0:0:
402,192,99375,1,0,0:0:0:30:snare.wav
109,192,99463,1,0,0:0:0:30:snare.wav
182,192,99463,128,0,100346:0:0:0:0:
475,192,99552,1,0,0:0:0:31:snare.wav
256,192,99640,1,0,0:0:0:31:snare.wav
109,192,99728,1,0,0:0:0:31:snare.wav
402,192,99816,1,0,0:0:0:32:snare.wav
475,192,99816,128,0,100346:0:0:0:0:
256,192,99905,1,0,0:0:0:32:snare.wav
402,192,99993,1,0,0:0:0:32:snare.wav
109,192,100081,1,0,0:0:0:33:snare.wav
256,192,100169,1,0,0:0:0:33:snare.wav
109,192,100258,1,0,0:0:0:33:snare.wav
256,192,100346,128,0,101758:0:0:0:0:
329,192,100699,128,0,101758:0:0:0:0:
36,192,100699,128,0,100875:0:0:0:0:
109,192,100875,128,0,101228:0:0:0:0:
182,192,101228,128,0,101758:0:0:0:0:
402,192,101758,1,4,1:0:0:90:
475,192,101758,1,0,0:0:0:0:
109,192,101758,1,0,0:0:0:75:finish2.wav
36,192,101758,1,0,0:0:0:0:
329,192,102110,128,0,102463:0:0:0:60:jingle.wav
36,192,102110,128,0,103169:0:0:0:0:
109,192,102287,128,0,103169:0:0:0:0:
475,192,102463,128,0,102816:0:0:0:60:jingle.wav
182,192,102640,128,0,103169:0:0:0:0:
402,192,102816,128,0,104581:0:0:0:60:jingle.wav
256,192,103169,1,0,0:0:0:0:
475,192,103169,128,0,104581:0:0:0:0:
36,192,103522,128,0,104581:0:0:0:0:
182,192,103699,128,0,104581:0:0:0:0:
256,192,104052,128,0,104581:0:0:0:0:
109,192,104581,1,0,0:0:0:0:
329,192,104581,128,0,105993:0:0:0:0:
109,192,104934,128,0,105287:0:0:0:60:jingle.wav
256,192,104934,128,0,105993:0:0:0:0:
402,192,105110,128,0,105993:0:0:0:0:
182,192,105287,128,0,105640:0:0:0:60:jingle.wav
475,192,105463,128,0,105993:0:0:0:0:
36,192,105640,128,0,107405:0:0:0:60:jingle.wav
182,192,105993,1,0,0:0:0:0:
109,192,105993,128,0,107405:0:0:0:0:
256,192,106346,128,0,107405:0:0:0:0:
329,192,106522,128,0,107405:0:0:0:0:
475,192,106875,128,0,107405:0:0:0:0:
182,192,107405,1,0,0:0:0:0:
402,192,107405,128,0,108816:0:0:0:0:
256,192,107758,128,0,108110:0:0:0:60:jingle.wav
36,192,107758,128,0,108816:0:0:0:0:
109,192,107934,128,0,108816:0:0:0:0:
475,192,108110,128,0,108463:0:0:0:60:jingle.wav
329,192,108287,128,0,108816:0:0:0:0:
182,192,108463,128,0,108993:0:0:0:60:jingle.wav
256,192,108816,1,0,0:0:0:0:
475,192,108816,128,0,110228:0:0:0:0:
109,192,108993,128,0,109169:0:0:0:60:jingle.wav
36,192,109169,128,0,109522:0:0:0:60:jingle.wav
256,192,109169,128,0,110228:0:0:0:0:
329,192,109346,128,0,110228:0:0:0:0:
109,192,109522,128,0,109875:0:0:0:60:jingle.wav
402,192,109699,128,0,110228:0:0:0:0:
182,192,109875,128,0,110581:0:0:0:60:jingle.wav
109,192,110228,1,0,0:0:0:0:
36,192,110228,128,0,111640:0:0:0:0:
256,192,110581,128,0,110934:0:0:0:60:jingle.wav
109,192,110581,128,0,111640:0:0:0:0:
329,192,110758,128,0,111640:0:0:0:0:
402,192,111110,128,0,111640:0:0:0:0:
182,192,111640,128,0,111993:0:0:0:60:jingle.wav
475,192,111640,128,0,113052:0:0:0:0:
256,192,111640,1,0,0:0:0:0:
329,192,111993,128,0,112346:0:0:0:60:jingle.wav
36,192,111993,128,0,113052:0:0:0:0:
109,192,112169,128,0,113052:0:0:0:0:
256,192,112346,128,0,112699:0:0:0:60:jingle.wav
402,192,112522,128,0,113052:0:0:0:0:
182,192,112699,128,0,113052:0:0:0:60:jingle.wav
329,192,113052,1,0,0:0:0:0:
256,192,113052,1,0,0:0:0:55:hihat.wav
109,192,113140,1,0,0:0:0:40:hihat.wav
182,192,113228,1,0,0:0:0:70:hihat.wav
256,192,113316,1,0,0:0:0:40:hihat.wav
475,192,113405,128,0,113758:0:0:0:60:jingle.wav
36,192,113405,1,0,0:0:0:0:
402,192,113405,1,0,0:0:0:55:hihat.wav
109,192,113493,1,0,0:0:0:40:hihat.wav
256,192,113581,1,0,0:0:0:70:hihat.wav
182,192,113669,1,0,0:0:0:40:hihat.wav
329,192,113758,128,0,114110:0:0:0:60:jingle.wav
36,192,113758,1,0,0:0:0:55:hihat.wav
402,192,113758,1,0,0:0:0:0:
109,192,113846,1,0,0:0:0:40:hihat.wav
256,192,113934,1,0,0:0:0:70:hihat.wav
475,192,114022,1,0,0:0:0:40:hihat.wav
182,192,114110,128,0,114816:0:0:0:60:jingle.wav
402,192,114110,1,0,0:0:0:55:hihat.wav
36,192,114110,1,0,0:0:0:0:
256,192,114199,1,0,0:0:0:40:hihat.wav
329,192,114287,1,0,0:0:0:70:hihat.wav
475,192,114375,1,0,0:0:0:40:hihat.wav
36,192,114463,1,0,0:0:0:55:hihat.wav
402,192,114463,1,0,0:0:0:0:
109,192,114552,1,0,0:0:0:40:hihat.wav
256,192,114640,1,0,0:0:0:70:hihat.wav
402,192,114728,1,0,0:0:0:40:hihat.wav
36,192,114816,128,0,115169:0:0:0:60:jingle.wav
475,192,114816,1,0,0:0:0:0:
109,192,114816,1,0,0:0:0:55:hihat.wav
329,192,114905,1,0,0:0:0:40:hihat.wav
256,192,114993,1,0,0:0:0:70:hihat.wav
402,192,115081,1,0,0:0:0:40:hihat.wav
182,192,115169,128,0,115522:0:0:0:60:jingle.wav
109,192,115169,1,0,0:0:0:0:
475,192,115169,1,0,0:0:0:55:hihat.wav
329,192,115258,1,0,0:0:0:40:hihat.wav
36,192,115346,1,0,0:0:0:70:hihat.wav
402,192,115434,1,0,0:0:0:40:hihat.wav
329,192,115522,128,0,115875:0:0:0:60:jingle.wav
256,192,115522,1,0,0:0:0:0:
109,192,115522,1,0,0:0:0:55:hihat.wav
475,192,115610,1,0,0:0:0:40:hihat.wav
182,192,115699,1,0,0:0:0:70:hihat.wav
109,192,115787,1,0,0:0:0:40:hihat.wav
256,192,115875,1,0,0:0:0:55:hihat.wav
36,192,115875,1,0,0:0:0:0:
402,192,115963,1,0,0:0:0:40:hihat.wav
182,192,116052,1,0,0:0:0:70:hihat.wav
329,192,116140,1,0,0:0:0:40:hihat.wav
109,192,116228,128,0,116581:0:0:0:60:jingle.wav
36,192,116228,1,0,0:0:0:55:hihat.wav
402,192,116228,1,0,0:0:0:0:
475,192,116316,1,0,0:0:0:40:hihat.wav
256,192,116405,1,0,0:0:0:70:hihat.wav
329,192,116493,1,0,0:0:0:40:hihat.wav
402,192,116581,128,0,116934:0:0:0:60:jingle.wav
475,192,116581,1,0,0:0:0:55:hihat.wav
182,192,116581,1,0,0:0:0:0:
36,192,116669,1,0,0:0:0:40:hihat.wav
256,192,116758,1,0,0:0:0:70:hihat.wav
109,192,116846,1,0,0:0:0:40:hihat.wav
182,192,116934,128,0,118699:0:0:0:60:jingle.wav
36,192,116934,1,0,0:0:0:0:
329,192,116934,1,0,0:0:0:55:hihat.wav
475,192,117022,1,0,0:0:0:40:hihat.wav
109,192,117110,1,0,0:0:0:70:hihat.wav
402,192,117199,1,0,0:0:0:40:hihat.wav
36,192,117287,1,0,0:0:0:55:hihat.wav
329,192,117287,1,0,0:0:0:0:
256,192,117375,1,0,0:0:0:40:hihat.wav
475,192,117463,1,0,0:0:0:70:hihat.wav
109,192,117552,1,0,0:0:0:40:hihat.wav
402,192,117640,1,0,0:0:0:55:hihat.wav
36,192,117640,1,0,0:0:0:0:
256,192,117728,1,0,0:0:0:40:hihat.wav
329,192,117816,1,0,0:0:0:70:hihat.wav
109,192,117905,1,0,0:0:0:40:hihat.wav
36,192,117993,1,0,0:0:0:55:hihat.wav
475,192,117993,1,0,0:0:0:0:
402,192,118081,1,0,0:0:0:40:hihat.wav
109,192,118169,1,0,0:0:0:70:hihat.wav
256,192,118258,1,0,0:0:0:40:hihat.wav
36,192,118346,1,0,0:0:0:0:
329,192,118346,1,0,0:0:0:55:hihat.wav
475,192,118434,1,0,0:0:0:40:hihat.wav
109,192,118522,1,0,0:0:0:70:hihat.wav
402,192,118610,1,0,0:0:0:40:hihat.wav
36,192,118699,1,0,0:0:0:0:
256,192,118699,1,0,0:0:0:55:hihat.wav
475,192,118787,1,0,0:0:0:40:hihat.wav
329,192,118875,1,0,0:0:0:70:hihat.wav
109,192,118963,1,0,0:0:0:40:hihat.wav
36,192,119052,128,0,119405:0:0:0:60:jingle.wav
256,192,119052,1,0,0:0:0:0:
402,192,119052,1,0,0:0:0:55:hihat.wav
182,192,119140,1,0,0:0:0:40:hihat.wav
329,192,119228,1,0,0:0:0:70:hihat.wav
256,192,119316,1,0,0:0:0:40:hihat.wav
475,192,119405,128,0,119758:0:0:0:60:jingle.wav
402,192,119405,1,0,0:0:0:0:
109,192,119405,1,0,0:0:0:55:hihat.wav
182,192,119493,1,0,0:0:0:40:hihat.wav
256,192,119581,1,0,0:0:0:70:hihat.wav
36,192,119669,1,0,0:0:0:40:hihat.wav
329,192,119758,128,0,121522:0:0:0:60:jingle.wav
109,192,119758,1,0,0:0:0:0:
402,192,119758,1,0,0:0:0:55:hihat.wav
256,192,119846,1,0,0:0:0:40:hihat.wav
182,192,119934,1,0,0:0:0:70:hihat.wav
36,192,120022,1,0,0:0:0:40:hihat.wav
475,192,120110,1,0,0:0:0:0:
109,192,120110,1,0,0:0:0:55:hihat.wav
256,192,120199,1,0,0:0:0:40:hihat.wav
182,192,120287,1,0,0:0:0:70:hihat.wav
402,192,120375,1,0,0:0:0:40:hihat.wav
36,192,120463,1,0,0:0:0:55:hihat.wav
256,192,120463,1,0,0:0:0:0:
475,192,120552,1,0,0:0:0:40:hihat.wav
182,192,120640,1,0,0:0:0:70:hihat.wav
402,192,120728,1,0,0:0:0:40:hihat.wav
109,192,120816,1,0,0:0:0:55:hihat.wav
36,192,120816,1,0,0:0:0:0:
475,192,120905,1,0,0:0:0:40:hihat.wav
256,192,120993,1,0,0:0:0:70:hihat.wav
182,192,121081,1,0,0:0:0:40:hihat.wav
36,192,121169,1,0,0:0:0:0:
402,192,121169,1,0,0:0:0:55:hihat.wav
109,192,121258,1,0,0:0:0:40:hihat.wav
475,192,121346,1,0,0:0:0:70:hihat.wav
182,192,121434,1,0,0:0:0:40:hihat.wav
36,192,121522,1,0,0:0:0:55:hihat.wav
402,192,121522,1,0,0:0:0:0:
109,192,121610,1,0,0:0:0:40:hihat.wav
329,192,121699,1,0,0:0:0:70:hihat.wav
182,192,121787,1,0,0:0:0:40:hihat.wav
109,192,121875,128,0,122228:0:0:0:60:jingle.wav
256,192,121875,1,0,0:0:0:0:
402,192,121875,1,0,0:0:0:55:hihat.wav
475,192,121963,1,0,0:0:0:40:hihat.wav
329,192,122052,1,0,0:0:0:70:hihat.wav
182,192,122140,1,0,0:0:0:40:hihat.wav
402,192,122228,128,0,122581:0:0:0:60:jingle.wav
36,192,122228,1,0,0:0:0:0:
256,192,122228,1,0,0:0:0:55:hihat.wav
329,192,122316,1,0,0:0:0:40:hihat.wav
109,192,122405,1,0,0:0:0:70:hihat.wav
182,192,122493,1,0,0:0:0:40:hihat.wav
36,192,122581,1,0,0:0:0:55:hihat.wav
475,192,122581,1,0,0:0:0:0:
256,192,122581,128,0,124346:0:0:0:60:jingle.wav
329,192,122669,1,0,0:0:0:40:hihat.wav
182,192,122758,1,0,0:0:0:70:hihat.wav
109,192,122846,1,0,0:0:0:40:hihat.wav
36,192,122934,1,0,0:0:0:0:
329,192,122934,1,0,0:0:0:50:finish1.wav
475,192,122934,1,0,0:0:0:0:
109,192,123110,1,8,3:0:0:40:
402,192,123199,1,8,3:0:0:40:
182,192,123287,1,4,3:0:0:30:
329,192,123375,1,4,3:0:0:30:
182,192,123463,1,4,3:0:0:30:
475,192,123640,1,0,0:0:0:0:
36,192,123640,1,0,0:0:0:0:
329,192,123640,1,8,3:0:0:40:
109,192,123728,1,4,3:0:0:30:
402,192,123816,1,4,3:0:0:30:
182,192,123905,1,4,3:0:0:30:
475,192,123993,1,0,0:0:0:0:
36,192,123993,1,0,0:0:0:0:
329,192,123993,128,8,124346:3:0:0:40:
36,192,124346,1,0,0:0:0:0:
109,192,124346,1,4,1:0:0:90:
402,192,124346,1,0,0:0:0:75:finish2.wav
182,192,124346,128,0,125405:0:0:0:60:jingle.wav
475,192,124346,1,0,0:0:0:0:
329,192,124434,1,0,0:0:0:0:
36,192,124522,1,0,0:0:0:0:
402,192,124610,1,0,0:0:0:0:
109,192,124699,1,0,0:0:0:0:
329,192,124787,1,0,0:0:0:0:
475,192,124875,1,0,0:0:0:0:
256,192,124963,1,0,0:0:0:0:
36,192,125052,1,0,0:0:0:0:
109,192,125140,1,0,0:0:0:0:
402,192,125228,1,0,0:0:0:0:
329,192,125316,1,0,0:0:0:0:
36,192,125405,128,0,125581:0:0:0:60:jingle.wav
109,192,125405,1,0,0:0:0:0:
256,192,125493,1,0,0:0:0:0:
182,192,125581,128,0,126463:0:0:0:60:jingle.wav
475,192,125581,1,0,0:0:0:0:
329,192,125669,1,0,0:0:0:0:
36,192,125758,1,0,0:0:0:0:
402,192,125846,1,0,0:0:0:0:
475,192,125934,1,0,0:0:0:0:
256,192,126022,1,0,0:0:0:0:
109,192,126110,1,0,0:0:0:0:
329,192,126199,1,0,0:0:0:0:
36,192,126287,1,0,0:0:0:0:
402,192,126375,1,0,0:0:0:0:
475,192,126463,128,0,127169:0:0:0:60:jingle.wav
109,192,126463,1,0,0:0:0:0:
256,192,126552,1,0,0:0:0:0:
329,192,126640,1,0,0:0:0:0:
182,192,126728,1,0,0:0:0:0:
36,192,126816,1,0,0:0:0:0:
109,192,126905,1,0,0:0:0:0:
256,192,126993,1,0,0:0:0:0:
182,192,127081,1,0,0:0:0:0:
329,192,127169,128,0,128228:0:0:0:60:jingle.wav
36,192,127169,1,0,0:0:0:0:
109,192,127258,1,0,0:0:0:0:
402,192,127346,1,0,0:0:0:0:
256,192,127434,1,0,0:0:0:0:
109,192,127522,1,0,0:0:0:0:
182,192,127610,1,0,0:0:0:0:
475,192,127699,1,0,0:0:0:0:
256,192,127787,1,0,0:0:0:0:
36,192,127875,1,0,0:0:0:0:
109,192,127963,1,0,0:0:0:0:
402,192,128052,1,0,0:0:0:0:
256,192,128140,1,0,0:0:0:0:
182,192,128228,128,0,128405:0:0:0:60:jingle.wav
36,192,128228,1,0,0:0:0:0:
402,192,128316,1,0,0:0:0:0:
329,192,128405,128,0,129993:0:0:0:60:jingle.wav
475,192,128405,1,0,0:0:0:0:
109,192,128493,1,0,0:0:0:0:
36,192,128581,1,0,0:0:0:0:
182,192,128669,1,0,0:0:0:0:
402,192,128758,1,0,0:0:0:0:
256,192,128846,1,0,0:0:0:0:
109,192,128934,1,0,0:0:0:0:
182,192,129022,1,0,0:0:0:0:
475,192,129110,1,0,0:0:0:0:
402,192,129199,1,0,0:0:0:0:
36,192,129287,1,0,0:0:0:0:
182,192,129375,1,0,0:0:0:0:
402,192,129463,1,0,0:0:0:0:
256,192,129552,1,0,0:0:0:0:
109,192,129640,1,0,0:0:0:0:
182,192,129728,1,0,0:0:0:0:
475,192,129816,1,0,0:0:0:0:
402,192,129905,1,0,0:0:0:0:
36,192,129993,128,0,130699:0:0:0:61:jingle.wav
109,192,129993,128,0,130169:0:0:0:41:hihat.wav
475,192,130169,128,0,130346:0:0:0:0:
329,192,130169,128,0,130346:0:0:0:42:hihat.wav
182,192,130346,128,0,130434:0:0:0:43:hihat.wav
402,192,130434,128,0,130610:0:0:0:0:
256,192,130434,128,0,130610:0:0:0:44:hihat.wav
182,192,130610,128,0,130699:0:0:0:45:hihat.wav
109,192,130699,128,0,131405:0:0:0:62:jingle.wav
475,192,130699,128,0,130875:0:0:0:0:
329,192,130699,128,0,130875:0:0:0:46:hihat.wav
256,192,130875,128,0,130963:0:0:0:47:hihat.wav
182,192,130963,128,0,131052:0:0:0:48:hihat.wav
36,192,131052,128,0,131140:0:0:0:0:
329,192,131052,128,0,131140:0:0:0:49:hihat.wav
402,192,131140,128,0,131228:0:0:0:50:hihat.wav
475,192,131228,128,0,131316:0:0:0:51:hihat.wav
182,192,131228,128,0,131316:0:0:0:0:
256,192,131316,128,0,131405:0:0:0:52:hihat.wav
329,192,131405,128,0,132110:0:0:0:63:jingle.wav
36,192,131405,128,0,131581:0:0:0:53:hihat.wav
182,192,131581,128,0,131758:0:0:0:54:hihat.wav
475,192,131581,128,0,131758:0:0:0:0:
109,192,131758,128,0,131846:0:0:0:55:hihat.wav
256,192,131846,128,0,132022:0:0:0:55:hihat.wav
36,192,131846,128,0,132022:0:0:0:0:
182,192,132022,128,0,132110:0:0:0:56:hihat.wav
402,192,132110,128,0,132816:0:0:0:64:jingle.wav
475,192,132110,128,0,132287:0:0:0:0:
109,192,132110,128,0,132287:0:0:0:57:hihat.wav
256,192,132287,128,0,132375:0:0:0:57:hihat.wav
36,192,132375,128,0,132463:0:0:0:57:hihat.wav
182,192,132463,128,0,132640:0:0:0:0:
475,192,132463,128,0,132640:0:0:0:58:hihat.wav
329,192,132640,128,0,132816:0:0:0:58:hihat.wav
36,192,132640,128,0,132816:0:0:0:0:
109,192,132816,128,0,133522:0:0:0:65:jingle.wav
256,192,132816,128,0,132993:0:0:0:59:hihat.wav
475,192,132993,128,0,133169:0:0:0:59:hihat.wav
329,192,132993,128,0,133169:0:0:0:0:
182,192,133169,128,0,133258:0:0:0:60:hihat.wav
402,192,133258,128,0,133434:0:0:0:0:
256,192,133258,128,0,133434:0:0:0:60:hihat.wav
36,192,133434,128,0,133522:0:0:0:60:hihat.wav
182,192,133522,128,0,134228:0:0:0:66:jingle.wav
475,192,133522,128,0,133699:0:0:0:61:hihat.wav
329,192,133522,128,0,133699:0:0:0:0:
36,192,133699,128,0,133787:0:0:0:61:hihat.wav
109,192,133787,128,0,133875:0:0:0:61:hihat.wav
475,192,133875,128,0,133963:0:0:0:0:
256,192,133875,128,0,133963:0:0:0:62:hihat.wav
402,192,133963,128,0,134052:0:0:0:62:hihat.wav
109,192,134052,128,0,134140:0:0:0:0:
329,192,134052,128,0,134140:0:0:0:62:hihat.wav
475,192,134140,128,0,134228:0:0:0:62:hihat.wav
402,192,134228,128,0,134934:0:0:0:67:jingle.wav
36,192,134228,128,0,134405:0:0:0:63:hihat.wav
109,192,134405,128,0,134581:0:0:0:0:
256,192,134405,128,0,134581:0:0:0:63:hihat.wav
329,192,134581,128,0,134669:0:0:0:63:hihat.wav
36,192,134669,128,0,134846:0:0:0:63:hihat.wav
182,192,134669,128,0,134846:0:0:0:0:
256,192,134846,128,0,134934:0:0:0:63:hihat.wav
475,192,134934,128,0,135640:0:0:0:68:jingle.wav
109,192,134934,128,0,135110:0:0:0:0:
329,192,134934,128,0,135110:0:0:0:64:hihat.wav
36,192,135110,128,0,135199:0:0:0:64:hihat.wav
402,192,135199,128,0,135287:0:0:0:64:hihat.wav
329,192,135287,128,0,135463:0:0:0:64:hihat.wav
182,192,135287,128,0,135463:0:0:0:0:
256,192,135463,128,0,135640:0:0:0:0:
109,192,135463,128,0,135640:0:0:0:64:hihat.wav
182,192,135640,128,0,136699:0:0:0:70:jingle.wav
36,192,135640,128,0,135816:0:0:0:65:hihat.wav
329,192,135640,1,0,0:0:0:0:
402,192,135640,1,0,0:0:0:60:kick.wav
475,192,135816,128,0,135993:0:0:0:65:hihat.wav
329,192,135993,128,0,136081:0:0:0:65:hihat.wav
402,192,136081,128,0,136258:0:0:0:65:hihat.wav
36,192,136169,1,0,0:0:0:0:
109,192,136169,1,0,0:0:0:60:kick.wav
256,192,136258,128,0,136346:0:0:0:65:hihat.wav
329,192,136346,128,0,136522:0:0:0:65:hihat.wav
36,192,136522,128,0,136610:0:0:0:65:hihat.wav
475,192,136522,1,0,0:0:0:0:
402,192,136522,1,0,0:0:0:60:kick.wav
256,192,136610,128,0,136699:0:0:0:65:hihat.wav
109,192,136699,128,0,136875:0:0:0:70:jingle.wav
475,192,136699,128,0,136787:0:0:0:65:hihat.wav
402,192,136787,128,0,136875:0:0:0:65:hihat.wav
182,192,136875,128,0,137758:0:0:0:70:jingle.wav
256,192,136875,128,0,136963:0:0:0:65:hihat.wav
329,192,136963,128,0,137052:0:0:0:65:hihat.wav
36,192,137052,128,0,137228:0:0:0:65:hihat.wav
475,192,137052,1,0,0:0:0:0:
402,192,137052,1,0,0:0:0:60:kick.wav
329,192,137228,128,0,137405:0:0:0:65:hihat.wav
109,192,137405,128,0,137493:0:0:0:65:hihat.wav
256,192,137493,128,0,137669:0:0:0:65:hihat.wav
402,192,137581,1,0,0:0:0:60:kick.wav
475,192,137581,1,0,0:0:0:0:
36,192,137669,128,0,137758:0:0:0:65:hihat.wav
475,192,137758,128,0,138463:0:0:0:70:jingle.wav
329,192,137758,128,0,137934:0:0:0:65:hihat.wav
402,192,137934,128,0,138022:0:0:0:65:hihat.wav
109,192,137934,1,0,0:0:0:60:kick.wav
36,192,137934,1,0,0:0:0:0:
256,192,138022,128,0,138110:0:0:0:65:hihat.wav
182,192,138110,128,0,138287:0:0:0:65:hihat.wav
36,192,138287,128,0,138463:0:0:0:65:hihat.wav
329,192,138463,128,0,139522:0:0:0:70:jingle.wav
256,192,138463,128,0,138640:0:0:0:65:hihat.wav
109,192,138463,1,0,0:0:0:0:
182,192,138463,1,0,0:0:0:60:kick.wav
475,192,138640,128,0,138816:0:0:0:65:hihat.wav
109,192,138816,128,0,138905:0:0:0:65:hihat.wav
256,192,138905,128,0,139081:0:0:0:65:hihat.wav
402,192,138993,1,0,0:0:0:60:kick.wav
475,192,138993,1,0,0:0:0:0:
36,192,139081,128,0,139169:0:0:0:65:hihat.wav
182,192,139169,128,0,139346:0:0:0:65:hihat.wav
475,192,139346,128,0,139434:0:0:0:65:hihat.wav
36,192,139346,1,0,0:0:0:0:
109,192,139346,1,0,0:0:0:60:kick.wav
256,192,139434,128,0,139522:0:0:0:65:hihat.wav
402,192,139522,128,0,139699:0:0:0:70:jingle.wav
182,192,139522,128,0,139610:0:0:0:65:hihat.wav
36,192,139610,128,0,139699:0:0:0:65:hihat.wav
329,192,139699,128,0,141287:0:0:0:70:jingle.wav
256,192,139699,128,0,139787:0:0:0:65:hihat.wav
109,192,139787,128,0,139875:0:0:0:65:hihat.wav
36,192,139875,128,0,140052:0:0:0:65:hihat.wav
402,192,139875,1,0,0:0:0:60:kick.wav
475,192,139875,1,0,0:0:0:0:
256,192,140052,128,0,140228:0:0:0:65:hihat.wav
182,192,140228,128,0,140316:0:0:0:65:hihat.wav
402,192,140316,128,0,140493:0:0:0:65:hihat.wav
36,192,140405,1,0,0:0:0:0:
109,192,140405,1,0,0:0:0:60:kick.wav
256,192,140493,128,0,140581:0:0:0:65:hihat.wav
475,192,140581,128,0,140758:0:0:0:65:hihat.wav
36,192,140758,128,0,140846:0:0:0:65:hihat.wav
109,192,140758,1,0,0:0:0:0:
182,192,140758,1,0,0:0:0:60:kick.wav
402,192,140846,128,0,140934:0:0:0:65:hihat.wav
256,192,140934,128,0,141110:0:0:0:65:hihat.wav
109,192,141110,128,0,141287:0:0:0:65:hihat.wav
256,192,141287,128,0,141463:0:0:0:65:hihat.wav
36,192,141287,128,0,141993:0:0:0:70:jingle.wav
475,192,141287,1,0,0:0:0:0:
402,192,141287,1,0,0:0:0:60:kick.wav
329,192,141463,128,0,141640:0:0:0:65:hihat.wav
182,192,141640,128,0,141728:0:0:0:65:hihat.wav
256,192,141728,128,0,141905:0:0:0:65:hihat.wav
402,192,141816,1,0,0:0:0:60:kick.wav
475,192,141816,1,0,0:0:0:0:
109,192,141905,128,0,141993:0:0:0:65:hihat.wav
182,192,141993,128,0,142699:0:0:0:70:jingle.wav
329,192,141993,128,0,142169:0:0:0:65:hihat.wav
402,192,142169,128,0,142258:0:0:0:65:hihat.wav
36,192,142169,1,0,0:0:0:0:
109,192,142169,1,0,0:0:0:60:kick.wav
475,192,142258,128,0,142346:0:0:0:65:hihat.wav
256,192,142346,128,0,142434:0:0:0:65:hihat.wav
109,192,142434,128,0,142522:0:0:0:65:hihat.wav
402,192,142522,128,0,142610:0:0:0:65:hihat.wav
329,192,142610,128,0,142699:0:0:0:65:hihat.wav
475,192,142699,128,0,143405:0:0:0:70:jingle.wav
256,192,142699,128,0,142875:0:0:0:65:hihat.wav
109,192,142699,1,0,0:0:0:60:kick.wav
36,192,142699,1,0,0:0:0:0:
109,192,142875,128,0,143052:0:0:0:65:hihat.wav
36,192,143052,128,0,143140:0:0:0:65:hihat.wav
182,192,143140,128,0,143316:0:0:0:65:hihat.wav
402,192,143228,1,0,0:0:0:0:
329,192,143228,1,0,0:0:0:60:kick.wav
109,192,143316,128,0,143405:0:0:0:65:hihat.wav
329,192,143405,128,0,144110:0:0:0:70:jingle.wav
256,192,143405,128,0,143581:0:0:0:65:hihat.wav
402,192,143581,128,0,143669:0:0:0:65:hihat.wav
109,192,143581,1,0,0:0:0:60:kick.wav
36,192,143581,1,0,0:0:0:0:
182,192,143669,128,0,143758:0:0:0:65:hihat.wav
475,192,143758,128,0,143934:0:0:0:65:hihat.wav
256,192,143934,128,0,144110:0:0:0:65:hihat.wav
36,192,144110,128,0,145522:0:0:0:0:
475,192,144110,128,0,145522:0:0:0:70:jingle.wav
182,192,144110,1,0,0:0:0:60:kick.wav
109,192,144110,1,0,0:0:0:0:
402,192,144110,128,0,144287:0:0:0:66:hihat.wav
256,192,144287,128,0,144463:0:0:0:66:hihat.wav
109,192,144463,128,0,144552:0:0:0:67:hihat.wav
182,192,144552,128,0,144728:0:0:0:67:hihat.wav
329,192,144640,1,0,0:0:0:60:kick.wav
402,192,144640,1,0,0:0:0:0:
256,192,144728,128,0,144816:0:0:0:67:hihat.wav
329,192,144816,128,0,144993:0:0:0:68:hihat.wav
402,192,144993,128,0,145081:0:0:0:68:hihat.wav
182,192,144993,1,0,0:0:0:60:kick.wav
109,192,144993,1,0,0:0:0:0:
256,192,145081,128,0,145169:0:0:0:68:hihat.wav
329,192,145169,128,0,145258:0:0:0:69:hihat.wav
182,192,145258,128,0,145346:0:0:0:69:hihat.wav
256,192,145346,128,0,145434:0:0:0:69:hihat.wav
329,192,145434,128,0,145522:0:0:0:69:hihat.wav
256,192,145522,5,0,0:0:0:60:kick.wav
402,192,145522,1,0,0:0:0:0:
182,192,145522,128,0,145699:0:0:0:70:hihat.wav
109,192,145522,1,0,0:0:0:0:
329,192,145699,128,0,145875:0:0:0:70:hihat.wav
36,192,145875,128,0,146228:0:0:0:70:jingle.wav
109,192,145875,128,0,145963:0:0:0:71:hihat.wav
402,192,145963,128,0,146140:0:0:0:71:hihat.wav
182,192,146140,128,0,146228:0:0:0:71:hihat.wav
475,192,146228,128,0,146581:0:0:0:70:jingle.wav
329,192,146228,128,0,146405:0:0:0:72:hihat.wav
36,192,146405,128,0,146493:0:0:0:72:hihat.wav
109,192,146493,128,0,146581:0:0:0:72:hihat.wav
256,192,146581,128,0,148522:0:0:0:70:jingle.wav
329,192,146581,128,0,146934:0:0:0:73:hihat.wav
182,192,146758,128,0,146934:0:0:0:74:hihat.wav
36,192,146934,1,0,0:0:0:0:
402,192,146934,1,0,0:0:0:0:
475,192,146934,1,0,0:0:0:60:kick.wav
109,192,146934,128,0,147110:0:0:0:75:hihat.wav
182,192,147110,1,0,0:0:0:0:
402,192,147110,128,0,147287:0:0:0:75:hihat.wav
329,192,147287,1,0,0:0:0:60:kick.wav
109,192,147287,1,0,0:0:0:0:
36,192,147287,128,0,147375:0:0:0:75:hihat.wav
475,192,147375,128,0,147552:0:0:0:75:hihat.wav
182,192,147463,1,0,0:0:0:0:
109,192,147552,128,0,147640:0:0:0:75:hihat.wav
329,192,147640,1,0,0:0:0:0:
36,192,147640,1,0,0:0:0:60:kick.wav
402,192,147640,128,0,147816:0:0:0:75:hihat.wav
182,192,147816,1,0,0:0:0:0:
329,192,147816,128,0,147905:0:0:0:75:hihat.wav
109,192,147905,128,0,147993:0:0:0:75:hihat.wav
36,192,147993,1,0,0:0:0:60:kick.wav
475,192,147993,1,0,0:0:0:0:
402,192,147993,128,0,148081:0:0:0:75:hihat.wav
182,192,148081,128,0,148169:0:0:0:75:hihat.wav
329,192,148169,1,0,0:0:0:0:
109,192,148169,128,0,148258:0:0:0:75:hihat.wav
475,192,148258,128,0,148346:0:0:0:75:hihat.wav
109,192,148346,1,0,0:0:0:0:
36,192,148346,128,0,148522:0:0:0:75:hihat.wav
402,192,148346,1,0,0:0:0:60:kick.wav
182,192,148522,128,0,148610:0:0:0:0:
329,192,148522,128,0,148610:0:0:0:75:jingle.wav
475,192,148610,128,0,148699:0:0:0:75:jingle.wav
402,192,148610,128,0,148699:0:0:0:0:
109,192,148699,128,0,148787:0:0:0:0:
36,192,148699,1,0,0:0:0:60:kick.wav
256,192,148699,128,0,148787:0:0:0:75:jingle.wav
402,192,148787,128,0,148875:0:0:0:75:jingle.wav
329,192,148787,128,0,148875:0:0:0:0:
182,192,148875,128,0,149052:0:0:0:75:jingle.wav
36,192,148875,128,0,149052:0:0:0:0:
402,192,149052,128,0,149140:0:0:0:0:
475,192,149052,128,0,149140:0:0:0:75:jingle.wav
329,192,149052,1,0,0:0:0:60:kick.wav
36,192,149140,128,0,149228:0:0:0:0:
109,192,149140,128,0,149228:0:0:0:75:jingle.wav
256,192,149228,128,0,149316:0:0:0:0:
182,192,149228,128,0,149316:0:0:0:75:jingle.wav
475,192,149316,128,0,149493:0:0:0:0:
329,192,149316,128,0,149493:0:0:0:75:jingle.wav
36,192,149405,1,0,0:0:0:60:kick.wav
109,192,149493,128,0,149581:0:0:0:0:
182,192,149493,128,0,149581:0:0:0:75:jingle.wav
256,192,149581,128,0,149669:0:0:0:75:jingle.wav
402,192,149581,128,0,149669:0:0:0:0:
109,192,149669,128,0,149758:0:0:0:75:jingle.wav
36,192,149669,128,0,149758:0:0:0:0:
402,192,149758,128,0,149934:0:0:0:0:
329,192,149758,1,0,0:0:0:60:kick.wav
475,192,149758,128,0,149934:0:0:0:75:jingle.wav
182,192,149934,128,0,150022:0:0:0:75:jingle.wav
36,192,149934,128,0,150022:0:0:0:0:
402,192,150022,128,0,150110:0:0:0:0:
329,192,150022,128,0,150110:0:0:0:75:jingle.wav
109,192,150110,128,0,150199:0:0:0:0:
36,192,150110,1,0,0:0:0:60:kick.wav
256,192,150110,128,0,150199:0:0:0:75:jingle.wav
475,192,150199,128,0,150287:0:0:0:75:jingle.wav
402,192,150199,128,0,150287:0:0:0:0:
329,192,150287,128,0,150463:0:0:0:0:
182,192,150287,128,0,150463:0:0:0:75:jingle.wav
109,192,150463,128,0,150552:0:0:0:75:jingle.wav
475,192,150463,1,0,0:0:0:60:kick.wav
36,192,150463,128,0,150552:0:0:0:0:
402,192,150552,128,0,150640:0:0:0:0:
256,192,150552,128,0,150640:0:0:0:75:jingle.wav
109,192,150640,128,0,150728:0:0:0:75:jingle.wav
182,192,150640,128,0,150728:0:0:0:0:
329,192,150728,128,0,150905:0:0:0:75:jingle.wav
475,192,150728,128,0,150905:0:0:0:0:
36,192,150816,1,0,0:0:0:60:kick.wav
109,192,150905,128,0,150993:0:0:0:75:jingle.wav
256,192,150905,128,0,150993:0:0:0:0:
402,192,150993,128,0,151081:0:0:0:75:jingle.wav
475,192,150993,128,0,151081:0:0:0:0:
182,192,151081,128,0,151169:0:0:0:75:jingle.wav
329,192,151081,128,0,151169:0:0:0:0:
109,192,151169,128,0,151346:0:0:0:75:jingle.wav
256,192,151169,1,0,0:0:0:60:kick.wav
36,192,151169,128,0,151346:0:0:0:0:
256,192,151346,128,0,151434:0:0:0:0:
402,192,151346,128,0,151434:0:0:0:75:jingle.wav
109,192,151434,128,0,151522:0:0:0:0:
182,192,151434,128,0,151522:0:0:0:75:jingle.wav
475,192,151522,128,0,151610:0:0:0:75:jingle.wav
36,192,151522,1,0,0:0:0:60:kick.wav
329,192,151522,128,0,151610:0:0:0:0:
182,192,151610,128,0,151699:0:0:0:75:jingle.wav
256,192,151610,128,0,151699:0:0:0:0:
402,192,151699,128,0,151875:0:0:0:0:
475,192,151699,128,0,151875:0:0:0:75:jingle.wav
109,192,151875,128,0,151963:0:0:0:0:
36,192,151875,1,0,0:0:0:60:kick.wav
256,192,151875,128,0,151963:0:0:0:75:jingle.wav
329,192,151963,128,0,152052:0:0:0:75:jingle.wav
402,192,151963,128,0,152052:0:0:0:0:
36,192,152052,128,0,152140:0:0:0:0:
182,192,152052,128,0,152140:0:0:0:75:jingle.wav
256,192,152140,128,0,152316:0:0:0:0:
329,192,152140,128,0,152316:0:0:0:75:jingle.wav
475,192,152228,1,0,0:0:0:60:kick.wav
109,192,152316,128,0,152405:0:0:0:75:jingle.wav
36,192,152316,128,0,152405:0:0:0:0:
182,192,152405,128,0,152493:0:0:0:0:
256,192,152405,128,0,152493:0:0:0:75:jingle.wav
402,192,152493,128,0,152581:0:0:0:75:jingle.wav
329,192,152493,128,0,152581:0:0:0:0:
475,192,152581,128,0,152669:0:0:0:0:
109,192,152581,1,0,0:0:0:60:kick.wav
36,192,152581,128,0,152669:0:0:0:75:jingle.wav
182,192,152669,128,0,152758:0:0:0:75:jingle.wav
256,192,152669,128,0,152758:0:0:0:0:
109,192,152758,128,0,152846:0:0:0:0:
402,192,152758,128,0,152846:0:0:0:75:jingle.wav
256,192,152846,128,0,152934:0:0:0:0:
329,192,152846,128,0,152934:0:0:0:75:jingle.wav
36,192,152934,1,0,0:0:0:60:jingle.wav
402,192,152934,1,0,0:0:0:60:kick.wav
475,192,152934,1,0,0:0:0:0:
109,192,152978,1,0,0:0:0:60:jingle.wav
182,192,153022,1,0,0:0:0:60:jingle.wav
256,192,153066,1,0,0:0:0:60:jingle.wav
475,192,153110,1,0,0:0:0:60:jingle.wav
402,192,153155,1,0,0:0:0:60:jingle.wav
329,192,153199,1,0,0:0:0:60:jingle.wav
256,192,153243,1,0,0:0:0:60:jingle.wav
182,192,153287,128,0,153375:0:0:0:0:
402,192,153287,128,0,153375:0:0:0:75:jingle.wav
475,192,153287,1,0,0:0:0:60:kick.wav
109,192,153375,128,0,153463:0:0:0:0:
329,192,153375,128,0,153463:0:0:0:75:jingle.wav
36,192,153463,128,0,153552:0:0:0:0:
256,192,153463,128,0,153552:0:0:0:75:jingle.wav
182,192,153552,128,0,153640:0:0:0:75:jingle.wav
329,192,153552,128,0,153640:0:0:0:0:
36,192,153640,1,0,0:0:0:0:
475,192,153640,1,0,0:0:0:60:jingle.wav
109,192,153640,1,0,0:0:0:60:kick.wav
402,192,153684,1,0,0:0:0:60:jingle.wav
329,192,153728,1,0,0:0:0:60:jingle.wav
256,192,153772,1,0,0:0:0:60:jingle.wav
36,192,153816,1,0,0:0:0:60:jingle.wav
109,192,153860,1,0,0:0:0:60:jingle.wav
182,192,153905,1,0,0:0:0:60:jingle.wav
256,192,153949,1,0,0:0:0:60:jingle.wav
329,192,153993,128,0,154081:0:0:0:0:
109,192,153993,128,0,154081:0:0:0:75:jingle.wav
36,192,153993,1,0,0:0:0:60:kick.wav
402,192,154081,128,0,154169:0:0:0:0:
182,192,154081,128,0,154169:0:0:0:75:jingle.wav
475,192,154169,128,0,154258:0:0:0:0:
256,192,154169,128,0,154258:0:0:0:75:jingle.wav
182,192,154258,128,0,154346:0:0:0:0:
329,192,154258,128,0,154346:0:0:0:75:jingle.wav
475,192,154346,1,0,0:0:0:60:jingle.wav
109,192,154346,1,0,0:0:0:60:kick.wav
36,192,154346,1,0,0:0:0:0:
402,192,154390,1,0,0:0:0:60:jingle.wav
329,192,154434,1,0,0:0:0:60:jingle.wav
256,192,154478,1,0,0:0:0:60:jingle.wav
36,192,154522,1,0,0:0:0:60:jingle.wav
109,192,154566,1,0,0:0:0:60:jingle.wav
182,192,154610,1,0,0:0:0:60:jingle.wav
256,192,154655,1,0,0:0:0:60:jingle.wav
329,192,154699,1,0,0:0:0:60:jingle.wav
475,192,154699,1,0,0:0:0:0:
402,192,154699,1,0,0:0:0:60:kick.wav
36,192,154743,1,0,0:0:0:60:jingle.wav
109,192,154787,1,0,0:0:0:60:jingle.wav
182,192,154831,1,0,0:0:0:60:jingle.wav
256,192,154875,1,0,0:0:0:60:jingle.wav
329,192,154919,1,0,0:0:0:60:jingle.wav
402,192,154963,1,0,0:0:0:60:jingle.wav
475,192,155008,1,0,0:0:0:60:jingle.wav
256,192,155052,128,0,155140:0:0:0:0:
109,192,155052,128,0,155140:0:0:0:75:jingle.wav
36,192,155052,1,0,0:0:0:60:kick.wav
329,192,155140,128,0,155228:0:0:0:0:
182,192,155140,128,0,155228:0:0:0:75:jingle.wav
402,192,155228,128,0,155316:0:0:0:0:
256,192,155228,128,0,155316:0:0:0:75:jingle.wav
182,192,155316,128,0,155405:0:0:0:0:
329,192,155316,128,0,155405:0:0:0:75:jingle.wav
36,192,155405,1,0,0:0:0:0:
475,192,155405,1,0,0:0:0:60:jingle.wav
109,192,155405,1,0,0:0:0:60:kick.wav
402,192,155449,1,0,0:0:0:60:jingle.wav
329,192,155493,1,0,0:0:0:60:jingle.wav
256,192,155537,1,0,0:0:0:60:jingle.wav
182,192,155581,1,0,0:0:0:60:jingle.wav
109,192,155625,1,0,0:0:0:60:jingle.wav
256,192,155669,1,0,0:0:0:60:jingle.wav
329,192,155713,1,0,0:0:0:60:jingle.wav
402,192,155758,1,0,0:0:0:60:kick.wav
475,192,155758,128,0,155846:0:0:0:0:
182,192,155758,128,0,155846:0:0:0:75:jingle.wav
256,192,155846,128,0,155934:0:0:0:75:jingle.wav
36,192,155846,128,0,155934:0:0:0:0:
402,192,155934,128,0,156022:0:0:0:75:jingle.wav
109,192,155934,128,0,156022:0:0:0:0:
182,192,156022,128,0,156110:0:0:0:0:
329,192,156022,128,0,156110:0:0:0:75:jingle.wav
475,192,156110,1,0,0:0:0:0:
36,192,156110,1,0,0:0:0:60:jingle.wav
402,192,156110,1,0,0:0:0:60:kick.wav
109,192,156155,1,0,0:0:0:60:jingle.wav
182,192,156199,1,0,0:0:0:60:jingle.wav
256,192,156243,1,0,0:0:0:60:jingle.wav
329,192,156287,1,0,0:0:0:60:jingle.wav
402,192,156331,1,0,0:0:0:60:jingle.wav
256,192,156375,1,0,0:0:0:60:jingle.wav
182,192,156419,1,0,0:0:0:60:jingle.wav
109,192,156463,1,0,0:0:0:60:kick.wav
36,192,156463,128,0,156552:0:0:0:0:
329,192,156463,128,0,156552:0:0:0:75:jingle.wav
256,192,156552,128,0,156640:0:0:0:75:jingle.wav
475,192,156552,128,0,156640:0:0:0:0:
109,192,156640,128,0,156728:0:0:0:75:jingle.wav
402,192,156640,128,0,156728:0:0:0:0:
182,192,156728,128,0,156816:0:0:0:75:jingle.wav
329,192,156728,128,0,156816:0:0:0:0:
402,192,156816,1,0,0:0:0:60:kick.wav
475,192,156816,1,0,0:0:0:0:
36,192,156816,1,0,0:0:0:60:jingle.wav
109,192,156860,1,0,0:0:0:60:jingle.wav
182,192,156905,1,0,0:0:0:60:jingle.wav
256,192,156949,1,0,0:0:0:60:jingle.wav
475,192,156993,1,0,0:0:0:60:jingle.wav
402,192,157037,1,0,0:0:0:60:jingle.wav
329,192,157081,1,0,0:0:0:60:jingle.wav
256,192,157125,1,0,0:0:0:60:jingle.wav
182,192,157169,1,0,0:0:0:60:jingle.wav
109,192,157169,1,0,0:0:0:60:kick.wav
36,192,157169,1,0,0:0:0:0:
475,192,157213,1,0,0:0:0:60:jingle.wav
402,192,157258,1,0,0:0:0:60:jingle.wav
329,192,157302,1,0,0:0:0:60:jingle.wav
256,192,157346,1,0,0:0:0:60:jingle.wav
182,192,157390,1,0,0:0:0:60:jingle.wav
109,192,157434,1,0,0:0:0:60:jingle.wav
36,192,157478,1,0,0:0:0:60:jingle.wav
475,192,157522,1,0,0:0:0:60:kick.wav
256,192,157522,128,0,157610:0:0:0:0:
402,192,157522,128,0,157610:0:0:0:75:jingle.wav
182,192,157699,128,0,157787:0:0:0:0:
329,192,157699,128,0,157787:0:0:0:75:jingle.wav
256,192,157699,1,0,0:0:0:70:chime.wav
36,192,157787,1,0,0:0:0:0:
475,192,157787,1,0,0:0:0:0:
402,192,157875,1,0,0:0:0:0:
109,192,157875,1,0,0:0:0:0:
256,192,157875,1,0,0:0:0:70:chime.wav
182,192,158052,1,0,0:0:0:0:
329,192,158052,1,0,0:0:0:0:
475,192,158228,1,0,0:0:0:0:
36,192,158228,128,0,158405:0:0:0:75:hihat.wav
256,192,158228,1,0,0:0:0:60:kick.wav
402,192,158316,1,0,0:0:0:0:
182,192,158405,1,0,0:0:0:0:
329,192,158405,128,0,158581:0:0:0:75:hihat.wav
109,192,158493,1,0,0:0:0:0:
36,192,158581,1,0,0:0:0:0:
182,192,158581,128,0,158669:0:0:0:75:hihat.wav
402,192,158581,1,0,0:0:0:60:kick.wav
256,192,158669,1,0,0:0:0:0:
475,192,158669,128,0,158846:0:0:0:75:hihat.wav
109,192,158758,1,0,0:0:0:0:
329,192,158846,1,0,0:0:0:0:
36,192,158846,128,0,158934:0:0:0:75:hihat.wav
182,192,158934,1,0,0:0:0:0:
402,192,158934,128,0,159110:0:0:0:75:hihat.wav
475,192,158934,1,0,0:0:0:60:kick.wav
109,192,159022,1,0,0:0:0:0:
329,192,159110,1,0,0:0:0:0:
182,192,159110,128,0,159199:0:0:0:75:hihat.wav
402,192,159199,1,0,0:0:0:0:
109,192,159199,128,0,159287:0:0:0:75:hihat.wav
36,192,159287,1,0,0:0:0:0:
475,192,159287,128,0,159375:0:0:0:75:hihat.wav
256,192,159287,1,0,0:0:0:60:kick.wav
182,192,159375,1,0,0:0:0:0:
402,192,159375,128,0,159463:0:0:0:75:hihat.wav
109,192,159463,1,0,0:0:0:0:
329,192,159463,128,0,159552:0:0:0:75:hihat.wav
182,192,159552,1,0,0:0:0:0:
475,192,159552,128,0,159640:0:0:0:75:hihat.wav
36,192,159640,128,0,159816:0:0:0:75:hihat.wav
256,192,159640,1,0,0:0:0:0:
109,192,159640,1,0,0:0:0:60:kick.wav
402,192,159728,1,0,0:0:0:0:
475,192,159816,128,0,159993:0:0:0:75:hihat.wav
182,192,159816,1,0,0:0:0:0:
256,192,159905,1,0,0:0:0:0:
109,192,159993,128,0,160081:0:0:0:75:hihat.wav
36,192,159993,1,0,0:0:0:0:
329,192,159993,1,0,0:0:0:60:kick.wav
402,192,160081,128,0,160258:0:0:0:75:hihat.wav
256,192,160081,1,0,0:0:0:0:
182,192,160169,1,0,0:0:0:0:
109,192,160258,128,0,160346:0:0:0:75:hihat.wav
329,192,160258,1,0,0:0:0:0:
256,192,160346,128,0,160522:0:0:0:75:hihat.wav
402,192,160346,1,0,0:0:0:0:
36,192,160346,1,0,0:0:0:60:kick.wav
109,192,160434,1,0,0:0:0:0:
402,192,160522,128,0,160610:0:0:0:75:hihat.wav
182,192,160522,1,0,0:0:0:70:chime.wav
475,192,160522,1,0,0:0:0:0:
329,192,160610,128,0,160699:0:0:0:75:hihat.wav
36,192,160610,1,0,0:0:0:0:
256,192,160699,1,0,0:0:0:70:chime.wav
109,192,160699,1,0,0:0:0:0:
475,192,160699,1,0,0:0:0:60:kick.wav
182,192,160699,128,0,160875:0:0:0:75:hihat.wav
402,192,160787,1,0,0:0:0:0:
36,192,160875,128,0,161052:0:0:0:75:hihat.wav
329,192,160875,1,0,0:0:0:0:
256,192,160963,1,0,0:0:0:0:
182,192,161052,128,0,161228:0:0:0:75:hihat.wav
329,192,161052,1,0,0:0:0:0:
109,192,161052,1,0,0:0:0:60:kick.wav
402,192,161140,1,0,0:0:0:0:
475,192,161228,128,0,161405:0:0:0:75:hihat.wav
256,192,161228,1,0,0:0:0:0:
329,192,161316,1,0,0:0:0:0:
109,192,161405,1,0,0:0:0:0:
402,192,161405,1,0,0:0:0:60:kick.wav
36,192,161405,128,0,161493:0:0:0:75:hihat.wav
329,192,161493,128,0,161669:0:0:0:75:hihat.wav
256,192,161493,1,0,0:0:0:0:
182,192,161581,1,0,0:0:0:0:
475,192,161669,1,0,0:0:0:0:
109,192,161669,128,0,161758:0:0:0:75:hihat.wav
402,192,161758,128,0,161934:0:0:0:75:hihat.wav
256,192,161758,1,0,0:0:0:0:
36,192,161758,1,0,0:0:0:60:kick.wav
182,192,161846,1,0,0:0:0:0:
329,192,161934,1,0,0:0:0:0:
109,192,161934,128,0,162022:0:0:0:75:hihat.wav
402,192,162022,1,0,0:0:0:0:
256,192,162022,128,0,162110:0:0:0:75:hihat.wav
182,192,162110,1,0,0:0:0:60:kick.wav
36,192,162110,1,0,0:0:0:0:
475,192,162110,128,0,162199:0:0:0:75:hihat.wav
329,192,162199,1,0,0:0:0:0:
109,192,162199,128,0,162287:0:0:0:75:hihat.wav
182,192,162287,1,0,0:0:0:0:
402,192,162287,128,0,162375:0:0:0:75:hihat.wav
256,192,162375,1,0,0:0:0:0:
36,192,162375,128,0,162463:0:0:0:75:hihat.wav
329,192,162463,1,0,0:0:0:0:
475,192,162463,1,0,0:0:0:60:kick.wav
109,192,162463,128,0,162640:0:0:0:75:hihat.wav
256,192,162552,1,0,0:0:0:0:
402,192,162640,128,0,162816:0:0:0:75:hihat.wav
182,192,162640,1,0,0:0:0:0:
256,192,162728,1,0,0:0:0:0:
109,192,162816,1,0,0:0:0:0:
329,192,162816,1,0,0:0:0:60:kick.wav
36,192,162816,128,0,162905:0:0:0:75:hihat.wav
475,192,162905,128,0,163081:0:0:0:75:hihat.wav
182,192,162905,1,0,0:0:0:0:
256,192,162993,1,0,0:0:0:0:
402,192,163081,1,0,0:0:0:0:
109,192,163081,128,0,163169:0:0:0:75:hihat.wav
329,192,163169,128,0,163346:0:0:0:75:hihat.wav
182,192,163169,1,0,0:0:0:0:
36,192,163169,1,0,0:0:0:60:kick.wav
256,192,163258,1,0,0:0:0:0:
402,192,163346,1,0,0:0:0:0:
109,192,163346,1,0,0:0:0:70:chime.wav
182,192,163346,128,0,163434:0:0:0:75:hihat.wav
256,192,163434,1,0,0:0:0:0:
475,192,163434,128,0,163522:0:0:0:75:hihat.wav
109,192,163522,1,0,0:0:0:0:
36,192,163522,1,0,0:0:0:60:kick.wav
329,192,163522,1,0,0:0:0:70:chime.wav
402,192,163522,128,0,163699:0:0:0:75:hihat.wav
182,192,163610,1,0,0:0:0:0:
256,192,163699,128,0,163875:0:0:0:75:hihat.wav
109,192,163699,1,0,0:0:0:0:
475,192,163787,1,0,0:0:0:0:
329,192,163875,1,0,0:0:0:60:kick.wav
182,192,163875,1,0,0:0:0:0:
36,192,163875,128,0,164052:0:0:0:75:hihat.wav
402,192,163963,1,0,0:0:0:0:
475,192,164052,128,0,164228:0:0:0:75:hihat.wav
182,192,164052,1,0,0:0:0:0:
256,192,164140,1,0,0:0:0:0:
329,192,164228,1,0,0:0:0:60:kick.wav
109,192,164228,1,0,0:0:0:0:
36,192,164228,128,0,164316:0:0:0:75:hihat.wav
402,192,164316,128,0,164493:0:0:0:75:hihat.wav
256,192,164316,1,0,0:0:0:0:
182,192,164405,1,0,0:0:0:0:
109,192,164493,128,0,164581:0:0:0:75:hihat.wav
329,192,164493,1,0,0:0:0:0:
36,192,164581,1,0,0:0:0:60:kick.wav
402,192,164581,1,0,0:0:0:0:
475,192,164581,128,0,164758:0:0:0:75:hihat.wav
256,192,164669,1,0,0:0:0:0:
329,192,164758,128,0,164846:0:0:0:75:hihat.wav
182,192,164758,1,0,0:0:0:0:
402,192,164846,128,0,164934:0:0:0:75:hihat.wav
109,192,164846,1,0,0:0:0:0:
256,192,164934,1,0,0:0:0:60:kick.wav
329,192,164934,1,0,0:0:0:0:
36,192,164934,128,0,165022:0:0:0:75:hihat.wav
402,192,165022,1,0,0:0:0:0:
109,192,165022,128,0,165110:0:0:0:75:hihat.wav
475,192,165110,1,0,0:0:0:0:
182,192,165110,128,0,165199:0:0:0:75:hihat.wav
402,192,165199,1,0,0:0:0:0:
109,192,165199,128,0,165287:0:0:0:75:hihat.wav
256,192,165287,1,0,0:0:0:0:
329,192,165287,1,0,0:0:0:60:kick.wav
36,192,165287,128,0,165463:0:0:0:75:hihat.wav
182,192,165375,1,0,0:0:0:0:
402,192,165463,128,0,165640:0:0:0:75:hihat.wav
109,192,165463,1,0,0:0:0:0:
256,192,165552,1,0,0:0:0:0:
182,192,165640,128,0,165728:0:0:0:75:hihat.wav
36,192,165640,1,0,0:0:0:0:
329,192,165640,1,0,0:0:0:60:kick.wav
475,192,165728,128,0,165905:0:0:0:75:hihat.wav
402,192,165728,1,0,0:0:0:0:
109,192,165816,1,0,0:0:0:0:
329,192,165905,128,0,165993:0:0:0:75:hihat.wav
182,192,165905,1,0,0:0:0:0:
36,192,165993,128,0,166169:0:0:0:75:hihat.wav
256,192,165993,1,0,0:0:0:60:kick.wav
475,192,165993,1,0,0:0:0:0:
182,192,166081,1,0,0:0:0:0:
402,192,166169,1,0,0:0:0:0:
256,192,166169,128,0,166258:0:0:0:75:hihat.wav
109,192,166169,1,0,0:0:0:70:chime.wav
329,192,166258,1,0,0:0:0:0:
182,192,166258,128,0,166346:0:0:0:75:hihat.wav
36,192,166346,1,0,0:0:0:60:kick.wav
109,192,166346,1,0,0:0:0:0:
402,192,166346,1,0,0:0:0:70:chime.wav
475,192,166346,128,0,166522:0:0:0:75:hihat.wav
256,192,166434,1,0,0:0:0:0:
329,192,166522,128,0,166699:0:0:0:75:hihat.wav
182,192,166522,1,0,0:0:0:0:
109,192,166610,1,0,0:0:0:0:
256,192,166699,1,0,0:0:0:60:kick.wav
36,192,166699,128,0,166875:0:0:0:75:hihat.wav
475,192,166699,1,0,0:0:0:0:
402,192,166787,1,0,0:0:0:0:
329,192,166875,128,0,167052:0:0:0:75:hihat.wav
109,192,166875,1,0,0:0:0:0:
182,192,166963,1,0,0:0:0:0:
109,192,167052,128,0,167140:0:0:0:75:hihat.wav
36,192,167052,1,0,0:0:0:0:
475,192,167052,1,0,0:0:0:60:kick.wav
402,192,167140,128,0,167316:0:0:0:75:hihat.wav
329,192,167140,1,0,0:0:0:0:
256,192,167228,1,0,0:0:0:0:
182,192,167316,128,0,167405:0:0:0:75:hihat.wav
109,192,167316,1,0,0:0:0:0:
329,192,167405,1,0,0:0:0:0:
36,192,167405,1,0,0:0:0:60:kick.wav
475,192,167405,128,0,167581:0:0:0:75:hihat.wav
256,192,167493,1,0,0:0:0:0:
109,192,167581,128,0,167669:0:0:0:75:hihat.wav
402,192,167581,1,0,0:0:0:0:
182,192,167669,128,0,167758:0:0:0:75:hihat.wav
329,192,167669,1,0,0:0:0:0:
256,192,167758,1,0,0:0:0:60:kick.wav
36,192,167758,1,0,0:0:0:0:
475,192,167758,128,0,167846:0:0:0:75:hihat.wav
109,192,167846,1,0,0:0:0:0:
329,192,167846,128,0,167934:0:0:0:75:hihat.wav
402,192,167934,1,0,0:0:0:0:
182,192,167934,128,0,168022:0:0:0:75:hihat.wav
109,192,168022,1,0,0:0:0:0:
329,192,168022,128,0,168110:0:0:0:75:hihat.wav
36,192,168110,128,0,168287:0:0:0:75:hihat.wav
256,192,168110,1,0,0:0:0:0:
329,192,168287,128,0,168463:0:0:0:75:hihat.wav
475,192,168287,128,0,168463:0:0:0:0:
109,192,168463,128,0,168552:0:0:0:75:hihat.wav
402,192,168552,128,0,168728:0:0:0:0:
256,192,168552,128,0,168728:0:0:0:75:hihat.wav
36,192,168728,128,0,168816:0:0:0:75:hihat.wav
329,192,168816,128,0,168993:0:0:0:75:hihat.wav
182,192,168816,128,0,168993:0:0:0:0:
109,192,168993,128,0,169081:0:0:0:0:
402,192,168993,128,0,169081:0:0:0:75:hihat.wav
475,192,169081,128,0,169169:0:0:0:75:hihat.wav
36,192,169081,128,0,169169:0:0:0:0:
329,192,169169,128,0,169346:0:0:0:0:
182,192,169169,128,0,169346:0:0:0:75:hihat.wav
109,192,169346,128,0,169522:0:0:0:75:hihat.wav
256,192,169346,128,0,169522:0:0:0:0:
329,192,169522,128,0,170581:0:0:0:75:jingle.wav
36,192,169522,128,0,169610:0:0:0:75:hihat.wav
402,192,169522,1,4,1:0:0:90:
475,192,169522,1,0,0:0:0:60:kick.wav
182,192,169522,1,0,0:0:0:75:finish2.wav
109,192,169610,128,0,169699:0:0:0:75:hihat.wav
182,192,169699,128,0,169787:0:0:0:75:hihat.wav
402,192,169699,1,0,0:0:0:0:
256,192,169787,128,0,169875:0:0:0:75:hihat.wav
475,192,169875,128,0,169963:0:0:0:75:hihat.wav
36,192,169875,1,0,0:0:0:60:kick.wav
109,192,169875,1,0,0:0:0:0:
402,192,169963,128,0,170052:0:0:0:75:hihat.wav
256,192,170052,128,0,170140:0:0:0:75:hihat.wav
182,192,170052,1,0,0:0:0:0:
109,192,170140,128,0,170228:0:0:0:75:hihat.wav
475,192,170228,1,0,0:0:0:60:kick.wav
402,192,170228,1,0,0:0:0:0:
36,192,170228,128,0,170316:0:0:0:75:hihat.wav
182,192,170316,128,0,170405:0:0:0:75:hihat.wav
256,192,170405,128,0,170493:0:0:0:75:hihat.wav
109,192,170405,1,0,0:0:0:0:
402,192,170493,128,0,170581:0:0:0:75:hihat.wav
36,192,170581,128,0,170758:0:0:0:75:jingle.wav
182,192,170581,1,0,0:0:0:0:
256,192,170581,1,0,0:0:0:60:kick.wav
475,192,170581,128,0,170669:0:0:0:75:hihat.wav
402,192,170669,128,0,170758:0:0:0:75:hihat.wav
329,192,170758,128,0,171640:0:0:0:75:jingle.wav
182,192,170758,128,0,170846:0:0:0:75:hihat.wav
109,192,170758,1,0,0:0:0:0:
256,192,170846,128,0,170934:0:0:0:75:hihat.wav
402,192,170934,1,0,0:0:0:60:kick.wav
36,192,170934,128,0,171022:0:0:0:75:hihat.wav
475,192,170934,1,0,0:0:0:0:
182,192,171022,128,0,171110:0:0:0:75:hihat.wav
109,192,171110,128,0,171199:0:0:0:75:hihat.wav
256,192,171110,1,0,0:0:0:0:
402,192,171199,128,0,171287:0:0:0:75:hihat.wav
36,192,171287,1,0,0:0:0:60:kick.wav
475,192,171287,128,0,171375:0:0:0:75:hihat.wav
182,192,171287,1,0,0:0:0:0:
256,192,171375,128,0,171463:0:0:0:75:hihat.wav
182,192,171463,128,0,171552:0:0:0:75:hihat.wav
109,192,171463,1,0,0:0:0:0:
402,192,171552,128,0,171640:0:0:0:75:hihat.wav
475,192,171640,128,0,172346:0:0:0:75:jingle.wav
36,192,171640,128,0,171728:0:0:0:75:hihat.wav
256,192,171640,1,0,0:0:0:60:kick.wav
182,192,171640,1,0,0:0:0:0:
329,192,171728,128,0,171816:0:0:0:75:hihat.wav
109,192,171816,128,0,171905:0:0:0:75:hihat.wav
402,192,171816,1,0,0:0:0:0:
256,192,171905,128,0,171993:0:0:0:75:hihat.wav
402,192,171993,128,0,172081:0:0:0:75:hihat.wav
36,192,171993,1,0,0:0:0:60:kick.wav
182,192,171993,128,0,172081:0:0:0:0:
329,192,172081,128,0,172169:0:0:0:75:hihat.wav
109,192,172081,128,0,172169:0:0:0:0:
256,192,172169,128,0,172258:0:0:0:75:hihat.wav
36,192,172169,128,0,172258:0:0:0:0:
109,192,172258,128,0,172346:0:0:0:75:hihat.wav
329,192,172258,128,0,172346:0:0:0:0:
182,192,172346,128,0,173405:0:0:0:75:jingle.wav
256,192,172346,1,0,0:0:0:60:kick.wav
402,192,172346,1,0,0:0:0:0:
36,192,172346,128,0,172434:0:0:0:75:hihat.wav
329,192,172434,128,0,172522:0:0:0:75:hihat.wav
109,192,172522,128,0,172610:0:0:0:75:hihat.wav
475,192,172522,1,0,0:0:0:0:
256,192,172610,128,0,172699:0:0:0:75:hihat.wav
36,192,172699,1,0,0:0:0:0:
402,192,172699,1,0,0:0:0:60:kick.wav
475,192,172699,128,0,172787:0:0:0:75:hihat.wav
329,192,172787,128,0,172875:0:0:0:75:hihat.wav
109,192,172875,128,0,172963:0:0:0:75:hihat.wav
256,192,172875,1,0,0:0:0:0:
475,192,172963,128,0,173052:0:0:0:75:hihat.wav
329,192,173052,1,0,0:0:0:60:kick.wav
402,192,173052,1,0,0:0:0:0:
36,192,173052,128,0,173140:0:0:0:75:hihat.wav
256,192,173140,128,0,173228:0:0:0:75:hihat.wav
109,192,173228,128,0,173316:0:0:0:75:hihat.wav
475,192,173228,1,0,0:0:0:0:
329,192,173316,128,0,173405:0:0:0:75:hihat.wav
36,192,173405,128,0,173581:0:0:0:75:jingle.wav
475,192,173405,128,0,173493:0:0:0:75:hihat.wav
402,192,173405,1,0,0:0:0:60:kick.wav
256,192,173405,1,0,0:0:0:0:
109,192,173493,128,0,173581:0:0:0:75:hihat.wav
182,192,173581,128,0,175169:0:0:0:75:jingle.wav
402,192,173581,128,0,173669:0:0:0:75:hihat.wav
329,192,173581,1,0,0:0:0:0:
475,192,173669,128,0,173758:0:0:0:75:hihat.wav
109,192,173758,1,0,0:0:0:0:
36,192,173758,128,0,173846:0:0:0:75:hihat.wav
256,192,173758,1,0,0:0:0:60:kick.wav
329,192,173846,128,0,173934:0:0:0:75:hihat.wav
109,192,173934,128,0,174022:0:0:0:75:hihat.wav
475,192,173934,1,0,0:0:0:0:
256,192,174022,128,0,174110:0:0:0:75:hihat.wav
36,192,174110,1,0,0:0:0:60:kick.wav
402,192,174110,1,0,0:0:0:0:
475,192,174110,128,0,174199:0:0:0:75:hihat.wav
329,192,174199,128,0,174287:0:0:0:75:hihat.wav
402,192,174287,128,0,174375:0:0:0:75:hihat.wav
109,192,174287,1,0,0:0:0:0:
256,192,174375,128,0,174463:0:0:0:75:hihat.wav
475,192,174463,1,0,0:0:0:0:
329,192,174463,1,0,0:0:0:60:kick.wav
36,192,174463,128,0,174552:0:0:0:75:hihat.wav
109,192,174552,128,0,174640:0:0:0:75:hihat.wav
329,192,174640,128,0,174728:0:0:0:75:hihat.wav
402,192,174640,1,0,0:0:0:0:
256,192,174728,128,0,174816:0:0:0:75:hihat.wav
475,192,174816,1,0,0:0:0:60:kick.wav
36,192,174816,128,0,174905:0:0:0:75:hihat.wav
402,192,174816,128,0,174905:0:0:0:0:
109,192,174905,128,0,174993:0:0:0:75:hihat.wav
329,192,174905,128,0,174993:0:0:0:0:
256,192,174993,128,0,175081:0:0:0:0:
475,192,174993,128,0,175081:0:0:0:75:hihat.wav
402,192,175081,128,0,175169:0:0:0:75:hihat.wav
109,192,175081,128,0,175169:0:0:0:0:
36,192,175169,128,0,175875:0:0:0:75:jingle.wav
329,192,175169,1,0,0:0:0:60:kick.wav
475,192,175169,1,0,0:0:0:0:
256,192,175169,128,0,175258:0:0:0:75:hihat.wav
182,192,175258,128,0,175346:0:0:0:75:hihat.wav
329,192,175346,128,0,175434:0:0:0:75:hihat.wav
402,192,175346,1,0,0:0:0:0:
256,192,175434,128,0,175522:0:0:0:75:hihat.wav
109,192,175522,1,0,0:0:0:0:
182,192,175522,1,0,0:0:0:60:kick.wav
475,192,175522,128,0,175610:0:0:0:75:hihat.wav
402,192,175610,128,0,175699:0:0:0:75:hihat.wav
182,192,175699,128,0,175787:0:0:0:75:hihat.wav
256,192,175699,1,0,0:0:0:0:
329,192,175787,128,0,175875:0:0:0:75:hihat.wav
182,192,175875,128,0,176581:0:0:0:75:jingle.wav
402,192,175875,1,0,0:0:0:0:
475,192,175875,1,0,0:0:0:60:kick.wav
109,192,175875,128,0,175963:0:0:0:75:hihat.wav
256,192,175963,128,0,176052:0:0:0:75:hihat.wav
36,192,176052,128,0,176140:0:0:0:75:hihat.wav
329,192,176052,1,0,0:0:0:0:
402,192,176140,128,0,176228:0:0:0:75:hihat.wav
109,192,176228,1,0,0:0:0:60:kick.wav
475,192,176228,128,0,176316:0:0:0:75:hihat.wav
256,192,176228,1,0,0:0:0:0:
36,192,176316,128,0,176405:0:0:0:75:hihat.wav
402,192,176405,128,0,176493:0:0:0:75:hihat.wav
329,192,176405,1,0,0:0:0:0:
256,192,176493,128,0,176581:0:0:0:75:hihat.wav
329,192,176581,128,0,177287:0:0:0:75:jingle.wav
475,192,176581,1,0,0:0:0:0:
36,192,176581,1,0,0:0:0:60:kick.wav
109,192,176581,128,0,176669:0:0:0:75:hihat.wav
182,192,176669,128,0,176758:0:0:0:75:hihat.wav
36,192,176758,128,0,176846:0:0:0:75:hihat.wav
402,192,176758,1,0,0:0:0:0:
256,192,176846,128,0,176934:0:0:0:75:hihat.wav
109,192,176934,1,0,0:0:0:60:kick.wav
36,192,176934,1,0,0:0:0:0:
475,192,176934,128,0,177022:0:0:0:75:hihat.wav
402,192,177022,128,0,177110:0:0:0:75:hihat.wav
109,192,177110,128,0,177199:0:0:0:75:hihat.wav
182,192,177110,1,0,0:0:0:0:
256,192,177199,128,0,177287:0:0:0:75:hihat.wav
402,192,177287,128,0,177993:0:0:0:75:jingle.wav
475,192,177287,1,0,0:0:0:0:
36,192,177287,1,0,0:0:0:60:kick.wav
182,192,177287,128,0,177375:0:0:0:75:hihat.wav
329,192,177375,128,0,177463:0:0:0:75:hihat.wav
36,192,177463,128,0,177552:0:0:0:75:hihat.wav
109,192,177463,1,0,0:0:0:0:
182,192,177552,128,0,177640:0:0:0:75:hihat.wav
475,192,177640,128,0,177728:0:0:0:75:hihat.wav
256,192,177640,128,0,177728:0:0:0:0:
36,192,177640,1,0,0:0:0:60:kick.wav
329,192,177728,128,0,177816:0:0:0:75:hihat.wav
182,192,177728,128,0,177816:0:0:0:0:
256,192,177816,128,0,177905:0:0:0:75:hihat.wav
109,192,177816,128,0,177905:0:0:0:0:
182,192,177905,128,0,177993:0:0:0:75:hihat.wav
36,192,177905,128,0,177993:0:0:0:0:
109,192,177993,128,0,178699:0:0:0:75:jingle.wav
475,192,177993,1,0,0:0:0:60:kick.wav
329,192,177993,128,0,178081:0:0:0:75:hihat.wav
256,192,177993,1,0,0:0:0:0:
402,192,178081,128,0,178169:0:0:0:75:hihat.wav
256,192,178169,128,0,178258:0:0:0:75:hihat.wav
36,192,178169,1,0,0:0:0:0:
329,192,178258,128,0,178346:0:0:0:75:hihat.wav
402,192,178346,1,0,0:0:0:60:kick.wav
182,192,178346,1,0,0:0:0:0:
475,192,178346,128,0,178434:0:0:0:75:hihat.wav
36,192,178434,128,0,178522:0:0:0:75:hihat.wav
329,192,178522,128,0,178610:0:0:0:75:hihat.wav
256,192,178522,1,0,0:0:0:0:
475,192,178610,128,0,178699:0:0:0:75:hihat.wav
182,192,178699,128,0,179405:0:0:0:75:jingle.wav
329,192,178699,1,0,0:0:0:60:kick.wav
402,192,178699,1,0,0:0:0:0:
36,192,178699,128,0,178787:0:0:0:75:hihat.wav
256,192,178787,128,0,178875:0:0:0:75:hihat.wav
109,192,178875,128,0,178963:0:0:0:75:hihat.wav
475,192,178875,1,0,0:0:0:0:
329,192,178963,128,0,179052:0:0:0:75:hihat.wav
36,192,179052,1,0,0:0:0:60:kick.wav
475,192,179052,128,0,179140:0:0:0:75:hihat.wav
402,192,179052,1,0,0:0:0:0:
109,192,179140,128,0,179228:0:0:0:75:hihat.wav
256,192,179228,128,0,179316:0:0:0:75:hihat.wav
329,192,179228,1,0,0:0:0:0:
402,192,179316,128,0,179405:0:0:0:75:hihat.wav
329,192,179405,128,0,180110:0:0:0:75:jingle.wav
109,192,179405,1,0,0:0:0:0:
475,192,179405,1,0,0:0:0:60:kick.wav
36,192,179405,128,0,179493:0:0:0:75:hihat.wav
182,192,179493,128,0,179581:0:0:0:75:hihat.wav
402,192,179581,128,0,179669:0:0:0:75:hihat.wav
256,192,179581,1,0,0:0:0:0:
36,192,179669,128,0,179758:0:0:0:75:hihat.wav
109,192,179758,1,0,0:0:0:0:
182,192,179758,1,0,0:0:0:60:kick.wav
475,192,179758,128,0,179846:0:0:0:75:hihat.wav
402,192,179846,128,0,179934:0:0:0:75:hihat.wav
182,192,179934,128,0,180022:0:0:0:75:hihat.wav
36,192,179934,1,0,0:0:0:0:
256,192,180022,128,0,180110:0:0:0:75:hihat.wav
475,192,180110,128,0,180816:0:0:0:75:jingle.wav
402,192,180110,1,0,0:0:0:0:
36,192,180110,128,0,180199:0:0:0:75:hihat.wav
109,192,180110,1,0,0:0:0:60:kick.wav
182,192,180199,128,0,180287:0:0:0:75:hihat.wav
256,192,180287,1,0,0:0:0:0:
109,192,180287,128,0,180375:0:0:0:75:hihat.wav
329,192,180375,128,0,180463:0:0:0:75:hihat.wav
402,192,180463,128,0,180552:0:0:0:0:
36,192,180463,128,0,180552:0:0:0:75:hihat.wav
182,192,180463,1,0,0:0:0:60:kick.wav
256,192,180552,128,0,180640:0:0:0:0:
109,192,180552,128,0,180640:0:0:0:75:hihat.wav
329,192,180640,128,0,180728:0:0:0:75:hihat.wav
182,192,180640,128,0,180728:0:0:0:0:
402,192,180728,128,0,180816:0:0:0:75:hihat.wav
36,192,180728,128,0,180816:0:0:0:0:
182,192,180816,128,0,181875:0:0:0:75:jingle.wav
329,192,180816,1,0,0:0:0:75:finish2.wav
256,192,180816,1,4,1:0:0:90:
109,192,180816,128,0,180905:0:0:0:60:kick.wav
402,192,180905,128,0,180993:0:0:0:60:hihat.wav
109,192,180993,128,0,181081:0:0:0:90:hihat.wav
402,192,181081,128,0,181169:0:0:0:60:hihat.wav
475,192,181169,128,0,181258:0:0:0:0:
36,192,181169,128,0,181258:0:0:0:60:hihat.wav
329,192,181258,128,0,181346:0:0:0:60:hihat.wav
109,192,181346,128,0,181434:0:0:0:90:hihat.wav
256,192,181434,128,0,181522:0:0:0:60:hihat.wav
402,192,181522,128,0,181610:0:0:0:60:hihat.wav
329,192,181610,128,0,181699:0:0:0:60:hihat.wav
402,192,181699,128,0,181787:0:0:0:90:hihat.wav
329,192,181787,128,0,181875:0:0:0:60:hihat.wav
36,192,181875,128,0,182052:0:0:0:75:jingle.wav
475,192,181875,128,0,181963:0:0:0:0:
256,192,181875,128,0,181963:0:0:0:60:hihat.wav
109,192,181963,128,0,182052:0:0:0:60:hihat.wav
182,192,182052,128,0,182934:0:0:0:75:jingle.wav
329,192,182052,128,0,182140:0:0:0:90:hihat.wav
402,192,182140,128,0,182228:0:0:0:60:hihat.wav
36,192,182228,128,0,182316:0:0:0:60:hihat.wav
329,192,182316,128,0,182405:0:0:0:60:hihat.wav
36,192,182405,128,0,182493:0:0:0:90:hihat.wav
329,192,182493,128,0,182581:0:0:0:60:hihat.wav
475,192,182581,128,0,182669:0:0:0:60:hihat.wav
109,192,182581,128,0,182669:0:0:0:0:
402,192,182669,128,0,182758:0:0:0:60:hihat.wav
36,192,182758,128,0,182846:0:0:0:90:hihat.wav
329,192,182846,128,0,182934:0:0:0:60:hihat.wav
475,192,182934,128,0,183640:0:0:0:75:jingle.wav
109,192,182934,128,0,183022:0:0:0:60:hihat.wav
256,192,183022,128,0,183110:0:0:0:60:hihat.wav
109,192,183110,128,0,183199:0:0:0:90:hihat.wav
256,192,183199,128,0,183287:0:0:0:60:hihat.wav
402,192,183287,128,0,183375:0:0:0:60:hihat.wav
36,192,183287,128,0,183375:0:0:0:0:
329,192,183375,128,0,183463:0:0:0:0:
182,192,183375,128,0,183463:0:0:0:60:hihat.wav
109,192,183463,128,0,183552:0:0:0:90:hihat.wav
256,192,183463,128,0,183552:0:0:0:0:
402,192,183552,128,0,183640:0:0:0:60:hihat.wav
36,192,183552,128,0,183640:0:0:0:0:
329,192,183640,128,0,184699:0:0:0:75:jingle.wav
109,192,183640,128,0,183728:0:0:0:60:hihat.wav
182,192,183728,128,0,183816:0:0:0:60:hihat.wav
109,192,183816,128,0,183905:0:0:0:90:hihat.wav
182,192,183905,128,0,183993:0:0:0:60:hihat.wav
402,192,183993,128,0,184081:0:0:0:60:hihat.wav
475,192,183993,128,0,184081:0:0:0:0:
256,192,184081,128,0,184169:0:0:0:60:hihat.wav
36,192,184169,128,0,184258:0:0:0:90:hihat.wav
475,192,184258,128,0,184346:0:0:0:60:hihat.wav
109,192,184346,128,0,184434:0:0:0:60:hihat.wav
256,192,184434,128,0,184522:0:0:0:60:hihat.wav
109,192,184522,128,0,184610:0:0:0:90:hihat.wav
256,192,184610,128,0,184699:0:0:0:60:hihat.wav
36,192,184699,128,0,184875:0:0:0:75:jingle.wav
475,192,184699,128,0,184787:0:0:0:0:
402,192,184699,128,0,184787:0:0:0:60:hihat.wav
182,192,184787,128,0,184875:0:0:0:60:hihat.wav
329,192,184875,128,0,186463:0:0:0:75:jingle.wav
109,192,184875,128,0,184963:0:0:0:90:hihat.wav
475,192,184963,128,0,185052:0:0:0:60:hihat.wav
182,192,185052,128,0,185140:0:0:0:60:hihat.wav
402,192,185140,128,0,185228:0:0:0:60:hihat.wav
182,192,185228,128,0,185316:0:0:0:90:hihat.wav
402,192,185316,128,0,185405:0:0:0:60:hihat.wav
475,192,185405,128,0,185493:0:0:0:60:hihat.wav
109,192,185405,128,0,185493:0:0:0:0:
256,192,185493,128,0,185581:0:0:0:60:hihat.wav
36,192,185581,128,0,185669:0:0:0:90:hihat.wav
182,192,185669,128,0,185758:0:0:0:60:hihat.wav
109,192,185758,128,0,185846:0:0:0:60:hihat.wav
475,192,185846,128,0,185934:0:0:0:60:hihat.wav
109,192,185934,128,0,186022:0:0:0:90:hihat.wav
475,192,186022,128,0,186110:0:0:0:60:hihat.wav
36,192,186110,128,0,186199:0:0:0:60:hihat.wav
182,192,186110,128,0,186199:0:0:0:0:
109,192,186199,128,0,186287:0:0:0:60:hihat.wav
256,192,186199,128,0,186287:0:0:0:0:
475,192,186287,128,0,186375:0:0:0:90:hihat.wav
182,192,186287,128,0,186375:0:0:0:0:
256,192,186375,128,0,186463:0:0:0:0:
402,192,186375,128,0,186463:0:0:0:60:hihat.wav
109,192,186463,128,0,187169:0:0:0:75:jingle.wav
182,192,186463,128,0,186552:0:0:0:60:hihat.wav
329,192,186552,128,0,186640:0:0:0:60:hihat.wav
182,192,186640,128,0,186728:0:0:0:90:hihat.wav
329,192,186728,128,0,186816:0:0:0:60:hihat.wav
475,192,186816,128,0,186905:0:0:0:0:
36,192,186816,128,0,186905:0:0:0:60:hihat.wav
402,192,186905,128,0,186993:0:0:0:60:hihat.wav
256,192,186993,128,0,187081:0:0:0:90:hihat.wav
329,192,187081,128,0,187169:0:0:0:60:hihat.wav
182,192,187169,128,0,187875:0:0:0:75:jingle.wav
36,192,187169,128,0,187258:0:0:0:60:hihat.wav
402,192,187258,128,0,187346:0:0:0:60:hihat.wav
36,192,187346,128,0,187434:0:0:0:90:hihat.wav
402,192,187434,128,0,187522:0:0:0:60:hihat.wav
475,192,187522,128,0,187610:0:0:0:60:hihat.wav
109,192,187522,128,0,187610:0:0:0:0:
329,192,187610,128,0,187699:0:0:0:60:hihat.wav
36,192,187699,128,0,187787:0:0:0:90:hihat.wav
402,192,187787,128,0,187875:0:0:0:60:hihat.wav
329,192,187875,128,0,188581:0:0:0:75:jingle.wav
109,192,187875,1,0,0:0:0:60:hihat.wav
36,192,187875,1,0,0:0:0:34:kick.wav
402,192,187963,1,0,0:0:0:60:hihat.wav
475,192,187963,1,0,0:0:0:35:kick.wav
109,192,188052,1,0,0:0:0:90:hihat.wav
182,192,188052,1,0,0:0:0:36:kick.wav
256,192,188140,1,0,0:0:0:60:hihat.wav
402,192,188140,1,0,0:0:0:37:kick.wav
475,192,188228,1,0,0:0:0:60:hihat.wav
36,192,188228,1,0,0:0:0:38:kick.wav
109,192,188228,1,0,0:0:0:0:
256,192,188316,1,0,0:0:0:60:hihat.wav
182,192,188316,1,0,0:0:0:39:kick.wav
36,192,188405,1,0,0:0:0:90:hihat.wav
402,192,188405,1,0,0:0:0:40:kick.wav
182,192,188493,1,0,0:0:0:60:hihat.wav
109,192,188493,1,0,0:0:0:41:kick.wav
256,192,188581,128,0,189287:0:0:0:75:jingle.wav
402,192,188581,1,0,0:0:0:60:hihat.wav
475,192,188581,1,0,0:0:0:42:kick.wav
36,192,188669,1,0,0:0:0:43:kick.wav
182,192,188669,1,0,0:0:0:60:hihat.wav
475,192,188758,1,0,0:0:0:44:kick.wav
329,192,188758,1,0,0:0:0:90:hihat.wav
36,192,188846,1,0,0:0:0:60:hihat.wav
109,192,188846,1,0,0:0:0:45:kick.wav
402,192,188934,1,0,0:0:0:46:kick.wav
475,192,188934,1,0,0:0:0:60:hihat.wav
182,192,188934,1,0,0:0:0:0:
36,192,189022,1,0,0:0:0:60:hihat.wav
109,192,189022,1,0,0:0:0:47:kick.wav
329,192,189022,1,0,0:0:0:0:
402,192,189110,1,0,0:0:0:48:kick.wav
475,192,189110,1,0,0:0:0:90:hihat.wav
182,192,189110,1,0,0:0:0:0:
36,192,189199,1,0,0:0:0:60:hihat.wav
109,192,189199,1,0,0:0:0:49:kick.wav
329,192,189199,1,0,0:0:0:0:
182,192,189287,128,0,189993:0:0:0:75:jingle.wav
402,192,189287,1,0,0:0:0:60:hihat.wav
475,192,189287,1,0,0:0:0:50:kick.wav
109,192,189375,1,0,0:0:0:60:hihat.wav
36,192,189375,1,0,0:0:0:50:kick.wav
329,192,189463,1,0,0:0:0:50:kick.wav
402,192,189463,1,0,0:0:0:90:hihat.wav
109,192,189552,1,0,0:0:0:50:kick.wav
256,192,189552,1,0,0:0:0:60:hihat.wav
36,192,189640,1,0,0:0:0:50:kick.wav
402,192,189640,1,0,0:0:0:60:hihat.wav
475,192,189640,1,0,0:0:0:0:
329,192,189728,1,0,0:0:0:50:kick.wav
256,192,189728,1,0,0:0:0:90:hihat.wav
109,192,189816,1,0,0:0:0:50:kick.wav
36,192,189816,1,0,0:0:0:60:hihat.wav
402,192,189905,1,0,0:0:0:50:kick.wav
475,192,189905,1,0,0:0:0:60:hihat.wav
109,192,189993,1,0,0:0:0:50:kick.wav
329,192,189993,128,0,190346:0:0:0:75:jingle.wav
36,192,189993,1,0,0:0:0:60:hihat.wav
256,192,190081,1,0,0:0:0:60:hihat.wav
402,192,190081,1,0,0:0:0:50:kick.wav
182,192,190169,1,0,0:0:0:90:hihat.wav
109,192,190169,1,0,0:0:0:50:kick.wav
402,192,190258,1,0,0:0:0:50:kick.wav
475,192,190258,1,0,0:0:0:60:hihat.wav
256,192,190346,128,0,190699:0:0:0:75:jingle.wav
109,192,190346,1,0,0:0:0:50:kick.wav
36,192,190346,1,0,0:0:0:60:hihat.wav
182,192,190346,1,0,0:0:0:0:
402,192,190434,1,0,0:0:0:50:kick.wav
475,192,190434,1,0,0:0:0:60:hihat.wav
109,192,190522,1,0,0:0:0:50:kick.wav
36,192,190522,1,0,0:0:0:90:hihat.wav
182,192,190610,1,0,0:0:0:60:hihat.wav
329,192,190610,1,0,0:0:0:50:kick.wav
475,192,190699,128,0,191405:0:0:0:75:jingle.wav
36,192,190699,1,0,0:0:0:40:kick.wav
402,192,190699,128,0,190787:0:0:0:60:hihat.wav
109,192,190758,1,0,0:0:0:40:kick.wav
329,192,190787,128,0,190875:0:0:0:60:hihat.wav
182,192,190816,1,0,0:0:0:40:kick.wav
36,192,190875,1,0,0:0:0:40:kick.wav
256,192,190875,128,0,190963:0:0:0:90:hihat.wav
109,192,190934,1,0,0:0:0:40:kick.wav
329,192,190963,128,0,191052:0:0:0:60:hihat.wav
182,192,190993,1,0,0:0:0:40:kick.wav
36,192,191052,1,0,0:0:0:40:kick.wav
402,192,191052,128,0,191140:0:0:0:60:hihat.wav
109,192,191110,1,0,0:0:0:40:kick.wav
329,192,191140,128,0,191228:0:0:0:60:hihat.wav
182,192,191169,1,0,0:0:0:40:kick.wav
36,192,191228,1,0,0:0:0:40:kick.wav
256,192,191228,128,0,191316:0:0:0:90:hihat.wav
109,192,191287,1,0,0:0:0:40:kick.wav
329,192,191316,128,0,191405:0:0:0:60:hihat.wav
182,192,191346,1,0,0:0:0:40:kick.wav
36,192,191405,128,0,192110:0:0:0:75:jingle.wav
256,192,191405,1,0,0:0:0:40:kick.wav
402,192,191405,128,0,191493:0:0:0:60:hihat.wav
182,192,191463,1,0,0:0:0:40:kick.wav
329,192,191493,128,0,191581:0:0:0:60:hihat.wav
109,192,191522,1,0,0:0:0:40:kick.wav
475,192,191581,1,0,0:0:0:40:kick.wav
256,192,191581,128,0,191669:0:0:0:90:hihat.wav
402,192,191640,1,0,0:0:0:40:kick.wav
182,192,191669,128,0,191758:0:0:0:60:hihat.wav
329,192,191699,1,0,0:0:0:40:kick.wav
475,192,191758,1,0,0:0:0:40:kick.wav
109,192,191758,128,0,191846:0:0:0:60:hihat.wav
402,192,191816,1,0,0:0:0:40:kick.wav
182,192,191846,128,0,191934:0:0:0:60:hihat.wav
329,192,191875,1,0,0:0:0:40:kick.wav
475,192,191934,1,0,0:0:0:40:kick.wav
256,192,191934,128,0,192022:0:0:0:90:hihat.wav
402,192,191993,1,0,0:0:0:40:kick.wav
182,192,192022,128,0,192110:0:0:0:60:hihat.wav
329,192,192052,1,0,0:0:0:40:kick.wav
256,192,192110,128,0,197758:0:0:0:75:jingle.wav
109,192,192110,128,0,192287:0:0:0:75:hihat.wav
402,192,192110,1,4,1:0:0:90:
475,192,192110,1,0,0:0:0:75:finish2.wav
475,192,192287,128,0,192463:0:0:0:0:
329,192,192287,128,0,192463:0:0:0:75:hihat.wav
109,192,192463,128,0,192552:0:0:0:74:hihat.wav
475,192,192552,128,0,192728:0:0:0:0:
329,192,192552,128,0,192728:0:0:0:74:hihat.wav
36,192,192728,128,0,192816:0:0:0:74:hihat.wav
182,192,192816,128,0,192993:0:0:0:0:
402,192,192816,128,0,192993:0:0:0:73:hihat.wav
36,192,192993,128,0,193081:0:0:0:73:hihat.wav
182,192,193081,128,0,193169:0:0:0:73:hihat.wav
475,192,193169,128,0,193258:0:0:0:72:hihat.wav
109,192,193169,128,0,193258:0:0:0:0:
329,192,193258,128,0,193346:0:0:0:72:hihat.wav
36,192,193346,128,0,193434:0:0:0:0:
402,192,193346,128,0,193434:0:0:0:72:hihat.wav
182,192,193434,128,0,193522:0:0:0:72:hihat.wav
109,192,193522,128,0,193699:0:0:0:71:hihat.wav
329,192,193699,128,0,193875:0:0:0:71:hihat.wav
36,192,193699,128,0,193875:0:0:0:0:
182,192,193875,128,0,193963:0:0:0:70:hihat.wav
402,192,193963,128,0,194140:0:0:0:70:hihat.wav
109,192,193963,128,0,194140:0:0:0:0:
329,192,194140,128,0,194228:0:0:0:70:hihat.wav
475,192,194228,128,0,194405:0:0:0:0:
182,192,194228,128,0,194405:0:0:0:69:hihat.wav
329,192,194405,128,0,194493:0:0:0:69:hihat.wav
36,192,194493,128,0,194581:0:0:0:69:hihat.wav
182,192,194581,128,0,194758:0:0:0:68:hihat.wav
402,192,194581,128,0,194758:0:0:0:0:
329,192,194758,128,0,194934:0:0:0:0:
109,192,194758,128,0,194934:0:0:0:68:hihat.wav
36,192,194934,128,0,195110:0:0:0:67:hihat.wav
182,192,195110,128,0,195287:0:0:0:0:
475,192,195110,128,0,195287:0:0:0:67:hihat.wav
36,192,195287,128,0,195375:0:0:0:66:hihat.wav
109,192,195375,128,0,195552:0:0:0:0:
402,192,195375,128,0,195552:0:0:0:66:hihat.wav
475,192,195552,128,0,195640:0:0:0:66:hihat.wav
36,192,195640,128,0,195816:0:0:0:0:
329,192,195640,128,0,195816:0:0:0:65:hihat.wav
109,192,195816,128,0,195905:0:0:0:65:hihat.wav
402,192,195905,128,0,195993:0:0:0:65:hihat.wav
475,192,195993,128,0,196081:0:0:0:64:hihat.wav
36,192,195993,128,0,196081:0:0:0:0:
182,192,196081,128,0,196169:0:0:0:64:hihat.wav
402,192,196169,128,0,196258:0:0:0:0:
109,192,196169,128,0,196258:0:0:0:64:hihat.wav
329,192,196258,128,0,196346:0:0:0:64:hihat.wav
36,192,196346,128,0,196522:0:0:0:63:hihat.wav
329,192,196522,128,0,196699:0:0:0:63:hihat.wav
109,192,196522,128,0,196699:0:0:0:0:
182,192,196699,128,0,196787:0:0:0:62:hihat.wav
36,192,196787,128,0,196963:0:0:0:0:
475,192,196787,128,0,196963:0:0:0:62:hihat.wav
329,192,196963,128,0,197052:0:0:0:62:hihat.wav
402,192,197052,128,0,197228:0:0:0:61:hihat.wav
182,192,197052,128,0,197228:0:0:0:0:
36,192,197228,128,0,197316:0:0:0:61:hihat.wav
475,192,197316,128,0,197405:0:0:0:61:hihat.wav
402,192,197405,128,0,197581:0:0:0:0:
182,192,197405,128,0,197581:0:0:0:61:hihat.wav
109,192,197581,128,0,197758:0:0:0:0:
329,192,197581,128,0,197758:0:0:0:61:hihat.wav
36,192,197758,1,0,0:0:0:60:hihat.wav
402,192,197846,1,0,0:0:0:45:hihat.wav
256,192,197934,1,0,0:0:0:0:
109,192,197934,1,0,0:0:0:75:hihat.wav
402,192,198022,1,0,0:0:0:45:hihat.wav
36,192,198110,128,0,198463:0:0:0:60:jingle.wav
475,192,198110,1,0,0:0:0:60:hihat.wav
329,192,198199,1,0,0:0:0:45:hihat.wav
182,192,198287,1,0,0:0:0:0:
109,192,198287,1,0,0:0:0:75:hihat.wav
329,192,198375,1,0,0:0:0:45:hihat.wav
475,192,198463,128,0,198816:0:0:0:60:jingle.wav
402,192,198463,1,0,0:0:0:60:hihat.wav
182,192,198552,1,0,0:0:0:45:hihat.wav
36,192,198640,1,0,0:0:0:0:
329,192,198640,1,0,0:0:0:75:hihat.wav
182,192,198728,1,0,0:0:0:45:hihat.wav
329,192,198816,128,0,199346:0:0:0:60:jingle.wav
402,192,198816,1,0,0:0:0:60:hihat.wav
109,192,198905,1,0,0:0:0:45:hihat.wav
256,192,198993,1,0,0:0:0:0:
475,192,198993,1,0,0:0:0:75:hihat.wav
109,192,199081,1,0,0:0:0:45:hihat.wav
36,192,199169,1,0,0:0:0:60:hihat.wav
256,192,199258,1,0,0:0:0:45:hihat.wav
109,192,199346,1,0,0:0:0:0:
182,192,199346,128,0,199522:0:0:0:60:jingle.wav
475,192,199346,1,0,0:0:0:75:hihat.wav
256,192,199434,1,0,0:0:0:45:hihat.wav
36,192,199522,128,0,199875:0:0:0:60:jingle.wav
402,192,199522,1,0,0:0:0:60:hihat.wav
329,192,199610,1,0,0:0:0:45:hihat.wav
475,192,199699,1,0,0:0:0:0:
182,192,199699,1,0,0:0:0:75:hihat.wav
329,192,199787,1,0,0:0:0:45:hihat.wav
182,192,199875,128,0,200228:0:0:0:60:jingle.wav
109,192,199875,1,0,0:0:0:60:hihat.wav
402,192,199963,1,0,0:0:0:45:hihat.wav
475,192,200052,1,0,0:0:0:0:
36,192,200052,1,0,0:0:0:75:hihat.wav
402,192,200140,1,0,0:0:0:45:hihat.wav
256,192,200228,128,0,200934:0:0:0:60:jingle.wav
109,192,200228,1,0,0:0:0:60:hihat.wav
36,192,200316,1,0,0:0:0:45:hihat.wav
329,192,200405,1,0,0:0:0:0:
475,192,200405,1,0,0:0:0:75:hihat.wav
36,192,200493,1,0,0:0:0:45:hihat.wav
182,192,200581,1,0,0:0:0:60:hihat.wav
402,192,200669,1,0,0:0:0:45:hihat.wav
36,192,200758,1,0,0:0:0:0:
109,192,200758,1,0,0:0:0:75:hihat.wav
402,192,200846,1,0,0:0:0:45:hihat.wav
329,192,200934,128,0,201287:0:0:0:60:jingle.wav
182,192,200934,1,0,0:0:0:60:hihat.wav
109,192,201022,1,0,0:0:0:45:hihat.wav
256,192,201110,1,0,0:0:0:0:
402,192,201110,1,0,0:0:0:75:hihat.wav
109,192,201199,1,0,0:0:0:45:hihat.wav
475,192,201287,1,0,0:0:0:60:hihat.wav
182,192,201375,1,0,0:0:0:45:hihat.wav
402,192,201463,1,0,0:0:0:0:
36,192,201463,1,0,0:0:0:75:hihat.wav
182,192,201552,1,0,0:0:0:45:hihat.wav
329,192,201640,1,0,0:0:0:60:hihat.wav
475,192,201728,1,0,0:0:0:45:hihat.wav
36,192,201816,1,0,0:0:0:0:
182,192,201816,1,0,0:0:0:75:hihat.wav
475,192,201905,1,0,0:0:0:45:hihat.wav
109,192,201993,128,0,202346:0:0:0:60:jingle.wav
36,192,201993,1,0,0:0:0:60:hihat.wav
329,192,202081,1,0,0:0:0:45:hihat.wav
182,192,202169,1,0,0:0:0:0:
475,192,202169,1,0,0:0:0:75:hihat.wav
329,192,202258,1,0,0:0:0:45:hihat.wav
475,192,202346,128,0,202699:0:0:0:60:jingle.wav
256,192,202346,1,0,0:0:0:60:hihat.wav
182,192,202434,1,0,0:0:0:45:hihat.wav
36,192,202522,1,0,0:0:0:0:
402,192,202522,1,0,0:0:0:75:hihat.wav
182,192,202610,1,0,0:0:0:45:hihat.wav
256,192,202699,128,0,203052:0:0:0:60:jingle.wav
329,192,202699,1,0,0:0:0:60:hihat.wav
109,192,202787,1,0,0:0:0:45:hihat.wav
475,192,202875,1,0,0:0:0:0:
402,192,202875,1,0,0:0:0:75:hihat.wav
109,192,202963,1,0,0:0:0:45:hihat.wav
36,192,203052,128,0,203405:0:0:0:60:jingle.wav
182,192,203052,1,0,0:0:0:60:hihat.wav
329,192,203140,1,0,0:0:0:45:hihat.wav
475,192,203228,1,0,0:0:0:0:
109,192,203228,1,0,0:0:0:75:hihat.wav
329,192,203316,1,0,0:0:0:45:hihat.wav
402,192,203405,1,0,0:0:0:60:hihat.wav
182,192,203493,1,0,0:0:0:45:hihat.wav
329,192,203581,1,0,0:0:0:0:
36,192,203581,1,0,0:0:0:75:hihat.wav
182,192,203669,1,0,0:0:0:45:hihat.wav
475,192,203758,128,0,204110:0:0:0:60:jingle.wav
109,192,203758,1,0,0:0:0:60:hihat.wav
256,192,203846,1,0,0:0:0:45:hihat.wav
402,192,203934,1,0,0:0:0:0:
36,192,203934,1,0,0:0:0:75:hihat.wav
256,192,204022,1,0,0:0:0:45:hihat.wav
329,192,204110,128,0,204463:0:0:0:60:jingle.wav
182,192,204110,1,0,0:0:0:60:hihat.wav
36,192,204199,1,0,0:0:0:45:hihat.wav
402,192,204287,1,0,0:0:0:0:
475,192,204287,1,0,0:0:0:75:hihat.wav
36,192,204375,1,0,0:0:0:45:hihat.wav
109,192,204463,1,0,0:0:0:60:hihat.wav
182,192,204463,128,0,205169:0:0:0:60:jingle.wav
402,192,204552,1,0,0:0:0:45:hihat.wav
256,192,204640,1,0,0:0:0:0:
36,192,204640,1,0,0:0:0:75:hihat.wav
402,192,204728,1,0,0:0:0:45:hihat.wav
109,192,204816,1,0,0:0:0:60:hihat.wav
475,192,204905,1,0,0:0:0:45:hihat.wav
329,192,204993,1,0,0:0:0:0:
36,192,204993,1,0,0:0:0:75:hihat.wav
475,192,205081,1,0,0:0:0:45:hihat.wav
36,192,205169,128,0,205522:0:0:0:60:jingle.wav
109,192,205169,1,0,0:0:0:60:hihat.wav
329,192,205258,1,0,0:0:0:45:hihat.wav
182,192,205346,1,0,0:0:0:0:
475,192,205346,1,0,0:0:0:75:hihat.wav
329,192,205434,1,0,0:0:0:45:hihat.wav
182,192,205522,128,0,205875:0:0:0:60:jingle.wav
256,192,205522,1,0,0:0:0:60:hihat.wav
402,192,205610,1,0,0:0:0:45:hihat.wav
109,192,205699,1,0,0:0:0:0:
36,192,205699,1,0,0:0:0:75:hihat.wav
402,192,205787,1,0,0:0:0:45:hihat.wav
329,192,205875,128,0,206228:0:0:0:60:jingle.wav
36,192,205875,1,0,0:0:0:60:hihat.wav
109,192,205963,1,0,0:0:0:45:hihat.wav
256,192,206052,1,0,0:0:0:0:
475,192,206052,1,0,0:0:0:75:hihat.wav
109,192,206140,1,0,0:0:0:45:hihat.wav
182,192,206228,1,0,0:0:0:60:hihat.wav
475,192,206316,1,0,0:0:0:45:hihat.wav
109,192,206405,1,0,0:0:0:0:
329,192,206405,1,0,0:0:0:75:hihat.wav
475,192,206493,1,0,0:0:0:45:hihat.wav
36,192,206581,128,0,206934:0:0:0:60:jingle.wav
256,192,206581,1,0,0:0:0:60:hihat.wav
329,192,206669,1,0,0:0:0:45:hihat.wav
182,192,206758,1,0,0:0:0:0:
475,192,206758,1,0,0:0:0:75:hihat.wav
329,192,206846,1,0,0:0:0:45:hihat.wav
402,192,206934,128,0,207287:0:0:0:60:jingle.wav
256,192,206934,1,0,0:0:0:60:hihat.wav
182,192,207022,1,0,0:0:0:45:hihat.wav
329,192,207110,1,0,0:0:0:0:
36,192,207110,1,0,0:0:0:75:hihat.wav
182,192,207199,1,0,0:0:0:45:hihat.wav
256,192,207287,128,0,209052:0:0:0:60:jingle.wav
109,192,207287,1,0,0:0:0:60:hihat.wav
36,192,207375,1,0,0:0:0:45:hihat.wav
182,192,207463,1,0,0:0:0:0:
475,192,207463,1,0,0:0:0:75:hihat.wav
36,192,207552,1,0,0:0:0:45:hihat.wav
329,192,207640,1,0,0:0:0:60:hihat.wav
182,192,207728,1,0,0:0:0:45:hihat.wav
402,192,207816,1,0,0:0:0:0:
475,192,207816,1,0,0:0:0:75:hihat.wav
182,192,207905,1,0,0:0:0:45:hihat.wav
109,192,207993,1,0,0:0:0:60:hihat.wav
402,192,208081,1,0,0:0:0:45:hihat.wav
182,192,208169,1,0,0:0:0:0:
36,192,208169,1,0,0:0:0:75:hihat.wav
402,192,208258,1,0,0:0:0:45:hihat.wav
329,192,208346,1,0,0:0:0:60:hihat.wav
109,192,208434,1,0,0:0:0:45:hihat.wav
402,192,208522,1,0,0:0:0:0:
475,192,208522,1,0,0:0:0:75:hihat.wav
109,192,208610,1,0,0:0:0:45:hihat.wav
182,192,208699,1,0,0:0:0:60:hihat.wav
329,192,208787,1,0,0:0:0:45:hihat.wav
109,192,208875,1,0,0:0:0:0:
36,192,208875,1,0,0:0:0:75:hihat.wav
329,192,208963,1,0,0:0:0:45:hihat.wav
109,192,209052,1,0,0:0:0:18:snare.wav
402,192,209052,1,0,0:0:0:60:hihat.wav
182,192,209140,1,0,0:0:0:18:snare.wav
475,192,209228,1,0,0:0:0:18:snare.wav
329,192,209228,1,0,0:0:0:75:hihat.wav
182,192,209316,1,0,0:0:0:19:snare.wav
109,192,209405,128,0,209758:0:0:0:60:jingle.wav
402,192,209405,1,0,0:0:0:60:hihat.wav
36,192,209405,1,0,0:0:0:19:snare.wav
256,192,209493,1,0,0:0:0:19:snare.wav
329,192,209581,1,0,0:0:0:20:snare.wav
475,192,209581,1,0,0:0:0:75:hihat.wav
256,192,209669,1,0,0:0:0:20:snare.wav
475,192,209758,128,0,210110:0:0:0:60:jingle.wav
36,192,209758,1,0,0:0:0:60:hihat.wav
402,192,209758,1,0,0:0:0:20:snare.wav
182,192,209846,1,0,0:0:0:21:snare.wav
109,192,209934,1,0,0:0:0:21:snare.wav
329,192,209934,1,0,0:0:0:75:hihat.wav
182,192,210022,1,0,0:0:0:21:snare.wav
256,192,210110,128,0,211875:0:0:0:60:jingle.wav
329,192,210110,1,0,0:0:0:22:snare.wav
402,192,210110,1,0,0:0:0:60:hihat.wav
36,192,210199,1,0,0:0:0:22:snare.wav
402,192,210287,1,0,0:0:0:22:snare.wav
182,192,210287,1,0,0:0:0:75:hihat.wav
36,192,210375,1,0,0:0:0:23:snare.wav
182,192,210463,1,0,0:0:0:23:snare.wav
475,192,210463,1,0,0:0:0:60:hihat.wav
402,192,210552,1,0,0:0:0:23:snare.wav
109,192,210640,1,0,0:0:0:24:snare.wav
329,192,210640,1,0,0:0:0:75:hihat.wav
402,192,210728,1,0,0:0:0:24:snare.wav
36,192,210816,1,0,0:0:0:60:hihat.wav
329,192,210816,1,0,0:0:0:24:snare.wav
182,192,210905,1,0,0:0:0:25:snare.wav
402,192,210993,1,0,0:0:0:25:snare.wav
109,192,210993,1,0,0:0:0:75:hihat.wav
182,192,211081,1,0,0:0:0:25:snare.wav
109,192,211169,1,0,0:0:0:26:snare.wav
329,192,211169,1,0,0:0:0:60:hihat.wav
475,192,211258,1,0,0:0:0:26:snare.wav
36,192,211346,1,0,0:0:0:26:snare.wav
182,192,211346,1,0,0:0:0:75:hihat.wav
475,192,211434,1,0,0:0:0:27:snare.wav
329,192,211522,1,0,0:0:0:27:snare.wav
182,192,211522,1,0,0:0:0:60:hihat.wav
109,192,211610,1,0,0:0:0:27:snare.wav
402,192,211699,1,0,0:0:0:28:snare.wav
475,192,211699,1,0,0:0:0:75:hihat.wav
109,192,211787,1,0,0:0:0:28:snare.wav
329,192,211875,1,0,0:0:0:28:snare.wav
36,192,211875,1,0,0:0:0:60:hihat.wav
475,192,211963,1,0,0:0:0:45:hihat.wav
182,192,211963,1,0,0:0:0:30:hihat.wav
109,192,212052,1,0,0:0:0:75:hihat.wav
402,192,212052,1,0,0:0:0:29:snare.wav
36,192,212140,1,0,0:0:0:45:hihat.wav
329,192,212140,1,0,0:0:0:29:snare.wav
475,192,212228,1,0,0:0:0:60:hihat.wav
182,192,212228,1,0,0:0:0:30:snare.wav
109,192,212228,128,0,212581:0:0:0:60:jingle.wav
402,192,212316,1,0,0:0:0:45:hihat.wav
256,192,212316,1,0,0:0:0:30:snare.wav
36,192,212405,1,0,0:0:0:30:snare.wav
329,192,212405,1,0,0:0:0:75:hihat.wav
182,192,212493,1,0,0:0:0:31:snare.wav
475,192,212493,1,0,0:0:0:45:hihat.wav
329,192,212581,1,0,0:0:0:31:snare.wav
36,192,212581,1,0,0:0:0:60:hihat.wav
402,192,212581,128,0,212934:0:0:0:60:jingle.wav
109,192,212669,1,0,0:0:0:45:hihat.wav
256,192,212669,1,0,0:0:0:31:snare.wav
182,192,212758,1,0,0:0:0:75:hihat.wav
475,192,212758,1,0,0:0:0:32:snare.wav
329,192,212846,1,0,0:0:0:32:snare.wav
109,192,212846,1,0,0:0:0:45:hihat.wav
475,192,212934,1,0,0:0:0:32:snare.wav
36,192,212934,1,0,0:0:0:60:hihat.wav
256,192,212934,128,0,214699:0:0:0:60:jingle.wav
329,192,213022,1,0,0:0:0:45:hihat.wav
182,192,213022,1,0,0:0:0:33:snare.wav
402,192,213110,1,0,0:0:0:75:hihat.wav
109,192,213110,1,0,0:0:0:33:snare.wav
329,192,213199,1,0,0:0:0:45:hihat.wav
182,192,213199,1,0,0:0:0:33:snare.wav
36,192,213287,1,0,0:0:0:0:
475,192,213287,1,0,0:0:0:0:
109,192,213287,1,0,0:0:0:50:finish1.wav
402,192,213287,1,0,0:0:0:0:
402,192,213463,1,8,3:0:0:40:
109,192,213552,1,8,3:0:0:40:
329,192,213640,1,4,3:0:0:30:
182,192,213728,1,4,3:0:0:30:
329,192,213816,1,4,3:0:0:30:
36,192,213993,1,0,0:0:0:0:
475,192,213993,1,0,0:0:0:0:
182,192,213993,1,8,3:0:0:40:
402,192,214081,1,4,3:0:0:30:
109,192,214169,5,4,3:0:0:30:
329,192,214258,1,4,3:0:0:30:
36,192,214346,1,0,0:0:0:0:
475,192,214346,1,0,0:0:0:0:
182,192,214346,128,8,214699:3:0:0:40:
36,192,214699,128,0,214787:0:0:0:75:hihat.wav
475,192,214699,128,0,214787:0:0:0:0:
402,192,214699,1,0,0:0:0:60:kick.wav
109,192,214699,1,4,1:0:0:90:
329,192,214699,1,0,0:0:0:75:finish2.wav
182,192,214787,128,0,214875:0:0:0:75:hihat.wav
256,192,214787,128,0,214875:0:0:0:0:
36,192,214875,128,0,214963:0:0:0:75:hihat.wav
329,192,214875,128,0,214963:0:0:0:0:
109,192,214963,128,0,215052:0:0:0:75:hihat.wav
402,192,214963,128,0,215052:0:0:0:0:
475,192,215052,128,0,215140:0:0:0:75:jingle.wav
256,192,215052,1,0,0:0:0:60:kick.wav
329,192,215052,1,0,0:0:0:0:
182,192,215052,128,0,215140:0:0:0:75:hihat.wav
109,192,215140,128,0,215228:0:0:0:0:
402,192,215140,128,0,215228:0:0:0:75:hihat.wav
329,192,215228,128,0,215316:0:0:0:75:hihat.wav
36,192,215228,128,0,215316:0:0:0:0:
182,192,215316,128,0,215405:0:0:0:0:
475,192,215316,128,0,215405:0:0:0:75:hihat.wav
256,192,215405,1,0,0:0:0:60:kick.wav
109,192,215405,128,0,215493:0:0:0:75:hihat.wav
329,192,215405,128,0,215493:0:0:0:0:
36,192,215493,128,0,215581:0:0:0:75:hihat.wav
402,192,215493,128,0,215581:0:0:0:0:
475,192,215581,128,0,215669:0:0:0:0:
109,192,215581,128,0,215669:0:0:0:75:hihat.wav
182,192,215669,128,0,215758:0:0:0:75:hihat.wav
329,192,215669,128,0,215758:0:0:0:0:
256,192,215758,128,0,215846:0:0:0:75:jingle.wav
475,192,215758,128,0,215846:0:0:0:75:hihat.wav
36,192,215758,1,0,0:0:0:60:kick.wav
109,192,215758,1,0,0:0:0:0:
402,192,215846,128,0,215934:0:0:0:75:hihat.wav
182,192,215846,128,0,215934:0:0:0:0:
109,192,215934,128,0,216022:0:0:0:0:
329,192,215934,128,0,216022:0:0:0:75:hihat.wav
475,192,216022,128,0,216110:0:0:0:0:
256,192,216022,128,0,216110:0:0:0:75:hihat.wav
109,192,216110,1,0,0:0:0:60:kick.wav
402,192,216110,128,0,216199:0:0:0:0:
36,192,216110,128,0,216199:0:0:0:75:hihat.wav
182,192,216199,128,0,216287:0:0:0:75:hihat.wav
329,192,216199,128,0,216287:0:0:0:0:
109,192,216287,128,0,216375:0:0:0:75:hihat.wav
256,192,216287,128,0,216375:0:0:0:0:
36,192,216375,128,0,216463:0:0:0:75:hihat.wav
402,192,216375,128,0,216463:0:0:0:0:
256,192,216463,128,0,216552:0:0:0:75:jingle.wav
182,192,216463,1,0,0:0:0:60:kick.wav
475,192,216463,128,0,216552:0:0:0:75:hihat.wav
329,192,216463,1,0,0:0:0:0:
402,192,216552,128,0,216640:0:0:0:75:hihat.wav
109,192,216552,128,0,216640:0:0:0:0:
329,192,216640,128,0,216728:0:0:0:75:hihat.wav
36,192,216640,128,0,216728:0:0:0:0:
256,192,216728,128,0,216816:0:0:0:75:hihat.wav
109,192,216728,128,0,216816:0:0:0:0:
182,192,216816,128,0,216905:0:0:0:75:hihat.wav
402,192,216816,128,0,216905:0:0:0:0:
475,192,216816,1,0,0:0:0:60:kick.wav
329,192,216905,128,0,216993:0:0:0:0:
36,192,216905,128,0,216993:0:0:0:75:hihat.wav
109,192,216993,128,0,217081:0:0:0:75:hihat.wav
256,192,216993,128,0,217081:0:0:0:0:
182,192,217081,128,0,217169:0:0:0:75:hihat.wav
402,192,217081,128,0,217169:0:0:0:0:
36,192,217169,1,0,0:0:0:60:kick.wav
256,192,217169,128,0,217346:0:0:0:75:jingle.wav
475,192,217169,128,0,217434:0:0:0:75:hihat.wav
109,192,217169,1,0,0:0:0:0:
182,192,217258,128,0,217434:0:0:0:75:jingle.wav
402,192,217258,128,0,217522:0:0:0:75:hihat.wav
109,192,217346,128,0,217522:0:0:0:75:jingle.wav
329,192,217346,128,0,217434:0:0:0:75:hihat.wav
36,192,217434,128,0,217522:0:0:0:75:jingle.wav
256,192,217434,128,0,217522:0:0:0:75:hihat.wav
475,192,217522,1,0,0:0:0:60:kick.wav
329,192,217522,128,0,217610:0:0:0:0:
182,192,217522,128,0,217610:0:0:0:75:hihat.wav
402,192,217610,128,0,217699:0:0:0:0:
109,192,217610,128,0,217699:0:0:0:75:hihat.wav
256,192,217699,128,0,217787:0:0:0:0:
36,192,217699,128,0,217787:0:0:0:75:hihat.wav
329,192,217787,128,0,217875:0:0:0:0:
182,192,217787,128,0,217875:0:0:0:75:hihat.wav
109,192,217875,128,0,217963:0:0:0:75:jingle.wav
36,192,217875,1,0,0:0:0:60:kick.wav
402,192,217875,1,0,0:0:0:0:
475,192,217875,128,0,217963:0:0:0:75:hihat.wav
256,192,217963,128,0,218052:0:0:0:0:
329,192,217963,128,0,218052:0:0:0:75:hihat.wav
36,192,218052,128,0,218140:0:0:0:0:
182,192,218052,128,0,218140:0:0:0:75:hihat.wav
402,192,218140,128,0,218228:0:0:0:0:
475,192,218140,128,0,218228:0:0:0:75:hihat.wav
256,192,218228,128,0,218316:0:0:0:0:
329,192,218228,1,0,0:0:0:60:kick.wav
109,192,218228,128,0,218316:0:0:0:75:hihat.wav
475,192,218316,128,0,218405:0:0:0:0:
36,192,218316,128,0,218405:0:0:0:75:hihat.wav
329,192,218405,128,0,218493:0:0:0:0:
182,192,218405,128,0,218493:0:0:0:75:hihat.wav
402,192,218493,128,0,218581:0:0:0:0:
109,192,218493,128,0,218581:0:0:0:75:hihat.wav
36,192,218581,1,0,0:0:0:60:kick.wav
256,192,218581,128,0,218669:0:0:0:75:jingle.wav
182,192,218581,1,0,0:0:0:0:
475,192,218581,128,0,218669:0:0:0:75:hihat.wav
109,192,218669,128,0,218758:0:0:0:0:
329,192,218669,128,0,218758:0:0:0:75:hihat.wav
182,192,218758,128,0,218846:0:0:0:0:
402,192,218758,128,0,218846:0:0:0:75:hihat.wav
36,192,218846,128,0,218934:0:0:0:0:
256,192,218846,128,0,218934:0:0:0:75:hihat.wav
329,192,218934,1,0,0:0:0:60:kick.wav
475,192,218934,128,0,219022:0:0:0:0:
182,192,218934,128,0,219022:0:0:0:75:hihat.wav
402,192,219022,128,0,219110:0:0:0:0:
36,192,219022,128,0,219110:0:0:0:75:hihat.wav
329,192,219110,128,0,219199:0:0:0:0:
109,192,219110,128,0,219199:0:0:0:75:hihat.wav
402,192,219199,128,0,219287:0:0:0:0:
182,192,219199,128,0,219287:0:0:0:75:hihat.wav
256,192,219287,128,0,219375:0:0:0:75:jingle.wav
475,192,219287,1,0,0:0:0:60:kick.wav
36,192,219287,1,0,0:0:0:0:
109,192,219287,128,0,219375:0:0:0:75:hihat.wav
329,192,219375,128,0,219463:0:0:0:0:
402,192,219375,128,0,219463:0:0:0:75:hihat.wav
36,192,219463,128,0,219552:0:0:0:0:
182,192,219463,128,0,219552:0:0:0:75:hihat.wav
256,192,219552,128,0,219640:0:0:0:0:
475,192,219552,128,0,219640:0:0:0:75:hihat.wav
402,192,219640,1,0,0:0:0:60:kick.wav
329,192,219640,128,0,219728:0:0:0:0:
36,192,219640,128,0,219728:0:0:0:75:hihat.wav
182,192,219728,128,0,219816:0:0:0:0:
475,192,219728,128,0,219816:0:0:0:75:hihat.wav
109,192,219816,128,0,219905:0:0:0:0:
402,192,219816,128,0,219905:0:0:0:75:hihat.wav
182,192,219905,128,0,219993:0:0:0:0:
329,192,219905,128,0,219993:0:0:0:75:hihat.wav
256,192,219993,128,0,220169:0:0:0:75:jingle.wav
475,192,219993,1,0,0:0:0:60:kick.wav
402,192,219993,1,0,0:0:0:0:
36,192,219993,128,0,220258:0:0:0:75:hihat.wav
329,192,220081,128,0,220258:0:0:0:75:jingle.wav
109,192,220081,128,0,220258:0:0:0:75:hihat.wav
182,192,220169,128,0,220346:0:0:0:75:hihat.wav
402,192,220169,128,0,220346:0:0:0:75:jingle.wav
256,192,220258,128,0,220346:0:0:0:75:hihat.wav
475,192,220258,128,0,220346:0:0:0:75:jingle.wav
109,192,220346,1,0,0:0:0:60:kick.wav
329,192,220346,128,0,220434:0:0:0:0:
36,192,220346,128,0,220434:0:0:0:75:hihat.wav
475,192,220434,128,0,220522:0:0:0:0:
182,192,220434,128,0,220522:0:0:0:75:hihat.wav
109,192,220522,128,0,220610:0:0:0:75:hihat.wav
329,192,220522,128,0,220610:0:0:0:0:
256,192,220610,128,0,220699:0:0:0:75:hihat.wav
402,192,220610,128,0,220699:0:0:0:0:
182,192,220699,128,0,220787:0:0:0:75:jingle.wav
475,192,220699,128,0,220787:0:0:0:75:hihat.wav
36,192,220699,1,0,0:0:0:60:kick.wav
329,192,220699,1,0,0:0:0:0:
109,192,220787,128,0,220875:0:0:0:75:hihat.wav
256,192,220787,128,0,220875:0:0:0:0:
402,192,220875,128,0,220963:0:0:0:75:hihat.wav
36,192,220875,128,0,220963:0:0:0:0:
182,192,220963,128,0,221052:0:0:0:0:
329,192,220963,128,0,221052:0:0:0:75:hihat.wav
475,192,221052,1,0,0:0:0:60:kick.wav
36,192,221052,128,0,221140:0:0:0:75:hihat.wav
256,192,221052,128,0,221140:0:0:0:0:
402,192,221140,128,0,221228:0:0:0:0:
109,192,221140,128,0,221228:0:0:0:75:hihat.wav
182,192,221228,128,0,221316:0:0:0:75:hihat.wav
329,192,221228,128,0,221316:0:0:0:0:
109,192,221316,128,0,221405:0:0:0:75:hihat.wav
402,192,221316,128,0,221405:0:0:0:0:
256,192,221405,1,0,0:0:0:60:kick.wav
475,192,221405,128,0,221493:0:0:0:75:hihat.wav
36,192,221405,128,0,221493:0:0:0:75:jingle.wav
329,192,221405,1,0,0:0:0:0:
402,192,221493,128,0,221581:0:0:0:75:hihat.wav
182,192,221493,128,0,221581:0:0:0:0:
329,192,221581,128,0,221669:0:0:0:75:hihat.wav
109,192,221581,128,0,221669:0:0:0:0:
475,192,221669,128,0,221758:0:0:0:75:hihat.wav
36,192,221669,128,0,221758:0:0:0:0:
402,192,221758,1,0,0:0:0:60:kick.wav
182,192,221758,128,0,221846:0:0:0:75:hihat.wav
256,192,221758,128,0,221846:0:0:0:0:
36,192,221846,128,0,221934:0:0:0:75:hihat.wav
475,192,221846,128,0,221934:0:0:0:0:
109,192,221934,128,0,222022:0:0:0:75:hihat.wav
329,192,221934,128,0,222022:0:0:0:0:
402,192,222022,128,0,222110:0:0:0:0:
182,192,222022,128,0,222110:0:0:0:75:hihat.wav
256,192,222110,128,0,222199:0:0:0:75:hihat.wav
475,192,222110,128,0,222199:0:0:0:75:jingle.wav
36,192,222110,1,0,0:0:0:60:kick.wav
329,192,222110,1,0,0:0:0:0:
109,192,222199,128,0,222287:0:0:0:0:
402,192,222199,128,0,222287:0:0:0:75:hihat.wav
182,192,222287,128,0,222375:0:0:0:0:
329,192,222287,128,0,222375:0:0:0:75:hihat.wav
475,192,222375,128,0,222463:0:0:0:0:
256,192,222375,128,0,222463:0:0:0:75:hihat.wav
182,192,222463,128,0,222552:0:0:0:75:hihat.wav
402,192,222463,128,0,222552:0:0:0:0:
109,192,222463,1,0,0:0:0:60:kick.wav
36,192,222552,128,0,222640:0:0:0:75:hihat.wav
256,192,222552,128,0,222640:0:0:0:0:
109,192,222640,128,0,222728:0:0:0:0:
329,192,222640,128,0,222728:0:0:0:75:hihat.wav
402,192,222728,128,0,222816:0:0:0:75:hihat.wav
182,192,222728,128,0,222816:0:0:0:0:
475,192,222816,128,0,223081:0:0:0:75:jingle.wav
36,192,222816,1,0,0:0:0:60:kick.wav
256,192,222816,128,0,222993:0:0:0:75:hihat.wav
109,192,222816,1,0,0:0:0:0:
402,192,222905,128,0,223081:0:0:0:75:jingle.wav
182,192,222905,128,0,223081:0:0:0:75:hihat.wav
329,192,222993,128,0,223169:0:0:0:75:jingle.wav
109,192,222993,128,0,223169:0:0:0:75:hihat.wav
256,192,223081,128,0,223169:0:0:0:75:jingle.wav
36,192,223081,128,0,223169:0:0:0:75:hihat.wav
475,192,223169,128,0,223258:0:0:0:0:
182,192,223169,128,0,223258:0:0:0:75:hihat.wav
402,192,223169,1,0,0:0:0:60:kick.wav
36,192,223258,128,0,223346:0:0:0:0:
329,192,223258,128,0,223346:0:0:0:75:hihat.wav
402,192,223346,128,0,223434:0:0:0:0:
256,192,223346,128,0,223434:0:0:0:75:hihat.wav
109,192,223434,128,0,223522:0:0:0:75:hihat.wav
329,192,223434,128,0,223522:0:0:0:0:
36,192,223522,128,0,223610:0:0:0:75:hihat.wav
475,192,223522,128,0,223610:0:0:0:75:jingle.wav
182,192,223522,1,0,0:0:0:60:kick.wav
256,192,223522,1,0,0:0:0:0:
329,192,223610,128,0,223699:0:0:0:0:
402,192,223610,128,0,223699:0:0:0:75:hihat.wav
109,192,223699,128,0,223787:0:0:0:0:
256,192,223699,128,0,223787:0:0:0:75:hihat.wav
36,192,223787,128,0,223875:0:0:0:0:
475,192,223787,128,0,223875:0:0:0:75:hihat.wav
402,192,223875,128,0,223963:0:0:0:0:
329,192,223875,1,0,0:0:0:60:kick.wav
182,192,223875,128,0,223963:0:0:0:75:hihat.wav
36,192,223963,128,0,224052:0:0:0:75:hihat.wav
256,192,223963,128,0,224052:0:0:0:0:
109,192,224052,128,0,224140:0:0:0:75:hihat.wav
329,192,224052,128,0,224140:0:0:0:0:
182,192,224140,128,0,224228:0:0:0:75:hihat.wav
402,192,224140,128,0,224228:0:0:0:0:
475,192,224228,128,0,224316:0:0:0:75:jingle.wav
36,192,224228,128,0,224316:0:0:0:75:hihat.wav
256,192,224228,1,0,0:0:0:60:kick.wav
329,192,224228,1,0,0:0:0:0:
109,192,224316,128,0,224405:0:0:0:0:
402,192,224316,128,0,224405:0:0:0:75:hihat.wav
182,192,224405,128,0,224493:0:0:0:0:
329,192,224405,128,0,224493:0:0:0:75:hihat.wav
475,192,224493,128,0,224581:0:0:0:75:hihat.wav
109,192,224493,128,0,224581:0:0:0:0:
36,192,224581,128,0,224669:0:0:0:75:hihat.wav
256,192,224581,128,0,224669:0:0:0:0:
402,192,224581,1,0,0:0:0:60:kick.wav
182,192,224669,128,0,224758:0:0:0:75:hihat.wav
329,192,224669,128,0,224758:0:0:0:0:
109,192,224758,128,0,224846:0:0:0:75:hihat.wav
475,192,224758,128,0,224846:0:0:0:0:
256,192,224846,128,0,224934:0:0:0:0:
36,192,224846,128,0,224934:0:0:0:75:hihat.wav
475,192,224934,128,0,225022:0:0:0:75:hihat.wav
329,192,224934,128,0,225022:0:0:0:75:jingle.wav
182,192,224934,1,0,0:0:0:60:kick.wav
402,192,224934,1,0,0:0:0:0:
256,192,225022,128,0,225110:0:0:0:75:hihat.wav
109,192,225022,128,0,225110:0:0:0:0:
402,192,225110,128,0,225199:0:0:0:75:hihat.wav
182,192,225110,128,0,225199:0:0:0:0:
36,192,225199,128,0,225287:0:0:0:0:
475,192,225199,128,0,225287:0:0:0:75:hihat.wav
256,192,225287,1,0,0:0:0:60:kick.wav
182,192,225287,128,0,225375:0:0:0:75:hihat.wav
329,192,225287,128,0,225375:0:0:0:0:
475,192,225375,128,0,225463:0:0:0:0:
36,192,225375,128,0,225463:0:0:0:75:hihat.wav
109,192,225463,128,0,225552:0:0:0:75:hihat.wav
256,192,225463,128,0,225552:0:0:0:0:
182,192,225552,128,0,225640:0:0:0:75:hihat.wav
329,192,225552,128,0,225640:0:0:0:0:
256,192,225640,128,0,225816:0:0:0:75:hihat.wav
475,192,225640,1,0,0:0:0:60:kick.wav
36,192,225640,128,0,225905:0:0:0:75:jingle.wav
402,192,225640,1,0,0:0:0:0:
109,192,225728,128,0,225993:0:0:0:75:jingle.wav
329,192,225728,128,0,225905:0:0:0:75:hihat.wav
182,192,225816,128,0,225905:0:0:0:75:jingle.wav
402,192,225816,128,0,225993:0:0:0:75:hihat.wav
256,192,225905,128,0,225993:0:0:0:75:jingle.wav
475,192,225905,128,0,225993:0:0:0:75:hihat.wav
36,192,225993,128,0,226081:0:0:0:75:hihat.wav
329,192,225993,128,0,226081:0:0:0:0:
182,192,225993,1,0,0:0:0:60:kick.wav
402,192,226081,128,0,226169:0:0:0:0:
256,192,226081,128,0,226169:0:0:0:75:hihat.wav
475,192,226169,128,0,226258:0:0:0:0:
109,192,226169,128,0,226258:0:0:0:75:hihat.wav
36,192,226258,128,0,226346:0:0:0:0:
329,192,226258,128,0,226346:0:0:0:75:hihat.wav
475,192,226346,128,0,226434:0:0:0:75:hihat.wav
402,192,226346,128,0,226434:0:0:0:75:jingle.wav
182,192,226346,1,0,0:0:0:60:kick.wav
256,192,226346,1,0,0:0:0:0:
109,192,226434,128,0,226522:0:0:0:75:hihat.wav
36,192,226434,128,0,226522:0:0:0:0:
402,192,226522,128,0,226610:0:0:0:75:hihat.wav
329,192,226522,128,0,226610:0:0:0:0:
182,192,226610,128,0,226699:0:0:0:0:
109,192,226610,128,0,226699:0:0:0:75:hihat.wav
475,192,226699,128,0,226787:0:0:0:0:
36,192,226699,128,0,226787:0:0:0:75:hihat.wav
329,192,226699,1,0,0:0:0:60:kick.wav
109,192,226787,128,0,226875:0:0:0:0:
256,192,226787,128,0,226875:0:0:0:75:hihat.wav
182,192,226875,128,0,226963:0:0:0:75:hihat.wav
402,192,226875,128,0,226963:0:0:0:0:
329,192,226963,128,0,227052:0:0:0:0:
475,192,226963,128,0,227052:0:0:0:75:hihat.wav
36,192,227052,128,0,227140:0:0:0:75:hihat.wav
109,192,227052,128,0,227140:0:0:0:75:jingle.wav
182,192,227052,1,0,0:0:0:60:kick.wav
256,192,227052,1,0,0:0:0:0:
402,192,227140,128,0,227228:0:0:0:75:hihat.wav
475,192,227140,128,0,227228:0:0:0:0:
109,192,227228,128,0,227316:0:0:0:75:hihat.wav
182,192,227228,128,0,227316:0:0:0:0:
402,192,227316,128,0,227405:0:0:0:75:hihat.wav
329,192,227316,128,0,227405:0:0:0:0:
36,192,227405,128,0,227493:0:0:0:0:
256,192,227405,128,0,227493:0:0:0:75:hihat.wav
475,192,227405,1,0,0:0:0:60:kick.wav
402,192,227493,128,0,227581:0:0:0:0:
182,192,227493,128,0,227581:0:0:0:75:hihat.wav
36,192,227581,128,0,227669:0:0:0:75:hihat.wav
329,192,227581,128,0,227669:0:0:0:0:
109,192,227669,128,0,227758:0:0:0:0:
256,192,227669,128,0,227758:0:0:0:75:hihat.wav
329,192,227758,1,0,0:0:0:60:kick.wav
475,192,227758,128,0,227846:0:0:0:75:jingle.wav
402,192,227758,128,0,227846:0:0:0:75:hihat.wav
182,192,227758,1,0,0:0:0:0:
36,192,227846,128,0,227934:0:0:0:0:
109,192,227846,128,0,227934:0:0:0:75:hihat.wav
402,192,227934,128,0,228022:0:0:0:0:
329,192,227934,128,0,228022:0:0:0:75:hihat.wav
182,192,228022,128,0,228110:0:0:0:0:
109,192,228022,128,0,228110:0:0:0:75:hihat.wav
36,192,228110,128,0,228199:0:0:0:75:hihat.wav
475,192,228110,128,0,228199:0:0:0:0:
256,192,228110,1,0,0:0:0:60:kick.wav
329,192,228199,128,0,228287:0:0:0:75:hihat.wav
182,192,228199,128,0,228287:0:0:0:0:
109,192,228287,128,0,228375:0:0:0:75:hihat.wav
402,192,228287,128,0,228375:0:0:0:0:
256,192,228375,128,0,228463:0:0:0:75:hihat.wav
36,192,228375,128,0,228463:0:0:0:0:
109,192,228463,1,0,0:0:0:60:kick.wav
329,192,228463,128,0,228552:0:0:0:75:hihat.wav
475,192,228463,128,0,228728:0:0:0:75:jingle.wav
182,192,228463,1,0,0:0:0:0:
256,192,228552,128,0,228640:0:0:0:75:hihat.wav
402,192,228552,128,0,228816:0:0:0:75:jingle.wav
329,192,228640,128,0,228728:0:0:0:75:jingle.wav
182,192,228640,128,0,228816:0:0:0:75:hihat.wav
256,192,228728,128,0,228816:0:0:0:75:jingle.wav
109,192,228728,128,0,228816:0:0:0:75:hihat.wav
36,192,228816,128,0,228905:0:0:0:75:hihat.wav
329,192,228816,1,0,0:0:0:60:kick.wav
475,192,228816,128,0,228905:0:0:0:0:
402,192,228905,128,0,228993:0:0:0:75:hihat.wav
182,192,228905,128,0,228993:0:0:0:0:
109,192,228993,128,0,229081:0:0:0:75:hihat.wav
256,192,228993,128,0,229081:0:0:0:0:
329,192,229081,128,0,229169:0:0:0:75:hihat.wav
36,192,229081,128,0,229169:0:0:0:0:
182,192,229169,1,0,0:0:0:60:kick.wav
475,192,229169,128,0,229258:0:0:0:75:jingle.wav
402,192,229169,128,0,229258:0:0:0:75:hihat.wav
256,192,229169,1,0,0:0:0:0:
109,192,229258,128,0,229346:0:0:0:0:
36,192,229258,128,0,229346:0:0:0:75:hihat.wav
329,192,229346,128,0,229434:0:0:0:0:
475,192,229346,128,0,229434:0:0:0:75:hihat.wav
182,192,229434,128,0,229522:0:0:0:0:
256,192,229434,128,0,229522:0:0:0:75:hihat.wav
109,192,229522,1,0,0:0:0:60:kick.wav
36,192,229522,128,0,229610:0:0:0:75:hihat.wav
402,192,229522,128,0,229610:0:0:0:0:
182,192,229610,128,0,229699:0:0:0:0:
329,192,229610,128,0,229699:0:0:0:75:hihat.wav
109,192,229699,128,0,229787:0:0:0:0:
475,192,229699,128,0,229787:0:0:0:75:hihat.wav
256,192,229787,128,0,229875:0:0:0:0:
329,192,229787,128,0,229875:0:0:0:75:hihat.wav
109,192,229875,128,0,229963:0:0:0:75:jingle.wav
475,192,229875,1,0,0:0:0:60:kick.wav
36,192,229875,128,0,229963:0:0:0:75:hihat.wav
182,192,229875,1,0,0:0:0:0:
329,192,229963,128,0,230052:0:0:0:75:hihat.wav
402,192,229963,128,0,230052:0:0:0:0:
36,192,230052,128,0,230140:0:0:0:75:hihat.wav
182,192,230052,128,0,230140:0:0:0:0:
256,192,230140,128,0,230228:0:0:0:75:hihat.wav
402,192,230140,128,0,230228:0:0:0:0:
182,192,230228,128,0,230316:0:0:0:75:hihat.wav
329,192,230228,128,0,230316:0:0:0:0:
109,192,230228,1,0,0:0:0:60:kick.wav
36,192,230316,128,0,230405:0:0:0:0:
475,192,230316,128,0,230405:0:0:0:75:hihat.wav
109,192,230405,128,0,230493:0:0:0:75:hihat.wav
329,192,230405,128,0,230493:0:0:0:0:
182,192,230493,128,0,230581:0:0:0:0:
402,192,230493,128,0,230581:0:0:0:75:hihat.wav
475,192,230581,128,0,230669:0:0:0:75:jingle.wav
329,192,230581,128,0,230669:0:0:0:75:hihat.wav
256,192,230581,1,0,0:0:0:60:kick.wav
109,192,230581,1,0,0:0:0:0:
182,192,230669,128,0,230758:0:0:0:75:hihat.wav
36,192,230669,128,0,230758:0:0:0:0:
475,192,230758,128,0,230846:0:0:0:75:hihat.wav
402,192,230758,128,0,230846:0:0:0:0:
36,192,230846,128,0,230934:0:0:0:75:hihat.wav
109,192,230846,128,0,230934:0:0:0:0:
329,192,230934,128,0,231022:0:0:0:0:
256,192,230934,128,0,231022:0:0:0:75:hihat.wav
182,192,230934,1,0,0:0:0:60:kick.wav
36,192,231022,128,0,231110:0:0:0:75:hihat.wav
402,192,231022,128,0,231110:0:0:0:0:
109,192,231110,128,0,231199:0:0:0:0:
329,192,231110,128,0,231199:0:0:0:75:hihat.wav
475,192,231199,128,0,231287:0:0:0:0:
256,192,231199,128,0,231287:0:0:0:75:hihat.wav
182,192,231287,128,0,231375:0:0:0:75:hihat.wav
36,192,231287,128,0,231552:0:0:0:75:jingle.wav
402,192,231287,1,0,0:0:0:60:kick.wav
329,192,231287,1,0,0:0:0:0:
256,192,231375,128,0,231463:0:0:0:75:hihat.wav
109,192,231375,128,0,231640:0:0:0:75:jingle.wav
182,192,231463,128,0,231640:0:0:0:75:jingle.wav
329,192,231463,128,0,231552:0:0:0:75:hihat.wav
256,192,231552,128,0,231640:0:0:0:75:jingle.wav
402,192,231552,128,0,231640:0:0:0:75:hihat.wav
36,192,231640,128,0,231728:0:0:0:0:
329,192,231640,128,0,231728:0:0:0:75:hihat.wav
475,192,231640,1,0,0:0:0:60:kick.wav
256,192,231728,128,0,231816:0:0:0:75:hihat.wav
402,192,231728,128,0,231816:0:0:0:0:
109,192,231816,1,0,0:0:0:60:kick.wav
475,192,231816,128,0,231905:0:0:0:0:
182,192,231816,128,0,231905:0:0:0:75:hihat.wav
36,192,231905,128,0,231993:0:0:0:0:
329,192,231905,128,0,231993:0:0:0:75:hihat.wav
182,192,231993,1,0,0:0:0:60:kick.wav
475,192,231993,128,0,232081:0:0:0:75:hihat.wav
402,192,231993,128,0,232081:0:0:0:75:jingle.wav
256,192,231993,1,0,0:0:0:0:
109,192,232081,128,0,232169:0:0:0:0:
36,192,232081,128,0,232169:0:0:0:75:hihat.wav
329,192,232169,128,0,232258:0:0:0:75:hihat.wav
402,192,232169,128,0,232258:0:0:0:0:
256,192,232169,1,0,0:0:0:60:kick.wav
109,192,232258,128,0,232346:0:0:0:0:
182,192,232258,128,0,232346:0:0:0:75:hihat.wav
36,192,232346,128,0,232434:0:0:0:75:hihat.wav
329,192,232346,128,0,232434:0:0:0:0:
475,192,232346,1,0,0:0:0:60:kick.wav
256,192,232434,128,0,232522:0:0:0:75:hihat.wav
109,192,232434,128,0,232522:0:0:0:0:
182,192,232522,128,0,232610:0:0:0:75:hihat.wav
402,192,232522,128,0,232610:0:0:0:0:
36,192,232522,1,0,0:0:0:60:kick.wav
256,192,232610,128,0,232699:0:0:0:0:
329,192,232610,128,0,232699:0:0:0:75:hihat.wav
475,192,232699,128,0,232787:0:0:0:75:hihat.wav
402,192,232699,128,0,232787:0:0:0:75:jingle.wav
109,192,232699,1,0,0:0:0:60:kick.wav
36,192,232699,1,0,0:0:0:0:
182,192,232787,128,0,232875:0:0:0:75:hihat.wav
256,192,232787,128,0,232875:0:0:0:0:
475,192,232875,1,0,0:0:0:60:kick.wav
109,192,232875,128,0,232963:0:0:0:75:hihat.wav
36,192,232875,128,0,232963:0:0:0:0:
402,192,232963,128,0,233052:0:0:0:75:hihat.wav
329,192,232963,128,0,233052:0:0:0:0:
182,192,233052,1,0,0:0:0:60:kick.wav
36,192,233052,128,0,233140:0:0:0:75:hihat.wav
256,192,233052,128,0,233140:0:0:0:0:
109,192,233140,128,0,233228:0:0:0:0:
402,192,233140,128,0,233228:0:0:0:75:hihat.wav
182,192,233228,128,0,233316:0:0:0:0:
329,192,233228,128,0,233316:0:0:0:75:hihat.wav
475,192,233228,1,0,0:0:0:60:kick.wav
109,192,233316,128,0,233405:0:0:0:0:
256,192,233316,128,0,233405:0:0:0:75:hihat.wav
36,192,233405,1,0,0:0:0:60:kick.wav
475,192,233405,128,0,233493:0:0:0:75:jingle.wav
402,192,233405,128,0,233493:0:0:0:75:hihat.wav
329,192,233405,1,0,0:0:0:0:
109,192,233493,128,0,233581:0:0:0:75:hihat.wav
182,192,233493,128,0,233581:0:0:0:0:
256,192,233581,1,0,0:0:0:60:kick.wav
402,192,233581,128,0,233669:0:0:0:75:hihat.wav
329,192,233581,128,0,233669:0:0:0:0:
109,192,233669,128,0,233758:0:0:0:75:hihat.wav
36,192,233669,128,0,233758:0:0:0:0:
329,192,233758,128,0,233846:0:0:0:0:
402,192,233758,1,0,0:0:0:60:kick.wav
182,192,233758,128,0,233846:0:0:0:75:hihat.wav
475,192,233846,128,0,233934:0:0:0:0:
256,192,233846,128,0,233934:0:0:0:75:hihat.wav
109,192,233934,1,0,0:0:0:60:kick.wav
36,192,233934,128,0,234022:0:0:0:75:hihat.wav
329,192,233934,128,0,234022:0:0:0:0:
402,192,234022,128,0,234110:0:0:0:0:
182,192,234022,128,0,234110:0:0:0:75:hihat.wav
36,192,234110,1,0,0:0:0:60:kick.wav
256,192,234110,128,0,234199:0:0:0:75:jingle.wav
475,192,234110,128,0,234375:0:0:0:75:hihat.wav
109,192,234110,1,0,0:0:0:0:
402,192,234199,128,0,234375:0:0:0:75:hihat.wav
182,192,234199,128,0,234287:0:0:0:75:jingle.wav
109,192,234287,128,0,234463:0:0:0:75:jingle.wav
256,192,234287,128,0,234463:0:0:0:75:hihat.wav
329,192,234287,1,0,0:0:0:60:kick.wav
36,192,234375,128,0,234463:0:0:0:75:jingle.wav
182,192,234375,128,0,234463:0:0:0:75:hihat.wav
329,192,234463,1,0,0:0:0:75:hihat.wav
475,192,234463,1,0,0:0:0:0:
402,192,234463,1,0,0:0:0:50:kick.wav
182,192,234552,1,0,0:0:0:75:hihat.wav
36,192,234552,1,0,0:0:0:0:
109,192,234552,1,0,0:0:0:50:kick.wav
256,192,234640,1,0,0:0:0:75:hihat.wav
402,192,234640,1,0,0:0:0:50:kick.wav
475,192,234640,1,0,0:0:0:0:
329,192,234728,1,0,0:0:0:75:hihat.wav
109,192,234728,1,0,0:0:0:50:kick.wav
36,192,234728,1,0,0:0:0:0:
256,192,234816,1,0,0:0:0:75:hihat.wav
475,192,234816,1,0,0:0:0:75:jingle.wav
402,192,234816,1,0,0:0:0:50:kick.wav
182,192,234816,1,0,0:0:0:0:
329,192,234905,1,0,0:0:0:75:hihat.wav
36,192,234905,1,0,0:0:0:0:
109,192,234905,1,0,0:0:0:50:kick.wav
182,192,234993,1,0,0:0:0:75:hihat.wav
402,192,234993,1,0,0:0:0:50:kick.wav
475,192,234993,1,0,0:0:0:0:
256,192,235081,1,0,0:0:0:75:hihat.wav
109,192,235081,1,0,0:0:0:50:kick.wav
36,192,235081,1,0,0:0:0:0:
329,192,235169,1,0,0:0:0:75:hihat.wav
402,192,235169,1,0,0:0:0:50:kick.wav
475,192,235169,1,0,0:0:0:0:
36,192,235258,1,0,0:0:0:0:
109,192,235258,1,0,0:0:0:50:kick.wav
182,192,235258,1,0,0:0:0:75:hihat.wav
256,192,235346,1,0,0:0:0:75:hihat.wav
475,192,235346,1,0,0:0:0:0:
402,192,235346,1,0,0:0:0:50:kick.wav
329,192,235434,1,0,0:0:0:75:hihat.wav
109,192,235434,1,0,0:0:0:50:kick.wav
36,192,235434,1,0,0:0:0:0:
256,192,235522,1,0,0:0:0:75:hihat.wav
475,192,235522,1,0,0:0:0:75:jingle.wav
402,192,235522,1,0,0:0:0:50:kick.wav
182,192,235522,1,0,0:0:0:0:
329,192,235610,1,0,0:0:0:75:hihat.wav
109,192,235610,1,0,0:0:0:50:kick.wav
36,192,235610,1,0,0:0:0:0:
182,192,235699,1,0,0:0:0:75:hihat.wav
402,192,235699,1,0,0:0:0:50:kick.wav
475,192,235699,1,0,0:0:0:0:
329,192,235787,1,0,0:0:0:75:hihat.wav
36,192,235787,1,0,0:0:0:0:
109,192,235787,1,0,0:0:0:50:kick.wav
256,192,235875,1,0,0:0:0:0:
475,192,235875,1,0,0:0:0:40:kick.wav
182,192,235875,128,0,235963:0:0:0:75:hihat.wav
402,192,235934,1,0,0:0:0:40:kick.wav
36,192,235963,128,0,236052:0:0:0:75:hihat.wav
329,192,235993,1,0,0:0:0:40:kick.wav
475,192,236052,1,0,0:0:0:0:
256,192,236052,1,0,0:0:0:40:kick.wav
109,192,236052,128,0,236140:0:0:0:75:hihat.wav
402,192,236110,1,0,0:0:0:40:kick.wav
182,192,236140,128,0,236228:0:0:0:75:hihat.wav
329,192,236169,1,0,0:0:0:40:kick.wav
36,192,236228,1,0,0:0:0:75:jingle.wav
256,192,236228,1,0,0:0:0:40:kick.wav
475,192,236228,128,0,236316:0:0:0:75:hihat.wav
109,192,236287,1,0,0:0:0:40:kick.wav
329,192,236316,128,0,236405:0:0:0:75:hihat.wav
182,192,236346,1,0,0:0:0:40:kick.wav
36,192,236405,1,0,0:0:0:0:
256,192,236405,1,0,0:0:0:40:kick.wav
402,192,236405,128,0,236493:0:0:0:75:hihat.wav
109,192,236463,1,0,0:0:0:40:kick.wav
329,192,236493,128,0,236581:0:0:0:75:hihat.wav
182,192,236522,1,0,0:0:0:40:kick.wav
475,192,236581,128,0,236669:0:0:0:75:hihat.wav
402,192,236581,128,0,236669:0:0:0:75:jingle.wav
36,192,236581,1,0,0:0:0:40:kick.wav
109,192,236640,1,0,0:0:0:40:kick.wav
329,192,236669,128,0,236758:0:0:0:75:jingle.wav
256,192,236669,128,0,236758:0:0:0:75:hihat.wav
182,192,236699,1,0,0:0:0:40:kick.wav
36,192,236758,128,0,236846:0:0:0:75:hihat.wav
109,192,236758,128,0,236846:0:0:0:75:jingle.wav
475,192,236758,1,0,0:0:0:40:kick.wav
402,192,236816,1,0,0:0:0:40:kick.wav
182,192,236846,128,0,236934:0:0:0:75:jingle.wav
256,192,236846,128,0,236934:0:0:0:75:hihat.wav
329,192,236875,1,0,0:0:0:40:kick.wav
475,192,236934,128,0,237022:0:0:0:75:hihat.wav
402,192,236934,128,0,237022:0:0:0:75:jingle.wav
36,192,236934,1,0,0:0:0:40:kick.wav
109,192,236993,1,0,0:0:0:40:kick.wav
329,192,237022,128,0,237110:0:0:0:75:jingle.wav
256,192,237022,128,0,237110:0:0:0:75:hihat.wav
182,192,237052,1,0,0:0:0:40:kick.wav
109,192,237110,128,0,237199:0:0:0:75:jingle.wav
36,192,237110,128,0,237199:0:0:0:75:hihat.wav
475,192,237110,1,0,0:0:0:40:kick.wav
402,192,237169,1,0,0:0:0:40:kick.wav
182,192,237199,128,0,237287:0:0:0:75:jingle.wav
256,192,237199,128,0,237287:0:0:0:75:hihat.wav
329,192,237228,1,0,0:0:0:40:kick.wav
36,192,237287,1,4,1:0:0:90:
475,192,237287,1,0,0:0:0:75:finish2.wav
109,192,237287,128,0,238346:0:0:0:75:jingle.wav
402,192,237287,128,0,237463:0:0:0:60:kick.wav
182,192,237463,128,0,237640:0:0:0:75:hihat.wav
329,192,237463,128,0,237640:0:0:0:0:
36,192,237640,128,0,237728:0:0:0:74:hihat.wav
329,192,237728,128,0,237905:0:0:0:74:hihat.wav
182,192,237728,128,0,237905:0:0:0:0:
402,192,237905,128,0,237993:0:0:0:74:hihat.wav
36,192,237993,128,0,238169:0:0:0:0:
256,192,237993,128,0,238169:0:0:0:73:hihat.wav
329,192,238169,128,0,238258:0:0:0:73:hihat.wav
402,192,238258,128,0,238346:0:0:0:73:hihat.wav
36,192,238346,128,0,238522:0:0:0:73:jingle.wav
475,192,238346,128,0,238434:0:0:0:0:
256,192,238346,128,0,238434:0:0:0:72:hihat.wav
329,192,238434,128,0,238522:0:0:0:72:hihat.wav
109,192,238522,128,0,239405:0:0:0:70:jingle.wav
402,192,238522,128,0,238610:0:0:0:72:hihat.wav
182,192,238522,128,0,238610:0:0:0:0:
256,192,238610,128,0,238699:0:0:0:72:hihat.wav
329,192,238699,128,0,238875:0:0:0:71:hihat.wav
36,192,238875,128,0,239052:0:0:0:0:
256,192,238875,128,0,239052:0:0:0:71:hihat.wav
402,192,239052,128,0,239140:0:0:0:70:hihat.wav
182,192,239140,128,0,239316:0:0:0:0:
329,192,239140,128,0,239316:0:0:0:70:hihat.wav
36,192,239316,128,0,239405:0:0:0:70:hihat.wav
475,192,239405,128,0,240110:0:0:0:67:jingle.wav
402,192,239405,128,0,239581:0:0:0:0:
256,192,239405,128,0,239581:0:0:0:69:hihat.wav
109,192,239581,128,0,239669:0:0:0:69:hihat.wav
36,192,239669,128,0,239758:0:0:0:69:hihat.wav
182,192,239758,128,0,239934:0:0:0:68:hihat.wav
329,192,239758,128,0,239934:0:0:0:0:
109,192,239934,128,0,240110:0:0:0:68:hihat.wav
256,192,239934,128,0,240110:0:0:0:0:
402,192,240110,128,0,241169:0:0:0:64:jingle.wav
36,192,240110,128,0,240287:0:0:0:67:hihat.wav
475,192,240287,128,0,240463:0:0:0:0:
182,192,240287,128,0,240463:0:0:0:66:hihat.wav
329,192,240463,128,0,240552:0:0:0:65:hihat.wav
256,192,240552,128,0,240728:0:0:0:64:hihat.wav
109,192,240552,128,0,240728:0:0:0:0:
182,192,240728,128,0,240816:0:0:0:63:hihat.wav
329,192,240816,128,0,240993:0:0:0:62:hihat.wav
36,192,240816,128,0,240993:0:0:0:0:
256,192,240993,128,0,241081:0:0:0:61:hihat.wav
109,192,241081,128,0,241169:0:0:0:60:hihat.wav
329,192,241169,128,0,241346:0:0:0:61:jingle.wav
475,192,241169,128,0,241258:0:0:0:59:hihat.wav
182,192,241169,128,0,241258:0:0:0:0:
36,192,241258,128,0,241346:0:0:0:58:hihat.wav
402,192,241346,128,0,242934:0:0:0:58:jingle.wav
256,192,241346,128,0,241434:0:0:0:57:hihat.wav
109,192,241346,128,0,241434:0:0:0:0:
182,192,241434,128,0,241522:0:0:0:56:hihat.wav
36,192,241522,128,0,241699:0:0:0:55:hihat.wav
329,192,241699,128,0,241875:0:0:0:54:hihat.wav
109,192,241699,128,0,241875:0:0:0:0:
256,192,241875,128,0,241963:0:0:0:53:hihat.wav
475,192,241963,128,0,242140:0:0:0:0:
182,192,241963,128,0,242140:0:0:0:52:hihat.wav
36,192,242140,128,0,242228:0:0:0:51:hihat.wav
256,192,242228,128,0,242405:0:0:0:0:
329,192,242228,128,0,242405:0:0:0:50:hihat.wav
109,192,242405,128,0,242493:0:0:0:49:hihat.wav
475,192,242493,128,0,242581:0:0:0:48:hihat.wav
182,192,242581,128,0,242758:0:0:0:0:
329,192,242581,128,0,242758:0:0:0:47:hihat.wav
256,192,242758,128,0,242934:0:0:0:46:hihat.wav
109,192,242758,128,0,242934:0:0:0:0:
36,192,242934,128,0,243640:0:0:0:55:jingle.wav
182,192,242934,1,0,0:0:0:45:hihat.wav
402,192,243110,1,0,0:0:0:44:hihat.wav
182,192,243287,1,0,0:0:0:43:hihat.wav
329,192,243375,1,0,0:0:0:42:hihat.wav
256,192,243552,1,0,0:0:0:41:hihat.wav
182,192,243640,128,0,244346:0:0:0:52:jingle.wav
402,192,243640,1,0,0:0:0:40:hihat.wav
109,192,243816,1,0,0:0:0:39:hihat.wav
329,192,243905,1,0,0:0:0:38:hihat.wav
36,192,243993,1,0,0:0:0:37:hihat.wav
109,192,244081,1,0,0:0:0:36:hihat.wav
475,192,244169,1,0,0:0:0:35:hihat.wav
402,192,244258,1,0,0:0:0:34:hihat.wav
329,192,244346,128,0,245052:0:0:0:49:jingle.wav
36,192,244346,1,0,0:0:0:33:hihat.wav
475,192,244522,1,0,0:0:0:32:hihat.wav
109,192,244699,1,0,0:0:0:31:hihat.wav
256,192,244787,1,0,0:0:0:30:hihat.wav
36,192,244963,1,0,0:0:0:29:hihat.wav
402,192,245052,128,0,245758:0:0:0:46:jingle.wav
182,192,245052,1,0,0:0:0:28:hihat.wav
256,192,245228,1,0,0:0:0:27:hihat.wav
109,192,245316,1,0,0:0:0:26:hihat.wav
329,192,245405,1,0,0:0:0:25:hihat.wav
182,192,245581,1,0,0:0:0:24:hihat.wav
109,192,245758,128,0,246463:0:0:0:43:jingle.wav
475,192,245758,128,0,247169:0:0:0:0:
36,192,245758,1,0,0:0:0:23:hihat.wav
256,192,245934,1,0,0:0:0:23:hihat.wav
182,192,246110,1,0,0:0:0:22:hihat.wav
329,192,246199,1,0,0:0:0:22:hihat.wav
256,192,246375,1,0,0:0:0:22:hihat.wav
182,192,246463,128,0,247169:0:0:0:40:jingle.wav
402,192,246463,1,0,0:0:0:21:hihat.wav
36,192,246640,1,0,0:0:0:21:hihat.wav
256,192,246728,1,0,0:0:0:21:hihat.wav
329,192,246816,1,0,0:0:0:20:hihat.wav
109,192,246905,1,0,0:0:0:20:hihat.wav
402,192,246993,1,0,0:0:0:20:hihat.wav
256,192,247081,1,0,0:0:0:20:hihat.wav
329,192,247169,128,0,247875:0:0:0:37:jingle.wav
36,192,247169,128,0,248581:0:0:0:0:
109,192,247169,1,0,0:0:0:20:hihat.wav
475,192,247875,128,0,248581:0:0:0:34:jingle.wav
182,192,248581,128,0,251405:0:0:0:0:
402,192,248581,128,0,249640:0:0:0:30:jingle.wav
329,192,249640,128,0,251405:0:0:0:30:jingle.wav
402,192,249816,128,0,251405:0:0:0:30:jingle.wav
36,192,249993,128,0,251405:0:0:0:0:
475,192,250699,128,0,251405:0:0:0:30:jingle.wav
256,192,251405,128,0,254228:0:0:0:0:
109,192,251405,128,0,252463:0:0:0:30:jingle.wav
36,192,252463,128,0,254228:0:0:0:30:jingle.wav
109,192,252640,128,0,254228:0:0:0:30:jingle.wav
475,192,252816,128,0,254228:0:0:0:0:
182,192,254228,128,0,255640:0:0:0:0:
329,192,254228,128,0,255640:0:0:0:30:jingle.wav
402,192,254934,128,0,255640:0:0:0:30:jingle.wav
475,192,255640,128,0,257052:0:0:0:0:
36,192,255640,128,0,257052:0:0:0:30:jingle.wav
182,192,256346,128,0,257052:0:0:0:30:jingle.wav
109,192,257052,128,0,258463:0:0:0:0:
402,192,257052,128,0,258463:0:0:0:30:jingle.wav
475,192,257758,128,0,258463:0:0:0:30:jingle.wav
36,192,258110,128,0,258463:0:0:0:30:jingle.wav
256,192,258463,128,0,259169:0:0:0:30:jingle.wav
329,192,258463,128,0,259875:0:0:0:0:
182,192,259169,128,0,259875:0:0:0:30:jingle.wav
36,192,259875,128,0,265522:0:0:0:70:jingle.wav
402,192,259875,128,0,265522:0:0:0:50:finish1.wav
475,192,259875,128,0,265522:0:0:0:75:hihat.wav
109,192,259875,128,0,265522:0:0:0:75:finish2.wav
256,192,259875,128,4,265522:1:0:0:90:
