osu file format v14

[General]
AudioFilename: void - Club Ibuki in Break All.mp3
AudioLeadIn: 0
PreviewTime: 63554
Countdown: 0
SampleSet: None
StackLeniency: 0.7
Mode: 2
LetterboxInBreaks: 1
WidescreenStoryboard: 1

[Editor]
Bookmarks: 887,6221,11722,22388,33055,43055,48388,51721,63554,78387,89053,99720,109720,115053,118386,130220,145053,155553,160886,180886,185052
DistanceSpacing: 0.8
BeatDivisor: 3
GridSize: 8
TimelineZoom: 2

[Metadata]
Title:Club Ibuki in Break All
TitleUnicode:Club Ibuki in Break All
Artist:void
ArtistUnicode:void
Creator:Drafura
Version:Rain
Source:PUNK IT! TOUHOU!
Tags:IOSYS ZUN ARM D.watt Yuma Mizonokuchi
BeatmapID:687106
BeatmapSetID:94139

[Difficulty]
HPDrainRate:6
CircleSize:4
OverallDifficulty:9
ApproachRate:9
SliderMultiplier:2
SliderTickRate:1

[Events]
//Background and Video events
0,0,"BG- void - Club Ibuki in Break All.png",0,0
//Break Periods
2,43255,47788
2,109920,114453
//Storyboard Layer 0 (Background)
//Storyboard Layer 1 (Fail)
//Storyboard Layer 2 (Pass)
//Storyboard Layer 3 (Foreground)
//Storyboard Sound Samples

[TimingPoints]
888,333.333333333333,4,1,0,70,1,0
1221,-100,4,2,0,70,0,0
3387,-100,4,1,0,70,0,0
3887,-100,4,2,0,70,0,0
5721,-100,4,1,0,60,0,0
10554,-100,4,3,0,60,0,0
10721,-100,4,1,0,60,0,0
10887,-100,4,3,0,60,0,0
11054,-100,4,1,0,60,0,0
11554,-100,4,1,0,50,0,0
11722,333.333333333333,4,1,0,60,1,0
12055,-62.5,4,1,0,60,0,0
16221,-62.5,4,3,0,50,0,0
16388,-62.5,4,1,0,60,0,0
16555,-62.5,4,3,0,60,0,0
16721,-62.5,4,1,0,60,0,0
21388,-62.5,4,3,0,60,0,0
21555,-62.5,4,1,0,60,0,0
22055,-62.5,4,3,0,60,0,0
22388,-62.5,4,1,0,60,0,0
41055,-62.5,4,3,0,60,0,0
41888,-62.5,4,1,0,60,0,0
42055,-62.5,4,3,0,60,0,0
42305,-62.5,4,1,0,60,0,0
43055,-62.5,4,2,0,60,0,0
48388,-62.5,4,3,0,60,0,0
49221,-62.5,4,1,0,60,0,0
55721,-62.5,4,3,0,60,0,0
56388,-62.5,4,1,0,60,0,0
56555,-62.5,4,3,0,60,0,0
56805,-62.5,4,1,0,60,0,0
56888,-62.5,4,3,0,60,0,0
57055,-62.5,4,1,0,60,0,0
63554,333.333333333333,4,1,0,60,1,1
76887,-62.5,4,3,0,60,0,1
77053,-62.5,4,1,0,60,0,1
77220,-62.5,4,3,0,60,0,1
77387,-62.5,4,1,0,60,0,1
78387,333.333333333333,4,1,0,60,1,0
82887,-100,4,3,0,60,0,0
83053,-100,4,1,0,60,0,0
83220,-62.5,4,3,0,50,0,0
83387,-62.5,4,1,0,60,0,0
88053,-62.5,4,3,0,60,0,0
88220,-62.5,4,1,0,60,0,0
88386,-62.5,4,3,0,60,0,0
89053,-62.5,4,1,0,60,0,0
105053,-62.5,4,1,0,60,0,0
105720,-83.3333333333333,4,1,0,60,0,0
106386,-50,4,1,0,60,0,0
107720,-62.5,4,3,0,60,0,0
108553,-62.5,4,1,0,60,0,0
108720,-62.5,4,3,0,60,0,0
108970,-62.5,4,1,0,60,0,0
109720,-62.5,4,2,0,60,0,0
115053,-62.5,4,3,0,60,0,0
115886,-62.5,4,1,0,60,0,0
129386,-62.5,4,3,0,60,0,0
129553,-62.5,4,1,0,60,0,0
129720,-62.5,4,3,0,60,0,0
130053,-62.5,4,1,0,60,0,0
130220,333.333333333333,4,1,0,60,1,1
143553,-62.5,4,3,0,60,0,1
143720,-62.5,4,1,0,60,0,1
143886,-62.5,4,3,0,60,0,1
144053,-62.5,4,1,0,60,0,0
145053,333.333333333333,4,1,0,60,1,0
155553,333.333333333333,4,1,0,60,1,0
156053,-62.5,4,2,0,60,0,0
156886,-62.5,4,1,0,60,0,0
157386,-62.5,4,2,0,60,0,0
157553,-62.5,4,1,0,60,0,0
157719,-62.5,4,3,0,50,0,0
157830,-62.5,4,1,0,60,0,0
157941,-62.5,4,3,0,50,0,0
158053,-62.5,4,1,0,60,0,0
158719,-62.5,4,2,0,60,0,0
159386,-62.5,4,1,0,60,0,0
160553,-62.5,4,3,0,60,0,0
160886,-62.5,4,1,0,60,0,1
165719,-62.5,4,3,0,40,0,0
165886,-62.5,4,3,0,45,0,0
165969,-62.5,4,1,0,60,0,0
166053,-62.5,4,3,0,45,0,0
166136,-62.5,4,1,0,60,0,0
166219,-62.5,4,1,0,60,0,1
179552,-62.5,4,3,0,60,0,1
179719,-62.5,4,1,0,60,0,1
179886,-62.5,4,3,0,65,0,1
180052,-62.5,4,1,0,60,0,1
180552,-62.5,4,3,0,45,0,1
180719,-62.5,4,1,0,60,0,1
180886,-62.5,4,1,0,60,0,0
181219,-62.5,4,3,0,40,0,0
181386,-62.5,4,1,0,60,0,0
181886,-62.5,4,3,0,37,0,0
182052,-62.5,4,1,0,60,0,0
182552,-62.5,4,3,0,40,0,0
182719,-62.5,4,1,0,60,0,0
182886,-62.5,4,3,0,50,0,0
183052,-62.5,4,1,0,60,0,0
183719,-62.5,4,3,0,60,0,0
183886,-62.5,4,1,0,60,0,0
184052,-62.5,4,3,0,50,0,0
184552,-62.5,4,3,0,40,0,0
184719,-62.5,4,1,0,60,0,0
185052,333.333333333333,4,1,0,60,1,0
189552,-62.5,4,3,0,60,0,0
189718,-62.5,4,1,0,60,0,0
189885,-62.5,4,3,0,50,0,0
190052,-62.5,4,1,0,60,0,0
191385,-52.6315789473684,4,1,0,60,0,0
194718,-62.5,4,3,0,60,0,0
194885,-62.5,4,1,0,60,0,0
195052,-62.5,4,3,0,60,0,0
195718,-62.5,4,1,0,60,0,0

[Colours]
Combo1 : 201,151,101
Combo2 : 251,209,68
Combo3 : 233,132,20
Combo4 : 227,180,91

[HitObjects]
288,352,887,6,0,B|288:312|288:312|448:312,1,200,4|2,0:0|0:0,0:0:0:0:
368,288,1387,1,0,0:0:0:0:
416,288,1471,1,0,0:0:0:0:
368,224,1554,1,0,0:0:0:0:
288,224,1721,1,0,0:0:0:0:
448,224,1887,1,2,0:0:0:0:
288,160,2054,1,0,0:0:0:0:
208,160,2221,1,0,0:0:0:0:
48,160,2554,5,2,0:0:0:0:
208,224,2721,1,0,0:0:0:0:
48,224,2887,1,0,0:0:0:0:
288,96,3054,1,0,0:0:0:0:
336,96,3137,1,0,0:0:0:0:
384,96,3221,1,2,0:0:0:0:
48,96,3387,1,0,0:0:0:0:
288,32,3554,6,0,B|288:72|288:72|120:72,1,200,4|2,0:0|0:0,0:0:0:0:
208,96,4054,1,0,0:0:0:0:
208,128,4137,1,0,0:0:0:0:
208,160,4221,1,0,0:0:0:0:
368,160,4387,1,2,0:0:0:0:
360,224,4471,1,0,0:0:0:0:
280,160,4554,1,2,0:0:0:0:
272,224,4637,1,0,0:0:0:0:
184,224,4721,1,2,0:0:0:0:
48,224,4887,5,0,0:0:0:0:
224,288,5054,1,2,0:0:0:0:
224,352,5387,1,2,0:0:0:0:
432,224,5721,1,0,0:0:0:0:
424,224,5804,1,0,0:0:0:0:
408,224,5887,1,0,0:0:0:0:
376,224,5971,1,0,0:0:0:0:
328,224,6054,1,0,0:0:0:0:
264,224,6137,1,0,0:0:0:0:
184,224,6221,6,0,B|184:160|184:160|40:160,1,200,4|0,0:0|0:0,0:0:0:0:
184,160,6721,1,0,0:0:0:0:
184,128,6804,1,0,0:0:0:0:
184,96,6887,1,0,0:0:0:0:
352,160,7054,1,0,0:0:0:0:
512,160,7221,1,0,0:0:0:0:
352,96,7387,1,0,0:0:0:0:
104,96,7554,6,0,B|0:96|0:96|104:96,1,200
288,32,8054,1,0,0:0:0:0:
288,64,8137,1,0,0:0:0:0:
288,96,8221,1,0,0:0:0:0:
512,96,8387,1,0,0:0:0:0:
352,96,8554,1,0,0:0:0:0:
432,96,8721,1,0,0:0:0:0:
176,96,8887,6,0,L|360:184,1,200,4|0,0:0|0:0,0:0:0:0:
128,160,9387,1,0,0:0:0:0:
176,160,9471,1,0,0:0:0:0:
224,160,9554,1,0,0:0:0:0:
384,160,9721,1,0,0:0:0:0:
336,160,9804,1,0,0:0:0:0:
288,160,9887,1,0,0:0:0:0:
152,224,10054,1,0,0:0:0:0:
256,224,10221,5,0,0:0:0:0:
96,288,10387,1,0,0:0:0:0:
48,256,10471,1,0,0:0:0:0:
96,224,10554,1,8,0:0:0:0:
416,288,10721,1,0,0:0:0:0:
464,256,10804,1,0,0:0:0:0:
416,224,10887,1,8,0:0:0:0:
152,288,11054,1,0,0:0:0:0:
360,288,11387,1,4,0:0:0:0:
72,288,11554,5,4,0:0:0:0:
152,352,11721,1,0,0:0:0:0:
200,352,11805,1,0,0:0:0:0:
248,352,11888,1,0,0:0:0:0:
120,224,12055,2,0,L|280:224,1,160
152,288,12388,1,0,0:0:0:0:
200,288,12472,1,0,0:0:0:0:
248,288,12555,1,0,0:0:0:0:
120,160,12721,2,0,L|280:160,1,160
360,160,13055,5,0,0:0:0:0:
200,160,13221,1,0,0:0:0:0:
440,160,13388,1,0,0:0:0:0:
200,32,13555,1,0,0:0:0:0:
328,96,13721,1,0,0:0:0:0:
280,96,13805,1,0,0:0:0:0:
232,96,13888,1,0,0:0:0:0:
360,32,14055,1,0,0:0:0:0:
256,160,14221,1,0,0:0:0:0:
360,352,14388,5,0,0:0:0:0:
312,352,14471,1,0,0:0:0:0:
264,352,14555,1,0,0:0:0:0:
392,224,14721,2,0,L|232:224,1,160
360,288,15055,1,0,0:0:0:0:
312,288,15138,1,0,0:0:0:0:
264,288,15221,1,0,0:0:0:0:
392,160,15388,2,0,L|224:160,1,160
96,160,15721,5,2,0:0:0:0:
32,160,15888,1,0,0:0:0:0:
416,160,16055,1,2,0:0:0:0:
480,160,16221,1,8,0:0:0:0:
96,96,16388,5,2,0:0:0:0:
32,96,16555,1,4,0:0:0:0:
256,96,16721,1,2,0:0:0:0:
480,96,16888,1,2,0:0:0:0:
176,96,17055,5,2,0:0:0:0:
128,160,17138,1,0,0:0:0:0:
176,160,17221,1,0,0:0:0:0:
256,160,17388,1,0,0:0:0:0:
256,224,17555,1,0,0:0:0:0:
336,96,17721,1,0,0:0:0:0:
384,160,17805,1,0,0:0:0:0:
336,160,17888,1,0,0:0:0:0:
176,224,18055,1,0,0:0:0:0:
336,224,18221,1,0,0:0:0:0:
112,224,18388,5,0,0:0:0:0:
240,288,18555,1,0,0:0:0:0:
176,288,18721,1,0,0:0:0:0:
400,224,18888,1,0,0:0:0:0:
272,288,19055,1,0,0:0:0:0:
336,288,19221,1,0,0:0:0:0:
256,352,19388,1,0,0:0:0:0:
336,224,19555,1,0,0:0:0:0:
256,224,19638,1,0,0:0:0:0:
176,224,19721,1,0,0:0:0:0:
432,224,20055,1,4,0:0:0:0:
80,224,20388,1,0,0:0:0:0:
432,160,20721,1,4,0:0:0:0:
80,160,21221,5,0,0:0:0:0:
240,160,21388,1,0,0:0:0:0:
160,160,21555,1,0,0:0:0:0:
320,160,21721,1,0,0:0:0:0:
80,96,22055,1,0,0:0:0:0:
160,224,22388,5,4,0:0:0:0:
80,224,22555,1,2,0:0:0:0:
240,224,22721,1,8,0:0:0:0:
80,288,22888,1,2,0:0:0:0:
160,288,23055,1,0,0:0:0:0:
80,352,23221,1,2,0:0:0:0:
352,224,23388,1,8,0:0:0:0:
432,224,23555,1,2,0:0:0:0:
352,288,23721,5,0,0:0:0:0:
432,288,23888,1,2,0:0:0:0:
272,288,24055,1,8,0:0:0:0:
432,352,24221,1,2,0:0:0:0:
352,352,24388,1,0,0:0:0:0:
432,288,24555,1,2,0:0:0:0:
160,160,24721,1,8,0:0:0:0:
240,160,24888,1,2,0:0:0:0:
128,160,25055,5,0,0:0:0:0:
208,96,25221,1,2,0:0:0:0:
48,160,25388,1,8,0:0:0:0:
208,32,25555,1,2,0:0:0:0:
128,96,25721,1,0,0:0:0:0:
48,96,25888,1,2,0:0:0:0:
352,160,26055,1,8,0:0:0:0:
432,160,26221,1,2,0:0:0:0:
352,96,26388,5,0,0:0:0:0:
288,96,26471,1,0,0:0:0:0:
432,96,26555,1,2,0:0:0:0:
496,96,26638,1,0,0:0:0:0:
352,32,26721,1,8,0:0:0:0:
112,160,27055,1,0,0:0:0:0:
192,160,27221,1,2,0:0:0:0:
432,160,27388,1,8,0:0:0:0:
160,224,27555,1,8,0:0:0:0:
80,224,27721,5,0,0:0:0:0:
240,224,27888,1,2,0:0:0:0:
320,224,28055,1,8,0:0:0:0:
160,288,28221,1,2,0:0:0:0:
320,288,28388,1,0,0:0:0:0:
160,352,28555,1,2,0:0:0:0:
432,224,28721,1,8,0:0:0:0:
512,224,28888,1,2,0:0:0:0:
352,224,29055,5,0,0:0:0:0:
272,224,29221,1,2,0:0:0:0:
432,288,29388,1,8,0:0:0:0:
272,288,29555,1,2,0:0:0:0:
352,288,29721,1,0,0:0:0:0:
272,352,29888,1,2,0:0:0:0:
0,160,30055,1,8,0:0:0:0:
80,160,30221,1,2,0:0:0:0:
240,160,30388,5,0,0:0:0:0:
160,160,30555,1,2,0:0:0:0:
240,96,30721,1,8,0:0:0:0:
80,96,30888,1,2,0:0:0:0:
240,32,31055,1,0,0:0:0:0:
160,32,31221,1,2,0:0:0:0:
432,160,31388,1,8,0:0:0:0:
352,160,31555,1,2,0:0:0:0:
80,160,31721,1,4,0:0:0:0:
512,160,32055,5,4,0:0:0:0:
80,96,32388,5,4,0:0:0:0:
32,96,32471,1,0,0:0:0:0:
32,32,32555,1,0,0:0:0:0:
80,32,32638,1,0,0:0:0:0:
224,96,32721,1,4,0:0:0:0:
272,96,32805,1,0,0:0:0:0:
272,32,32888,1,0,0:0:0:0:
224,32,32971,1,0,0:0:0:0:
80,160,33055,1,0,0:0:0:0:
304,160,33221,5,2,0:0:0:0:
144,160,33388,1,0,0:0:0:0:
192,160,33471,1,0,0:0:0:0:
240,160,33555,1,2,0:0:0:0:
336,224,33721,1,0,0:0:0:0:
112,224,33888,1,2,0:0:0:0:
272,224,34055,1,0,0:0:0:0:
224,224,34138,1,0,0:0:0:0:
176,224,34221,1,2,0:0:0:0:
304,288,34388,1,0,0:0:0:0:
80,288,34555,5,2,0:0:0:0:
240,288,34721,1,0,0:0:0:0:
192,288,34805,1,0,0:0:0:0:
144,288,34888,1,2,0:0:0:0:
48,352,35055,1,0,0:0:0:0:
272,352,35221,1,2,0:0:0:0:
112,352,35388,1,0,0:0:0:0:
160,352,35471,1,0,0:0:0:0:
208,352,35555,1,2,0:0:0:0:
48,224,35721,1,0,0:0:0:0:
128,144,35888,5,2,0:0:0:0:
304,224,36055,1,0,0:0:0:0:
256,224,36138,1,0,0:0:0:0:
208,224,36221,1,2,0:0:0:0:
464,224,36388,1,0,0:0:0:0:
384,144,36555,1,2,0:0:0:0:
208,160,36721,1,0,0:0:0:0:
256,160,36805,1,0,0:0:0:0:
304,160,36888,1,2,0:0:0:0:
336,96,37055,5,8,0:0:0:0:
176,96,37138,1,0,0:0:0:0:
160,32,37305,1,0,0:0:0:0:
320,32,37388,1,8,0:0:0:0:
240,32,37555,1,2,0:0:0:0:
160,224,37721,5,8,0:0:0:0:
320,224,37805,1,0,0:0:0:0:
336,288,37971,1,0,0:0:0:0:
176,288,38055,1,8,0:0:0:0:
256,288,38221,1,2,0:0:0:0:
336,352,38388,1,4,0:0:0:0:
96,352,38555,5,2,0:0:0:0:
176,352,38721,1,0,0:0:0:0:
176,320,38805,1,0,0:0:0:0:
176,288,38888,1,2,0:0:0:0:
96,288,39055,1,0,0:0:0:0:
336,288,39221,1,2,0:0:0:0:
256,224,39388,1,0,0:0:0:0:
256,256,39471,1,0,0:0:0:0:
256,288,39555,1,2,0:0:0:0:
96,224,39721,1,0,0:0:0:0:
336,224,39888,5,2,0:0:0:0:
336,192,39971,1,8,0:0:0:0:
96,160,40138,1,8,0:0:0:0:
96,128,40221,1,2,0:0:0:0:
336,128,40388,5,0,0:0:0:0:
384,128,40471,1,0,0:0:0:0:
336,64,40555,1,2,0:0:0:0:
96,16,40721,1,0,0:0:0:0:
48,40,40805,1,0,0:0:0:0:
96,64,40888,1,2,0:0:0:0:
424,224,41055,5,8,0:0:0:0:
416,224,41138,1,0,0:0:0:0:
400,224,41221,1,0,0:0:0:0:
368,224,41305,1,0,0:0:0:0:
320,224,41388,1,8,0:0:0:0:
256,224,41471,1,0,0:0:0:0:
184,224,41555,1,0,0:0:0:0:
104,224,41638,1,0,0:0:0:0:
16,224,41721,1,8,0:0:0:0:
256,288,41888,1,0,0:0:0:0:
360,352,42055,1,8,0:0:0:0:
200,352,42138,1,0,0:0:0:0:
168,352,42305,5,0,0:0:0:0:
328,352,42388,1,4,0:0:0:0:
104,288,43055,5,4,0:0:0:0:
200,160,48388,5,8,0:0:0:0:
144,160,48471,1,0,0:0:0:0:
200,224,48555,1,0,0:0:0:0:
312,224,48638,1,0,0:0:0:0:
368,224,48721,1,8,0:0:0:0:
312,288,48805,1,0,0:0:0:0:
200,288,48888,1,0,0:0:0:0:
144,288,48971,1,0,0:0:0:0:
200,352,49055,1,8,0:0:0:0:
376,352,49221,1,4,0:0:0:0:
232,352,49555,5,0,0:0:0:0:
424,352,49721,1,4,0:0:0:0:
264,352,50055,1,0,0:0:0:0:
488,352,50221,1,4,0:0:0:0:
264,288,50388,1,4,0:0:0:0:
488,288,50721,5,4,0:0:0:0:
264,224,51055,1,4,0:0:0:0:
184,224,51138,1,0,0:0:0:0:
184,160,51221,1,0,0:0:0:0:
344,160,51388,1,0,0:0:0:0:
424,160,51471,1,0,0:0:0:0:
488,96,51555,1,0,0:0:0:0:
424,32,51638,1,0,0:0:0:0:
344,32,51721,1,4,0:0:0:0:
88,32,51888,5,8,0:0:0:0:
248,32,52055,1,0,0:0:0:0:
200,32,52138,1,0,0:0:0:0:
152,32,52221,1,8,0:0:0:0:
248,96,52388,1,0,0:0:0:0:
88,160,52555,1,8,0:0:0:0:
248,160,52721,1,0,0:0:0:0:
200,160,52805,1,0,0:0:0:0:
152,160,52888,1,8,0:0:0:0:
328,224,53055,5,0,0:0:0:0:
248,224,53221,1,8,0:0:0:0:
408,224,53388,1,0,0:0:0:0:
456,224,53471,1,0,0:0:0:0:
408,288,53555,1,8,0:0:0:0:
88,224,53721,1,0,0:0:0:0:
40,224,53805,1,0,0:0:0:0:
88,288,53888,1,8,0:0:0:0:
328,288,54055,1,0,0:0:0:0:
168,288,54221,1,8,0:0:0:0:
328,160,54388,5,0,0:0:0:0:
424,32,54555,1,8,0:0:0:0:
264,32,54721,1,0,0:0:0:0:
312,32,54805,1,0,0:0:0:0:
360,32,54888,1,8,0:0:0:0:
264,96,55055,1,0,0:0:0:0:
424,160,55221,1,8,0:0:0:0:
264,160,55388,1,0,0:0:0:0:
312,160,55471,1,0,0:0:0:0:
360,160,55555,1,8,0:0:0:0:
256,288,55721,5,8,0:0:0:0:
304,288,55805,1,0,0:0:0:0:
352,288,55888,1,0,0:0:0:0:
400,288,55971,1,0,0:0:0:0:
224,288,56055,1,8,0:0:0:0:
176,288,56138,1,0,0:0:0:0:
128,288,56221,1,0,0:0:0:0:
80,288,56305,1,0,0:0:0:0:
256,224,56388,1,0,0:0:0:0:
288,224,56555,1,8,0:0:0:0:
128,224,56638,1,4,0:0:0:0:
96,160,56805,1,0,0:0:0:0:
256,160,56888,1,8,0:0:0:0:
16,160,57055,1,4,0:0:0:0:
96,96,57221,5,8,0:0:0:0:
192,32,57388,1,0,0:0:0:0:
144,32,57471,1,0,0:0:0:0:
96,32,57555,1,8,0:0:0:0:
272,32,57721,1,0,0:0:0:0:
352,32,57888,1,8,0:0:0:0:
448,96,58055,1,0,0:0:0:0:
400,96,58138,1,0,0:0:0:0:
352,96,58221,1,8,0:0:0:0:
192,96,58388,5,0,0:0:0:0:
272,96,58555,1,8,0:0:0:0:
112,96,58721,1,0,0:0:0:0:
64,96,58805,1,0,0:0:0:0:
112,160,58888,1,8,0:0:0:0:
272,160,59055,1,0,0:0:0:0:
112,224,59221,1,4,0:0:0:0:
432,160,59555,5,4,0:0:0:0:
112,288,59888,1,0,0:0:0:0:
352,160,60055,1,4,0:0:0:0:
112,352,60221,1,0,0:0:0:0:
352,224,60388,1,0,0:0:0:0:
112,224,60555,1,0,0:0:0:0:
352,288,60721,1,0,0:0:0:0:
112,160,60888,1,0,0:0:0:0:
32,96,61055,6,0,B|112:96|112:96|112:16,1,160,6|2,0:0|0:0,0:0:0:0:
480,96,61555,2,0,B|400:96|400:96|400:16,1,160,6|2,0:0|0:0,0:0:0:0:
32,288,62055,2,0,B|112:288|112:288|112:368,1,160,6|2,0:0|0:0,0:0:0:0:
400,368,62721,1,0,0:0:0:0:
112,288,63055,1,4,0:0:0:0:
400,96,63388,1,0,0:0:0:0:
208,96,63555,1,4,0:0:0:0:
304,96,63887,5,0,0:0:0:0:
208,160,64054,1,0,0:0:0:0:
256,160,64137,1,0,0:0:0:0:
304,160,64220,1,0,0:0:0:0:
480,160,64387,1,0,0:0:0:0:
432,160,64470,1,0,0:0:0:0:
384,160,64554,1,0,0:0:0:0:
480,224,64720,1,0,0:0:0:0:
208,224,64887,5,0,0:0:0:0:
112,224,65054,1,0,0:0:0:0:
256,288,65220,1,0,0:0:0:0:
208,288,65304,1,0,0:0:0:0:
160,288,65387,1,0,0:0:0:0:
304,352,65554,1,0,0:0:0:0:
208,352,65720,1,0,0:0:0:0:
352,224,65887,1,0,0:0:0:0:
304,224,65970,1,0,0:0:0:0:
256,224,66054,1,0,0:0:0:0:
400,288,66220,5,0,0:0:0:0:
456,224,66387,1,0,0:0:0:0:
304,224,66554,1,0,0:0:0:0:
208,96,66720,1,0,0:0:0:0:
256,96,66804,1,0,0:0:0:0:
304,96,66887,1,0,0:0:0:0:
480,96,67054,1,0,0:0:0:0:
432,96,67137,1,0,0:0:0:0:
384,96,67220,1,0,0:0:0:0:
480,160,67387,1,0,0:0:0:0:
200,160,67554,5,0,0:0:0:0:
312,160,67720,1,0,0:0:0:0:
208,224,67887,1,0,0:0:0:0:
256,224,67970,1,0,0:0:0:0:
304,224,68054,1,0,0:0:0:0:
192,288,68220,1,0,0:0:0:0:
320,288,68387,1,0,0:0:0:0:
64,288,68720,1,0,0:0:0:0:
448,288,68887,1,4,0:0:0:0:
352,224,69220,5,0,0:0:0:0:
448,160,69387,1,0,0:0:0:0:
400,160,69470,1,0,0:0:0:0:
352,160,69554,1,0,0:0:0:0:
176,160,69720,1,0,0:0:0:0:
224,160,69804,1,0,0:0:0:0:
272,160,69887,1,0,0:0:0:0:
176,96,70054,1,0,0:0:0:0:
352,96,70220,5,0,0:0:0:0:
256,96,70387,1,0,0:0:0:0:
160,32,70554,1,0,0:0:0:0:
208,32,70637,1,0,0:0:0:0:
256,32,70720,1,0,0:0:0:0:
400,32,70887,1,0,0:0:0:0:
304,32,71053,1,0,0:0:0:0:
504,96,71220,1,0,0:0:0:0:
448,96,71303,1,0,0:0:0:0:
400,96,71387,1,0,0:0:0:0:
504,160,71553,5,0,0:0:0:0:
344,160,71720,1,0,0:0:0:0:
424,160,71887,1,0,0:0:0:0:
264,224,72053,1,0,0:0:0:0:
328,224,72137,1,0,0:0:0:0:
264,288,72220,1,0,0:0:0:0:
200,288,72303,1,0,0:0:0:0:
264,352,72387,1,0,0:0:0:0:
328,352,72470,1,0,0:0:0:0:
264,288,72553,1,0,0:0:0:0:
200,224,72637,1,0,0:0:0:0:
136,224,72720,1,0,0:0:0:0:
392,224,72887,5,0,0:0:0:0:
472,224,73053,1,0,0:0:0:0:
200,160,73220,1,2,0:0:0:0:
136,160,73303,1,0,0:0:0:0:
200,96,73387,1,0,0:0:0:0:
392,160,73553,1,2,0:0:0:0:
312,160,73720,1,4,0:0:0:0:
472,160,74053,5,2,0:0:0:0:
56,160,74220,1,4,0:0:0:0:
312,96,74720,1,2,0:0:0:0:
56,96,74887,1,4,0:0:0:0:
376,96,75220,1,2,0:0:0:0:
56,32,75553,1,2,0:0:0:0:
216,32,75720,5,4,0:0:0:0:
136,32,75887,1,0,0:0:0:0:
296,32,76053,1,0,0:0:0:0:
216,96,76220,1,0,0:0:0:0:
376,96,76387,1,0,0:0:0:0:
296,96,76553,1,0,0:0:0:0:
456,96,76720,1,0,0:0:0:0:
376,160,76887,1,0,0:0:0:0:
136,160,77053,1,0,0:0:0:0:
376,224,77220,1,8,0:0:0:0:
136,224,77387,1,0,0:0:0:0:
256,224,78053,5,0,0:0:0:0:
256,288,78387,1,4,0:0:0:0:
304,288,78470,1,0,0:0:0:0:
352,288,78553,1,0,0:0:0:0:
256,160,78720,1,0,0:0:0:0:
160,160,78887,1,0,0:0:0:0:
256,32,79053,1,0,0:0:0:0:
208,32,79137,1,0,0:0:0:0:
160,32,79220,1,0,0:0:0:0:
256,96,79387,1,0,0:0:0:0:
352,96,79553,1,0,0:0:0:0:
160,96,79720,5,0,0:0:0:0:
64,96,79887,1,0,0:0:0:0:
112,160,80053,1,0,0:0:0:0:
208,160,80220,1,0,0:0:0:0:
112,232,80387,1,0,0:0:0:0:
64,232,80470,1,0,0:0:0:0:
112,288,80553,1,0,0:0:0:0:
400,232,80720,1,0,0:0:0:0:
448,232,80803,1,0,0:0:0:0:
400,288,80887,1,0,0:0:0:0:
256,288,81053,5,4,0:0:0:0:
208,288,81137,1,0,0:0:0:0:
160,288,81220,1,0,0:0:0:0:
256,160,81387,1,0,0:0:0:0:
352,160,81553,1,0,0:0:0:0:
256,32,81720,1,0,0:0:0:0:
304,32,81803,1,0,0:0:0:0:
352,32,81887,1,0,0:0:0:0:
256,96,82053,1,0,0:0:0:0:
160,96,82220,1,0,0:0:0:0:
64,160,82387,6,0,B|72:152|72:152|160:152,1,100,2|0,0:0|0:0,0:0:0:0:
448,160,82720,2,0,B|440:152|440:152|352:152,1,100,2|0,0:0|0:0,0:0:0:0:
64,224,83053,2,0,B|72:232|72:232|160:232,1,100,2|8,0:0|0:0,0:0:0:0:
448,224,83387,1,2,0:0:0:0:
288,224,83553,1,2,0:0:0:0:
448,288,83720,5,2,0:0:0:0:
448,320,83803,1,0,0:0:0:0:
448,352,83887,1,0,0:0:0:0:
224,288,84053,1,0,0:0:0:0:
320,288,84220,1,0,0:0:0:0:
416,224,84387,1,0,0:0:0:0:
416,192,84470,1,0,0:0:0:0:
416,160,84553,1,0,0:0:0:0:
192,224,84720,1,0,0:0:0:0:
288,224,84887,1,0,0:0:0:0:
48,224,85053,5,0,0:0:0:0:
96,224,85137,1,0,0:0:0:0:
144,224,85220,1,0,0:0:0:0:
48,160,85387,1,0,0:0:0:0:
160,160,85553,1,0,0:0:0:0:
104,96,85720,1,0,0:0:0:0:
216,96,85886,1,0,0:0:0:0:
160,32,86053,1,0,0:0:0:0:
288,32,86220,1,0,0:0:0:0:
232,32,86303,1,0,0:0:0:0:
176,32,86386,1,0,0:0:0:0:
464,32,86720,1,0,0:0:0:0:
176,96,87053,1,0,0:0:0:0:
464,96,87386,1,0,0:0:0:0:
176,160,87886,5,0,0:0:0:0:
416,224,88053,1,4,0:0:0:0:
176,224,88220,1,0,0:0:0:0:
416,288,88386,1,0,0:0:0:0:
112,224,88720,1,4,0:0:0:0:
176,96,89053,5,4,0:0:0:0:
96,96,89220,1,2,0:0:0:0:
256,96,89386,1,8,0:0:0:0:
176,32,89553,1,2,0:0:0:0:
256,32,89720,1,0,0:0:0:0:
96,32,89886,1,2,0:0:0:0:
176,160,90053,1,8,0:0:0:0:
96,160,90220,1,2,0:0:0:0:
336,96,90386,5,0,0:0:0:0:
416,96,90553,1,2,0:0:0:0:
256,96,90720,1,8,0:0:0:0:
336,32,90886,1,2,0:0:0:0:
256,32,91053,1,0,0:0:0:0:
416,32,91220,1,2,0:0:0:0:
336,160,91386,1,8,0:0:0:0:
416,160,91553,1,2,0:0:0:0:
176,96,91720,5,0,0:0:0:0:
96,96,91886,1,2,0:0:0:0:
256,96,92053,1,8,0:0:0:0:
176,32,92220,1,2,0:0:0:0:
256,32,92386,1,0,0:0:0:0:
96,32,92553,1,2,0:0:0:0:
176,160,92720,1,8,0:0:0:0:
96,160,92886,1,2,0:0:0:0:
336,288,93053,5,0,0:0:0:0:
320,288,93136,1,0,0:0:0:0:
224,288,93220,1,2,0:0:0:0:
208,288,93303,1,0,0:0:0:0:
416,288,93386,1,8,0:0:0:0:
416,224,93720,1,0,0:0:0:0:
192,224,93886,1,2,0:0:0:0:
416,160,94053,1,8,0:0:0:0:
192,160,94220,1,8,0:0:0:0:
32,160,94386,5,0,0:0:0:0:
112,160,94553,1,2,0:0:0:0:
32,224,94720,1,8,0:0:0:0:
192,224,94886,1,2,0:0:0:0:
112,224,95053,1,0,0:0:0:0:
192,288,95220,1,2,0:0:0:0:
32,288,95386,1,8,0:0:0:0:
112,288,95553,1,2,0:0:0:0:
480,160,95720,5,0,0:0:0:0:
400,160,95886,1,2,0:0:0:0:
480,224,96053,1,8,0:0:0:0:
320,224,96220,1,2,0:0:0:0:
400,224,96386,1,0,0:0:0:0:
320,288,96553,1,2,0:0:0:0:
480,288,96720,1,8,0:0:0:0:
400,288,96886,1,2,0:0:0:0:
32,160,97053,5,0,0:0:0:0:
112,160,97220,1,2,0:0:0:0:
32,224,97386,1,8,0:0:0:0:
192,224,97553,1,2,0:0:0:0:
112,224,97720,1,0,0:0:0:0:
192,288,97886,1,2,0:0:0:0:
32,288,98053,1,8,0:0:0:0:
112,288,98220,1,2,0:0:0:0:
480,160,98386,1,0,0:0:0:0:
192,160,98720,5,0,0:0:0:0:
480,96,99053,5,0,0:0:0:0:
472,96,99136,1,0,0:0:0:0:
456,96,99220,1,0,0:0:0:0:
432,96,99303,1,0,0:0:0:0:
400,96,99386,1,0,0:0:0:0:
360,96,99470,1,0,0:0:0:0:
312,96,99553,1,0,0:0:0:0:
256,96,99636,1,0,0:0:0:0:
192,96,99720,1,0,0:0:0:0:
32,96,99886,5,2,0:0:0:0:
192,160,100053,1,0,0:0:0:0:
240,160,100136,1,0,0:0:0:0:
240,224,100220,1,2,0:0:0:0:
72,288,100386,1,0,0:0:0:0:
212,288,100553,1,2,0:0:0:0:
352,288,100720,1,0,0:0:0:0:
400,288,100803,1,0,0:0:0:0:
400,224,100886,1,2,0:0:0:0:
320,96,101053,1,0,0:0:0:0:
480,96,101220,5,2,0:0:0:0:
320,160,101386,1,0,0:0:0:0:
272,160,101470,1,0,0:0:0:0:
272,224,101553,1,2,0:0:0:0:
432,288,101720,1,0,0:0:0:0:
296,288,101886,1,2,0:0:0:0:
160,288,102053,1,0,0:0:0:0:
112,288,102136,1,0,0:0:0:0:
112,224,102220,1,2,0:0:0:0:
184,160,102386,1,0,0:0:0:0:
24,160,102553,5,2,0:0:0:0:
248,160,102720,1,0,0:0:0:0:
296,160,102803,1,0,0:0:0:0:
296,96,102886,1,2,0:0:0:0:
328,224,103053,1,0,0:0:0:0:
488,224,103220,1,2,0:0:0:0:
264,224,103386,1,0,0:0:0:0:
216,224,103470,1,0,0:0:0:0:
216,288,103553,1,2,0:0:0:0:
56,160,103720,5,8,0:0:0:0:
296,160,103886,1,2,0:0:0:0:
344,160,103970,1,0,0:0:0:0:
296,96,104053,1,8,0:0:0:0:
136,96,104220,1,2,0:0:0:0:
56,96,104386,5,8,0:0:0:0:
216,96,104470,1,0,0:0:0:0:
232,32,104636,1,0,0:0:0:0:
72,32,104720,1,8,0:0:0:0:
152,32,104886,1,2,0:0:0:0:
176,224,105053,6,0,B|256:224|256:224|176:224,1,160,4|2,0:0|0:0,0:0:0:0:
72,224,105386,1,0,0:0:0:0:
24,224,105470,1,0,0:0:0:0:
72,288,105553,1,2,0:0:0:0:
224,288,105720,2,0,B|288:288|288:288|224:288,1,119.999996337891,0|2,0:0|0:0,0:0:0:0:
120,352,106053,1,0,0:0:0:0:
72,352,106136,1,0,0:0:0:0:
120,288,106220,1,2,0:0:0:0:
296,352,106386,6,0,B|400:352|400:352|296:352,1,200,0|2,0:0|0:0,0:0:0:0:
168,224,106720,1,0,0:0:0:0:
120,224,106803,1,0,0:0:0:0:
168,160,106886,1,2,0:0:0:0:
368,288,107053,2,0,B|472:288|472:288|368:288,1,200,0|2,0:0|0:0,0:0:0:0:
216,160,107386,1,0,0:0:0:0:
168,96,107470,1,0,0:0:0:0:
216,96,107553,1,2,0:0:0:0:
448,232,107720,5,8,0:0:0:0:
496,232,107803,1,0,0:0:0:0:
448,168,107886,1,0,0:0:0:0:
400,168,107970,1,0,0:0:0:0:
448,104,108053,1,8,0:0:0:0:
496,104,108136,1,0,0:0:0:0:
448,40,108220,1,0,0:0:0:0:
376,40,108303,1,0,0:0:0:0:
288,40,108386,1,8,0:0:0:0:
136,40,108553,1,0,0:0:0:0:
376,96,108720,1,8,0:0:0:0:
376,160,108803,1,0,0:0:0:0:
112,160,108970,1,0,0:0:0:0:
280,160,109053,1,4,0:0:0:0:
136,104,109720,5,4,0:0:0:0:
392,352,115053,5,8,0:0:0:0:
424,352,115136,1,0,0:0:0:0:
464,352,115220,1,0,0:0:0:0:
512,352,115303,1,0,0:0:0:0:
320,288,115386,1,8,0:0:0:0:
288,288,115470,1,0,0:0:0:0:
248,288,115553,1,0,0:0:0:0:
200,288,115636,1,0,0:0:0:0:
128,224,115720,5,8,0:0:0:0:
376,224,115886,1,4,0:0:0:0:
168,224,116220,1,0,0:0:0:0:
416,224,116386,1,4,0:0:0:0:
208,224,116720,1,0,0:0:0:0:
456,224,116886,1,4,0:0:0:0:
128,160,117053,5,0,0:0:0:0:
80,160,117136,1,0,0:0:0:0:
128,96,117220,1,0,0:0:0:0:
376,160,117386,1,0,0:0:0:0:
424,160,117470,1,0,0:0:0:0:
376,96,117553,1,0,0:0:0:0:
64,96,117720,1,0,0:0:0:0:
16,96,117803,1,0,0:0:0:0:
64,32,117886,1,0,0:0:0:0:
376,32,118053,1,0,0:0:0:0:
432,32,118136,1,0,0:0:0:0:
456,96,118220,1,0,0:0:0:0:
432,160,118303,1,0,0:0:0:0:
376,160,118386,5,4,0:0:0:0:
192,96,118553,1,8,0:0:0:0:
312,160,118720,1,0,0:0:0:0:
264,160,118803,1,0,0:0:0:0:
216,160,118886,1,8,0:0:0:0:
312,224,119053,1,0,0:0:0:0:
128,288,119220,1,8,0:0:0:0:
248,224,119386,1,0,0:0:0:0:
200,224,119470,1,0,0:0:0:0:
152,224,119553,1,8,0:0:0:0:
24,288,119720,5,0,0:0:0:0:
200,288,119886,1,8,0:0:0:0:
88,352,120053,1,0,0:0:0:0:
96,352,120136,1,0,0:0:0:0:
184,352,120220,1,8,0:0:0:0:
328,352,120386,1,0,0:0:0:0:
320,352,120470,1,0,0:0:0:0:
248,352,120553,1,8,0:0:0:0:
408,352,120720,1,0,0:0:0:0:
416,352,120803,1,0,0:0:0:0:
504,352,120886,1,8,0:0:0:0:
344,288,121053,5,0,0:0:0:0:
480,288,121220,1,8,0:0:0:0:
320,224,121386,1,0,0:0:0:0:
368,224,121470,1,0,0:0:0:0:
416,224,121553,1,8,0:0:0:0:
256,160,121720,1,0,0:0:0:0:
120,160,121886,1,8,0:0:0:0:
280,96,122053,1,0,0:0:0:0:
232,96,122136,1,0,0:0:0:0:
184,96,122220,1,8,0:0:0:0:
80,224,122386,5,0,0:0:0:0:
32,256,122470,1,0,0:0:0:0:
8,288,122553,1,2,0:0:0:0:
32,320,122636,1,0,0:0:0:0:
80,352,122720,1,2,0:0:0:0:
352,352,122886,1,2,0:0:0:0:
384,320,122970,1,0,0:0:0:0:
160,352,123136,1,0,0:0:0:0:
128,320,123220,1,2,0:0:0:0:
432,224,123386,1,2,0:0:0:0:
480,256,123470,1,0,0:0:0:0:
504,288,123553,1,2,0:0:0:0:
480,320,123636,1,0,0:0:0:0:
432,352,123720,5,4,0:0:0:0:
160,224,123886,1,8,0:0:0:0:
296,224,124053,1,0,0:0:0:0:
360,224,124136,1,0,0:0:0:0:
296,160,124220,1,8,0:0:0:0:
160,160,124386,1,0,0:0:0:0:
320,96,124553,1,8,0:0:0:0:
184,32,124720,1,0,0:0:0:0:
184,64,124803,1,0,0:0:0:0:
184,96,124886,1,8,0:0:0:0:
24,224,125053,5,0,0:0:0:0:
176,224,125220,1,8,0:0:0:0:
336,288,125386,1,0,0:0:0:0:
400,288,125470,1,0,0:0:0:0:
336,352,125553,1,8,0:0:0:0:
176,352,125720,1,0,0:0:0:0:
360,352,125886,1,8,0:0:0:0:
176,288,126220,1,4,0:0:0:0:
64,160,126553,6,0,B|176:160|176:160|176:112,1,160
448,160,126886,2,0,B|336:160|336:160|336:112,1,160
48,96,127220,2,0,B|160:96|160:96|160:48,1,160
464,96,127553,2,0,B|352:96|352:96|352:48,1,160,0|2,0:0|0:0,0:0:0:0:
128,96,127886,1,2,0:0:0:0:
120,224,128220,5,2,0:0:0:0:
392,224,128386,1,2,0:0:0:0:
400,288,128720,1,2,0:0:0:0:
112,288,128886,1,2,0:0:0:0:
104,352,129220,5,0,0:0:0:0:
288,352,129386,1,0,0:0:0:0:
224,352,129553,1,0,0:0:0:0:
408,352,129720,1,0,0:0:0:0:
384,224,130053,1,0,0:0:0:0:
128,224,130220,6,0,B|224:192|224:192|128:224,1,200,4|0,0:0|0:0,0:0:0:0:
128,152,130720,1,0,0:0:0:0:
168,152,130803,1,0,0:0:0:0:
216,152,130886,1,0,0:0:0:0:
272,152,130970,1,0,0:0:0:0:
336,152,131053,1,0,0:0:0:0:
268,89,131136,1,0,0:0:0:0:
200,32,131220,1,0,0:0:0:0:
144,32,131303,1,0,0:0:0:0:
200,32,131386,1,0,0:0:0:0:
72,32,131553,5,0,0:0:0:0:
240,32,131720,1,0,0:0:0:0:
112,224,131886,1,0,0:0:0:0:
160,224,131970,1,0,0:0:0:0:
208,224,132053,1,0,0:0:0:0:
440,32,132220,1,0,0:0:0:0:
272,32,132386,1,0,0:0:0:0:
400,224,132553,1,0,0:0:0:0:
352,224,132636,1,0,0:0:0:0:
304,224,132720,1,0,0:0:0:0:
72,96,132886,5,0,0:0:0:0:
240,96,133053,1,0,0:0:0:0:
112,160,133220,1,0,0:0:0:0:
288,160,133386,1,0,0:0:0:0:
240,160,133470,1,0,0:0:0:0:
192,160,133553,1,0,0:0:0:0:
352,160,133720,1,0,0:0:0:0:
352,128,133803,1,0,0:0:0:0:
160,224,133970,1,0,0:0:0:0:
160,256,134053,1,0,0:0:0:0:
72,224,134220,5,0,0:0:0:0:
240,224,134386,1,0,0:0:0:0:
160,352,134553,1,0,0:0:0:0:
328,352,134720,1,0,0:0:0:0:
496,352,134886,1,0,0:0:0:0:
256,352,135053,1,0,0:0:0:0:
400,288,135386,1,0,0:0:0:0:
160,288,135553,5,4,0:0:0:0:
256,224,135886,1,0,0:0:0:0:
352,224,136053,1,0,0:0:0:0:
400,224,136136,1,0,0:0:0:0:
352,160,136220,1,0,0:0:0:0:
160,224,136386,1,0,0:0:0:0:
112,224,136470,1,0,0:0:0:0:
160,160,136553,1,0,0:0:0:0:
352,96,136720,1,0,0:0:0:0:
160,96,136886,5,0,0:0:0:0:
80,96,137053,1,0,0:0:0:0:
240,96,137220,1,0,0:0:0:0:
160,32,137386,1,0,0:0:0:0:
312,32,137553,1,0,0:0:0:0:
240,160,137720,1,0,0:0:0:0:
192,160,137803,1,0,0:0:0:0:
144,160,137886,1,0,0:0:0:0:
48,160,138053,1,0,0:0:0:0:
144,224,138220,5,0,0:0:0:0:
368,224,138386,1,0,0:0:0:0:
464,160,138553,1,0,0:0:0:0:
144,160,138720,1,0,0:0:0:0:
144,128,138803,1,0,0:0:0:0:
368,160,138970,1,0,0:0:0:0:
368,128,139053,1,0,0:0:0:0:
208,128,139220,1,0,0:0:0:0:
256,128,139303,1,0,0:0:0:0:
304,128,139386,1,0,0:0:0:0:
80,224,139553,5,0,0:0:0:0:
160,224,139720,1,0,0:0:0:0:
0,224,139886,1,2,0:0:0:0:
240,224,140053,1,0,0:0:0:0:
80,288,140220,1,2,0:0:0:0:
320,224,140386,1,0,0:0:0:0:
320,288,140720,1,2,0:0:0:0:
80,352,140886,5,4,0:0:0:0:
368,352,141386,1,2,0:0:0:0:
128,352,141553,1,4,0:0:0:0:
416,352,141886,1,2,0:0:0:0:
80,288,142220,5,2,0:0:0:0:
360,288,142386,1,4,0:0:0:0:
312,288,142553,1,0,0:0:0:0:
80,224,142720,1,0,0:0:0:0:
128,224,142886,1,0,0:0:0:0:
360,224,143053,1,0,0:0:0:0:
408,224,143220,1,0,0:0:0:0:
80,160,143386,1,0,0:0:0:0:
32,160,143553,5,0,0:0:0:0:
344,160,143720,1,0,0:0:0:0:
120,160,143886,1,8,0:0:0:0:
256,160,144053,1,0,0:0:0:0:
256,96,144719,1,0,0:0:0:0:
120,96,145053,5,4,0:0:0:0:
40,96,145219,1,0,0:0:0:0:
160,32,145386,1,0,0:0:0:0:
80,32,145553,1,0,0:0:0:0:
200,96,145719,1,0,0:0:0:0:
360,96,145886,1,0,0:0:0:0:
408,96,145969,1,0,0:0:0:0:
360,160,146053,1,0,0:0:0:0:
200,160,146219,1,0,0:0:0:0:
392,160,146553,5,0,0:0:0:0:
472,160,146719,1,0,0:0:0:0:
352,224,146886,1,0,0:0:0:0:
272,224,147053,1,0,0:0:0:0:
392,224,147219,1,0,0:0:0:0:
392,256,147303,1,0,0:0:0:0:
120,224,147469,1,0,0:0:0:0:
120,256,147553,1,0,0:0:0:0:
392,320,147719,5,4,0:0:0:0:
472,320,147886,1,0,0:0:0:0:
360,384,148053,1,0,0:0:0:0:
432,384,148219,1,0,0:0:0:0:
312,320,148386,1,0,0:0:0:0:
152,320,148553,1,0,0:0:0:0:
104,320,148636,1,0,0:0:0:0:
152,384,148719,1,0,0:0:0:0:
312,256,148886,1,0,0:0:0:0:
152,256,149219,5,0,0:0:0:0:
112,256,149303,1,0,0:0:0:0:
152,192,149386,1,0,0:0:0:0:
312,192,149553,1,0,0:0:0:0:
392,192,149719,1,4,0:0:0:0:
120,192,150053,1,4,0:0:0:0:
392,128,150386,5,4,0:0:0:0:
256,128,150553,1,0,0:0:0:0:
256,160,150636,1,0,0:0:0:0:
256,192,150719,1,0,0:0:0:0:
416,64,150886,1,0,0:0:0:0:
232,64,151219,1,0,0:0:0:0:
232,32,151303,1,0,0:0:0:0:
232,0,151386,1,0,0:0:0:0:
440,0,151553,1,0,0:0:0:0:
208,224,151886,5,0,0:0:0:0:
408,224,152053,1,0,0:0:0:0:
208,288,152386,1,0,0:0:0:0:
328,224,152553,1,0,0:0:0:0:
328,256,152636,1,0,0:0:0:0:
328,288,152719,1,0,0:0:0:0:
104,288,152886,1,4,0:0:0:0:
328,160,153219,5,0,0:0:0:0:
408,160,153386,1,0,0:0:0:0:
184,160,153553,1,0,0:0:0:0:
104,160,153719,1,0,0:0:0:0:
328,96,153886,1,0,0:0:0:0:
368,96,153969,1,0,0:0:0:0:
408,96,154053,1,0,0:0:0:0:
144,96,154219,1,4,0:0:0:0:
144,224,154553,5,0,0:0:0:0:
64,224,154719,1,0,0:0:0:0:
328,224,154886,1,0,0:0:0:0:
368,224,154969,1,0,0:0:0:0:
408,224,155053,1,0,0:0:0:0:
144,288,155219,1,0,0:0:0:0:
64,288,155386,1,0,0:0:0:0:
368,288,155553,5,4,0:0:0:0:
128,352,156053,1,2,0:0:0:0:
208,352,156386,1,2,0:0:0:0:
288,352,156719,1,2,0:0:0:0:
48,352,156886,5,4,0:0:0:0:
304,288,157386,1,2,0:0:0:0:
208,288,157553,1,4,0:0:0:0:
304,224,157719,1,8,0:0:0:0:
128,224,157830,1,0,0:0:0:0:
304,160,157941,1,4,0:0:0:0:
128,160,158053,1,0,0:0:0:0:
48,160,158219,1,4,0:0:0:0:
224,96,158719,1,2,0:0:0:0:
304,96,159053,1,2,0:0:0:0:
384,96,159386,5,0,0:0:0:0:
144,96,159553,1,4,0:0:0:0:
384,160,160053,1,0,0:0:0:0:
224,160,160219,1,0,0:0:0:0:
176,160,160303,1,0,0:0:0:0:
224,224,160386,1,0,0:0:0:0:
384,224,160553,1,0,0:0:0:0:
144,224,160719,1,8,0:0:0:0:
64,224,160886,5,4,0:0:0:0:
304,224,161053,1,0,0:0:0:0:
224,288,161219,1,0,0:0:0:0:
384,288,161386,1,0,0:0:0:0:
432,288,161469,1,0,0:0:0:0:
384,352,161553,1,0,0:0:0:0:
224,352,161719,1,0,0:0:0:0:
144,352,161886,1,0,0:0:0:0:
304,352,162053,1,0,0:0:0:0:
64,352,162219,5,0,0:0:0:0:
184,288,162386,1,0,0:0:0:0:
72,224,162553,1,0,0:0:0:0:
128,224,162636,1,0,0:0:0:0:
184,224,162719,1,0,0:0:0:0:
448,352,162886,1,0,0:0:0:0:
328,288,163053,1,0,0:0:0:0:
440,224,163219,1,0,0:0:0:0:
384,224,163303,1,0,0:0:0:0:
328,224,163386,1,0,0:0:0:0:
72,160,163553,5,0,0:0:0:0:
184,160,163719,1,0,0:0:0:0:
72,96,163886,1,0,0:0:0:0:
328,96,164053,1,0,0:0:0:0:
248,96,164136,1,0,0:0:0:0:
184,96,164219,1,0,0:0:0:0:
136,96,164303,1,0,0:0:0:0:
184,32,164386,1,0,0:0:0:0:
248,32,164469,1,0,0:0:0:0:
328,32,164553,1,0,0:0:0:0:
424,32,164719,1,0,0:0:0:0:
184,160,164886,5,0,0:0:0:0:
296,192,165053,1,0,0:0:0:0:
424,224,165219,1,0,0:0:0:0:
184,224,165386,1,0,0:0:0:0:
104,224,165553,1,0,0:0:0:0:
344,224,165719,1,8,0:0:0:0:
424,160,165886,1,0,0:0:0:0:
368,160,165969,1,0,0:0:0:0:
296,160,166053,1,8,0:0:0:0:
200,160,166136,1,0,0:0:0:0:
80,160,166219,5,4,0:0:0:0:
104,288,166553,1,0,0:0:0:0:
264,288,166719,1,0,0:0:0:0:
328,288,166803,1,0,0:0:0:0:
328,352,166886,1,0,0:0:0:0:
184,288,167053,1,0,0:0:0:0:
176,224,167136,1,0,0:0:0:0:
256,224,167219,1,0,0:0:0:0:
256,160,167303,1,0,0:0:0:0:
336,160,167386,1,0,0:0:0:0:
112,160,167553,5,0,0:0:0:0:
224,160,167719,1,0,0:0:0:0:
112,96,167886,1,0,0:0:0:0:
168,96,167969,1,0,0:0:0:0:
224,96,168053,1,0,0:0:0:0:
400,160,168219,1,0,0:0:0:0:
288,160,168386,1,0,0:0:0:0:
400,96,168553,1,0,0:0:0:0:
344,96,168636,1,0,0:0:0:0:
288,96,168719,1,0,0:0:0:0:
168,224,168886,6,0,B|168:144|168:144|224:200,1,160
96,224,169219,1,0,0:0:0:0:
224,224,169386,1,0,0:0:0:0:
352,224,169553,1,0,0:0:0:0:
352,288,169719,1,0,0:0:0:0:
384,352,169803,1,0,0:0:0:0:
144,288,169969,1,0,0:0:0:0:
176,352,170052,1,0,0:0:0:0:
256,160,170219,5,0,0:0:0:0:
184,160,170386,1,4,0:0:0:0:
328,160,170552,1,0,0:0:0:0:
168,96,170886,1,0,0:0:0:0:
344,96,171052,1,4,0:0:0:0:
368,32,171386,1,4,0:0:0:0:
144,32,171552,5,0,0:0:0:0:
368,224,171886,1,0,0:0:0:0:
240,224,172052,1,0,0:0:0:0:
192,224,172136,1,0,0:0:0:0:
144,224,172219,1,0,0:0:0:0:
312,288,172386,1,0,0:0:0:0:
264,288,172469,1,0,0:0:0:0:
216,288,172552,1,0,0:0:0:0:
264,352,172636,1,0,0:0:0:0:
312,352,172719,1,0,0:0:0:0:
464,224,172886,5,0,0:0:0:0:
368,224,173052,1,0,0:0:0:0:
432,160,173219,1,0,0:0:0:0:
336,160,173386,1,0,0:0:0:0:
240,96,173552,1,0,0:0:0:0:
288,96,173636,1,0,0:0:0:0:
336,96,173719,1,0,0:0:0:0:
192,32,173886,1,0,0:0:0:0:
288,32,174052,1,0,0:0:0:0:
144,96,174219,6,0,B|120:16|120:16|96:112,1,160
240,160,174552,1,0,0:0:0:0:
144,160,174719,1,0,0:0:0:0:
144,192,174802,1,0,0:0:0:0:
288,224,174969,1,0,0:0:0:0:
288,256,175052,1,0,0:0:0:0:
288,288,175136,1,0,0:0:0:0:
432,160,175302,1,0,0:0:0:0:
432,192,175386,1,0,0:0:0:0:
144,256,175552,5,0,0:0:0:0:
376,320,175886,2,0,B|456:320|456:320|376:320,1,160,2|0,0:0|0:0,0:0:0:0:
144,320,176219,2,0,B|64:320|64:320|144:320,1,160,2|0,0:0|0:0,0:0:0:0:
408,256,176719,1,2,0:0:0:0:
504,256,176886,5,4,0:0:0:0:
112,256,177386,1,2,0:0:0:0:
16,256,177552,1,4,0:0:0:0:
96,192,177886,1,2,0:0:0:0:
424,192,178219,5,2,0:0:0:0:
96,128,178552,1,0,0:0:0:0:
200,128,178719,1,0,0:0:0:0:
96,64,178886,1,0,0:0:0:0:
200,64,179052,1,0,0:0:0:0:
424,128,179219,1,0,0:0:0:0:
320,128,179386,1,0,0:0:0:0:
424,64,179552,5,0,0:0:0:0:
320,64,179719,1,0,0:0:0:0:
96,0,179886,1,8,0:0:0:0:
320,0,180052,1,0,0:0:0:0:
200,160,180552,1,4,0:0:0:0:
320,160,180719,1,0,0:0:0:0:
80,160,180886,5,4,0:0:0:0:
320,224,181219,1,4,0:0:0:0:
200,224,181386,1,0,0:0:0:0:
448,224,181552,1,4,0:0:0:0:
200,288,181886,1,4,0:0:0:0:
320,288,182052,1,0,0:0:0:0:
80,288,182219,5,4,0:0:0:0:
432,352,182552,1,4,0:0:0:0:
496,352,182719,1,0,0:0:0:0:
352,352,182886,1,0,0:0:0:0:
288,352,183052,1,0,0:0:0:0:
144,352,183219,1,0,0:0:0:0:
208,352,183386,1,0,0:0:0:0:
64,352,183552,5,0,0:0:0:0:
0,352,183719,1,4,0:0:0:0:
304,288,183886,1,0,0:0:0:0:
192,288,184052,1,8,0:0:0:0:
336,288,184552,1,4,0:0:0:0:
160,288,184719,1,0,0:0:0:0:
184,160,185052,5,4,0:0:0:0:
232,160,185135,1,0,0:0:0:0:
184,96,185218,1,0,0:0:0:0:
56,96,185385,1,0,0:0:0:0:
184,32,185552,1,0,0:0:0:0:
328,152,185718,1,0,0:0:0:0:
280,88,185802,1,0,0:0:0:0:
328,88,185885,1,0,0:0:0:0:
456,88,186052,1,0,0:0:0:0:
328,24,186218,1,0,0:0:0:0:
56,160,186385,5,0,0:0:0:0:
184,160,186552,1,0,0:0:0:0:
56,224,186718,1,0,0:0:0:0:
184,224,186885,1,0,0:0:0:0:
120,224,187052,1,0,0:0:0:0:
248,224,187218,1,0,0:0:0:0:
184,288,187385,1,0,0:0:0:0:
312,224,187552,1,0,0:0:0:0:
88,288,187718,5,0,0:0:0:0:
40,288,187802,1,0,0:0:0:0:
88,352,187885,1,0,0:0:0:0:
248,352,188052,1,0,0:0:0:0:
152,352,188218,1,0,0:0:0:0:
368,352,188385,1,0,0:0:0:0:
312,352,188468,1,0,0:0:0:0:
368,288,188552,1,0,0:0:0:0:
496,224,188718,1,0,0:0:0:0:
368,224,188885,1,0,0:0:0:0:
96,224,189052,5,2,0:0:0:0:
224,224,189218,1,0,0:0:0:0:
160,160,189385,1,2,0:0:0:0:
80,160,189552,1,0,0:0:0:0:
336,160,189718,1,2,0:0:0:0:
464,160,189885,1,8,0:0:0:0:
240,160,190052,1,2,0:0:0:0:
400,160,190218,1,2,0:0:0:0:
176,96,190385,5,2,0:0:0:0:
248,96,190468,1,0,0:0:0:0:
320,96,190552,1,0,0:0:0:0:
168,224,190718,2,0,B|168:144|168:144|168:224,1,160
320,288,191052,1,0,0:0:0:0:
248,288,191135,1,0,0:0:0:0:
176,288,191218,1,0,0:0:0:0:
320,160,191385,2,0,B|320:64|320:64|320:160,1,189.999994926453
416,160,191718,5,0,0:0:0:0:
320,96,191885,1,0,0:0:0:0:
416,96,192052,1,0,0:0:0:0:
288,32,192218,1,0,0:0:0:0:
192,32,192385,1,0,0:0:0:0:
296,96,192552,1,0,0:0:0:0:
160,96,192718,1,0,0:0:0:0:
272,160,192885,1,0,0:0:0:0:
192,160,192968,1,0,0:0:0:0:
112,160,193052,5,0,0:0:0:0:
392,224,193385,1,0,0:0:0:0:
64,224,193718,1,0,0:0:0:0:
392,288,194052,1,0,0:0:0:0:
112,288,194552,5,0,0:0:0:0:
336,288,194718,1,4,0:0:0:0:
232,288,194885,1,0,0:0:0:0:
456,288,195052,1,0,0:0:0:0:
112,224,195385,1,4,0:0:0:0:
256,192,195718,12,4,199218,0:0:0:0:
