osu file format v13

[General]
AudioFilename: thestar.mp3
AudioLeadIn: 0
PreviewTime: 85217
Countdown: 1
SampleSet: Soft
StackLeniency: 0.7
Mode: 0
LetterboxInBreaks: 1
WidescreenStoryboard: 0

[Editor]
DistanceSpacing: 1
BeatDivisor: 4
GridSize: 8
TimelineZoom: 1

[Metadata]
Title:The Star
TitleUnicode:The Star
Artist:vitas
ArtistUnicode:Витас
Creator:CaracalCaptain
Version:Insane
Source:
Tags:(Виталий Владасович Грачёв Опера2
BeatmapID:536417
BeatmapSetID:230693

[Difficulty]
HPDrainRate:10
CircleSize:5
OverallDifficulty:8
ApproachRate:7
SliderMultiplier:2
SliderTickRate:1

[Events]
//Background and Video events
0,0,"babg.jpg",0,0
//Break Periods
//Storyboard Layer 0 (Background)
//Storyboard Layer 1 (Fail)
//Storyboard Layer 2 (Pass)
//Storyboard Layer 3 (Foreground)
//Storyboard Sound Samples
//Background Colour Transformations
3,100,163,162,255

[TimingPoints]
0,869.565217391304,4,2,0,70,1,0
85217,-66.6666666666667,4,1,0,70,0,1
88478,-66.6666666666667,4,1,0,70,0,0
88695,-66.6666666666667,4,1,0,70,0,1
95434,-66.6666666666667,4,1,0,70,0,0
95652,-66.6666666666667,4,1,0,70,0,1
102173,-66.6666666666667,4,1,0,70,0,0
102391,-66.6666666666667,4,1,0,70,0,1
109347,-66.6666666666667,4,1,0,70,0,0
109565,-66.6666666666667,4,1,0,70,0,1
113260,-100,4,2,0,70,0,0
168695,-100,4,2,0,40,0,0
169130,-100,4,2,0,45,0,0
169565,-100,4,2,0,50,0,0
169999,-100,4,2,0,55,0,0
170434,-100,4,2,0,60,0,0
170869,-100,4,2,0,65,0,0
171304,-100,4,2,0,70,0,0
171739,-100,4,2,0,80,0,0
172173,-66.6666666666667,4,1,0,80,0,1
175434,-66.6666666666667,4,1,0,80,0,0
175652,-66.6666666666667,4,1,0,80,0,1
182391,-66.6666666666667,4,1,0,80,0,0
182608,-66.6666666666667,4,1,0,80,0,1
189130,-66.6666666666667,4,1,0,80,0,0
189347,-66.6666666666667,4,1,0,80,0,1
196304,-66.6666666666667,4,1,0,80,0,0
196521,-66.6666666666667,4,1,0,80,0,1
199999,-66.6666666666667,4,1,0,80,0,0
200217,-66.6666666666667,4,1,0,80,0,1
203478,-66.6666666666667,4,1,0,80,0,0
205869,-66.6666666666667,4,1,0,80,0,1
206304,-66.6666666666667,4,1,0,80,0,0

[HitObjects]
184,312,0,5,0,0:0:0:0:
56,176,434,1,0,0:0:0:0:
192,72,869,2,0,P|248:96|296:80,1,100,8|0,0:0|0:0,0:0:0:0:
208,256,1739,1,0,0:0:0:0:
320,120,2173,1,0,0:0:0:0:
504,80,2608,2,0,P|480:16|448:8,1,100,8|0,0:0|0:0,0:0:0:0:
56,120,3478,6,0,L|192:120,1,100,0|2,0:0|0:0,0:0:0:0:
424,184,4347,2,0,L|280:184,1,100,0|2,0:0|0:0,0:0:0:0:
56,280,5217,2,0,L|192:280,1,100,0|2,0:0|0:0,0:0:0:0:
416,56,6086,2,0,L|272:56,1,100,0|2,0:0|0:0,0:0:0:0:
64,136,6956,5,0,0:0:0:0:
160,40,7391,1,0,0:0:0:0:
200,296,7826,2,0,P|264:272|288:224,1,100,8|0,0:0|0:0,0:0:0:0:
360,64,8695,1,0,0:0:0:0:
464,160,9130,1,0,0:0:0:0:
312,312,9565,2,0,L|192:312,1,100,8|0,0:0|0:0,0:0:0:0:
144,224,10652,5,2,0:0:0:0:
208,120,10869,1,2,0:0:0:0:
96,160,11086,1,2,0:0:0:0:
64,272,11304,1,2,0:0:0:0:
176,256,11521,1,2,0:0:0:0:
288,288,11739,1,2,0:0:0:0:
296,176,11956,1,2,0:0:0:0:
352,64,12173,1,2,0:0:0:0:
192,56,12391,1,2,0:0:0:0:
64,112,12608,2,0,P|96:168|160:160,2,100,2|8|2,0:0|0:0|0:0,0:0:0:0:
104,240,13913,5,0,0:0:0:0:
256,312,14347,1,0,0:0:0:0:
352,144,14782,2,0,P|296:88|256:80,1,100,8|0,0:0|0:0,0:0:0:0:
48,136,15652,1,0,0:0:0:0:
168,288,16086,2,0,P|240:312|296:296,1,100,8|0,0:0|0:0,0:0:0:0:
256,192,16956,1,8,0:0:0:0:
256,192,17173,12,2,20434,0:0:0:0:
256,192,20869,5,0,0:0:0:0:
256,192,21304,1,0,0:0:0:0:
144,64,21739,2,0,P|104:104|80:160,1,100,8|0,0:0|0:0,0:0:0:0:
176,296,22608,1,0,0:0:0:0:
384,272,23043,1,0,0:0:0:0:
344,88,23478,2,0,P|280:64|208:72,1,100,8|0,0:0|0:0,0:0:0:0:
256,104,24565,5,2,0:0:0:0:
344,192,24782,1,2,0:0:0:0:
256,280,24999,1,2,0:0:0:0:
168,192,25217,1,2,0:0:0:0:
320,128,25434,1,2,0:0:0:0:
320,256,25652,1,2,0:0:0:0:
192,256,25869,1,2,0:0:0:0:
192,128,26086,1,2,0:0:0:0:
344,192,26304,1,2,0:0:0:0:
256,280,26521,1,2,0:0:0:0:
168,192,26739,1,2,0:0:0:0:
256,104,26956,1,2,0:0:0:0:
320,256,27173,1,2,0:0:0:0:
192,256,27391,1,2,0:0:0:0:
192,128,27608,1,2,0:0:0:0:
392,72,27826,6,0,L|432:128,1,50,0|8,0:0|0:0,0:0:0:0:
328,152,28260,2,0,L|376:224,1,50,0|8,0:0|0:0,0:0:0:0:
232,112,28695,2,0,L|264:176,2,50,2|2|2,0:0|0:0|0:0,0:0:0:0:
136,192,29347,2,0,P|184:288|304:232,1,250,8|2,0:0|0:0,0:0:0:0:
248,264,30869,5,8,0:0:0:0:
184,144,31086,1,8,0:0:0:0:
304,72,31304,2,0,P|368:96|376:240,1,200,8|0,0:0|0:0,0:0:0:0:
144,152,32608,1,2,0:0:0:0:
240,264,33043,2,0,P|288:184|240:96,1,200,8|0,0:0|0:0,0:0:0:0:
152,280,34347,1,2,0:0:0:0:
88,160,34782,5,0,0:0:0:0:
88,56,34999,1,8,0:0:0:0:
200,56,35217,1,0,0:0:0:0:
200,160,35434,1,8,0:0:0:0:
328,160,35652,1,2,0:0:0:0:
272,264,35869,1,2,0:0:0:0:
136,256,36086,1,2,0:0:0:0:
56,168,36304,1,8,0:0:0:0:
88,136,36413,2,0,B|160:104|200:160|320:112,1,225,8|2,0:0|0:0,0:0:0:0:
152,144,37826,5,8,0:0:0:0:
280,80,38043,2,0,L|304:120,1,25,2|2,0:0|0:0,0:0:0:0:
352,80,38260,2,0,L|416:176,1,100,8|0,0:0|0:0,0:0:0:0:
256,192,39130,1,2,0:0:0:0:
216,312,39565,2,0,P|152:272|152:264,1,50,0|8,0:0|0:0,0:0:0:0:
336,272,39999,1,0,0:0:0:0:
352,104,40434,1,0,0:0:0:0:
208,72,40869,1,2,0:0:0:0:
208,192,41304,1,2,0:0:0:0:
56,112,41739,5,0,0:0:0:0:
128,40,41956,1,8,0:0:0:0:
200,128,42173,1,0,0:0:0:0:
96,168,42391,1,8,0:0:0:0:
184,112,42608,1,0,0:0:0:0:
80,40,42826,1,0,0:0:0:0:
248,32,43043,2,0,L|296:32,1,25,2|2,0:0|0:0,0:0:0:0:
320,32,43260,2,0,P|424:80|432:216,1,250,8|0,0:0|0:0,0:0:0:0:
216,192,44782,5,2,0:0:0:0:
256,296,45217,2,0,P|336:232|312:112,1,200,8|2,0:0|0:0,0:0:0:0:
80,176,46521,2,0,P|144:128|144:120,1,75,8|8,0:0|0:0,0:0:0:0:
144,56,46956,2,0,P|264:56|312:128,1,200,8|2,0:0|0:0,0:0:0:0:
144,56,48260,1,2,0:0:0:0:
88,232,48695,5,0,0:0:0:0:
216,280,48913,1,8,0:0:0:0:
184,184,49130,1,0,0:0:0:0:
296,216,49347,1,8,0:0:0:0:
272,112,49565,1,0,0:0:0:0:
392,152,49782,1,0,0:0:0:0:
392,72,49999,1,8,0:0:0:0:
504,80,50217,2,0,B|504:208|504:208|352:208,1,250,8|2,0:0|0:0,0:0:0:0:
144,144,51739,5,8,0:0:0:0:
256,232,51956,1,8,0:0:0:0:
336,80,52173,2,0,P|440:160|400:216,1,200,8|2,0:0|0:0,0:0:0:0:
208,312,53478,2,0,P|176:272|176:240,1,75,8|8,0:0|0:0,0:0:0:0:
176,216,53913,2,0,P|176:48|192:40,1,200,8|2,0:0|0:0,0:0:0:0:
368,64,55217,1,2,0:0:0:0:
392,176,55652,5,0,0:0:0:0:
432,280,55869,1,8,0:0:0:0:
312,296,56087,1,0,0:0:0:0:
256,192,56304,1,8,0:0:0:0:
136,240,56522,1,0,0:0:0:0:
168,128,56739,1,0,0:0:0:0:
296,88,56956,1,8,0:0:0:0:
360,192,57173,2,0,P|288:280|152:208,1,250,8|2,0:0|0:0,0:0:0:0:
320,120,58695,5,8,0:0:0:0:
232,48,59130,2,0,B|192:96|216:160|216:160|120:192,1,200,8|2,0:0|0:0,0:0:0:0:
320,120,60434,1,8,0:0:0:0:
320,264,60869,2,0,P|400:184|408:96,1,200,8|2,0:0|0:0,0:0:0:0:
256,192,62174,1,2,0:0:0:0:
368,160,62609,5,0,0:0:0:0:
360,304,62826,1,8,0:0:0:0:
264,232,63043,1,0,0:0:0:0:
272,128,63261,1,8,0:0:0:0:
376,224,63478,1,0,0:0:0:0:
256,336,63696,1,0,0:0:0:0:
152,288,63913,1,8,0:0:0:0:
64,224,64130,2,0,P|80:112|216:80,1,250,8|2,0:0|0:0,0:0:0:0:
344,128,65652,6,0,L|256:112|256:112,1,75,8|8,0:0|0:0,0:0:0:0:
240,104,66086,2,0,P|160:96|160:216,1,200,8|2,0:0|0:0,0:0:0:0:
456,176,67391,2,0,P|392:224|392:232,1,75,8|8,0:0|0:0,0:0:0:0:
384,232,67826,2,0,P|344:312|248:264,1,200,8|2,0:0|0:0,0:0:0:0:
168,272,69130,1,2,0:0:0:0:
120,224,69347,6,0,L|96:152,1,75,8|8,0:0|0:0,0:0:0:0:
96,120,69782,1,8,0:0:0:0:
208,104,69999,1,2,0:0:0:0:
288,144,70217,1,10,0:0:0:0:
400,144,70434,1,0,0:0:0:0:
368,288,70869,2,0,P|312:312|304:312,1,50,2|2,0:0|0:0,0:0:0:0:
280,312,71304,2,0,P|184:288|136:168,1,200,8|2,0:0|0:0,0:0:0:0:
264,168,72608,5,8,0:0:0:0:
352,240,73043,2,0,P|400:176|368:48,1,200,8|2,0:0|0:0,0:0:0:0:
152,232,74238,1,8,0:0:0:0:
176,256,74347,2,0,P|224:256|264:232,1,75,8|8,0:0|0:0,0:0:0:0:
264,208,74782,2,0,P|336:136|304:32,1,200,8|2,0:0|0:0,0:0:0:0:
224,112,76086,1,2,0:0:0:0:
112,112,76521,6,0,P|128:168|144:176,1,50,8|2,0:0|0:0,0:0:0:0:
160,184,76847,1,2,0:0:0:0:
200,208,76956,2,0,P|208:240|200:272,1,50,2|8,0:0|0:0,0:0:0:0:
400,112,77391,2,0,P|384:168|368:176,1,50,8|2,0:0|0:0,0:0:0:0:
352,184,77717,1,2,0:0:0:0:
312,208,77826,2,0,P|304:240|312:272,1,50,2|8,0:0|0:0,0:0:0:0:
256,280,78260,2,0,L|256:64,1,200,8|2,0:0|0:0,0:0:0:0:
152,120,79782,5,8,0:0:0:0:
352,72,79999,5,8,0:0:0:0:
128,224,81195,5,8,0:0:0:0:
176,216,81304,2,0,P|208:168|208:144,1,75,8|8,0:0|0:0,0:0:0:0:
184,112,81738,1,8,0:0:0:0:
256,192,81956,12,2,83478,0:0:0:0:
256,192,83913,5,2,0:0:0:0:
256,192,84347,5,2,0:0:0:0:
256,192,84782,5,2,0:0:0:0:
128,112,85217,5,0,0:0:0:0:
256,192,85434,12,0,86086,0:0:0:0:
288,64,86521,5,0,0:0:0:0:
392,136,86739,1,0,0:0:0:0:
280,304,86956,2,0,P|176:288|144:256,1,150.000005722046,8|0,0:0|0:0,0:0:0:0:
88,104,87608,1,8,0:0:0:0:
256,64,88043,2,0,P|360:72|400:144,1,150.000005722046,8|8,0:0|0:0,0:0:0:0:
256,192,88695,12,0,91304,0:0:0:0:
256,192,92173,5,8,0:0:0:0:
256,192,92391,12,0,93043,0:0:0:0:
160,80,93478,5,8,0:0:0:0:
112,240,93695,1,8,0:0:0:0:
288,280,93913,2,0,P|280:184|352:136,1,150.000005722046,0|8,0:0|0:0,0:0:0:0:
288,72,94565,2,0,P|216:128|200:248,1,150.000005722046,8|8,0:0|0:0,0:0:0:0:
256,192,95652,12,0,98260,0:0:0:0:
256,192,98913,5,0,0:0:0:0:
256,192,99021,1,0,0:0:0:0:
256,192,99130,1,8,0:0:0:0:
256,192,99239,12,0,99999,0:0:0:0:
144,272,100434,5,0,0:0:0:0:
312,312,100652,1,0,0:0:0:0:
384,144,100869,2,0,P|344:80|248:48,1,150.000005722046,8|0,0:0|0:0,0:0:0:0:
208,176,101521,2,0,P|280:128|296:216,1,150.000005722046,8|8,0:0|0:0,0:0:0:0:
256,192,102391,12,0,105217,0:0:0:0:
256,192,106086,5,8,0:0:0:0:
256,192,106304,12,0,106956,0:0:0:0:
128,64,107391,5,8,0:0:0:0:
104,208,107608,1,8,0:0:0:0:
192,264,107826,2,0,P|304:256|320:208,1,150.000005722046,0|8,0:0|0:0,0:0:0:0:
304,72,108478,2,0,P|272:160|144:224,1,225.000008583069,8|0,0:0|0:0,0:0:0:0:
160,224,109347,1,8,0:0:0:0:
256,192,109565,12,0,112173,0:0:0:0:
124,127,112608,6,0,P|183:173|248:192,1,112.500004291535,0|8,0:0|0:0,0:0:0:0:
240,224,113043,1,8,0:0:0:0:
320,312,113912,6,0,P|264:288|216:304,1,100,2|0,0:0|0:0,0:0:0:0:
280,152,114782,1,0,0:0:0:0:
192,264,115216,1,0,0:0:0:0:
8,304,115651,2,0,P|32:368|64:376,1,100,2|0,0:0|0:0,0:0:0:0:
456,264,116521,6,0,L|320:264,1,100,0|2,0:0|0:0,0:0:0:0:
88,200,117391,2,0,L|224:200,1,100,0|2,0:0|0:0,0:0:0:0:
456,104,118260,2,0,L|320:104,1,100,0|2,0:0|0:0,0:0:0:0:
96,328,119130,2,0,L|240:328,1,100,0|2,0:0|0:0,0:0:0:0:
448,248,119999,5,0,0:0:0:0:
304,256,120434,1,0,0:0:0:0:
312,88,120869,2,0,P|248:112|224:160,1,100,8|0,0:0|0:0,0:0:0:0:
152,320,121738,1,0,0:0:0:0:
80,192,122173,1,0,0:0:0:0:
200,72,122608,2,0,L|320:72,1,100,8|0,0:0|0:0,0:0:0:0:
368,160,123695,5,2,0:0:0:0:
312,248,123912,1,2,0:0:0:0:
440,232,124129,1,2,0:0:0:0:
432,80,124347,1,2,0:0:0:0:
304,72,124564,1,2,0:0:0:0:
200,136,124782,1,2,0:0:0:0:
216,240,124999,1,2,0:0:0:0:
104,288,125216,1,2,0:0:0:0:
232,312,125434,1,2,0:0:0:0:
368,280,125651,2,0,P|336:224|272:232,2,100,2|8|2,0:0|0:0|0:0,0:0:0:0:
376,144,126956,5,0,0:0:0:0:
232,112,127390,1,0,0:0:0:0:
160,240,127825,2,0,P|216:296|256:304,1,100,8|0,0:0|0:0,0:0:0:0:
368,216,128695,1,0,0:0:0:0:
344,96,129130,2,0,P|272:72|216:88,1,100,8|0,0:0|0:0,0:0:0:0:
256,192,129999,1,8,0:0:0:0:
256,192,130216,12,2,133477,0:0:0:0:
256,192,133912,5,0,0:0:0:0:
256,192,134347,1,0,0:0:0:0:
368,320,134782,2,0,P|408:280|432:224,1,100,8|0,0:0|0:0,0:0:0:0:
296,136,135651,1,0,0:0:0:0:
136,168,136086,1,0,0:0:0:0:
168,296,136521,2,0,P|232:320|304:312,1,100,8|0,0:0|0:0,0:0:0:0:
256,280,137608,5,2,0:0:0:0:
168,192,137825,1,2,0:0:0:0:
256,104,138042,1,2,0:0:0:0:
344,192,138260,1,2,0:0:0:0:
192,256,138477,1,2,0:0:0:0:
192,128,138695,1,2,0:0:0:0:
320,128,138912,1,2,0:0:0:0:
320,256,139129,1,2,0:0:0:0:
168,192,139347,1,2,0:0:0:0:
256,104,139564,1,2,0:0:0:0:
344,192,139782,1,2,0:0:0:0:
256,280,139999,1,2,0:0:0:0:
192,128,140216,1,2,0:0:0:0:
320,128,140434,1,2,0:0:0:0:
320,256,140651,1,2,0:0:0:0:
144,288,140869,6,0,L|104:232,2,50,8|8|8,0:0|0:0|0:0,0:0:0:0:
208,216,141739,2,0,P|160:168|152:136,1,100,8|2,0:0|0:0,0:0:0:0:
288,176,142391,1,2,0:0:0:0:
376,192,142608,2,0,P|328:96|224:136,1,200,8|0,0:0|0:0,0:0:0:0:
208,56,143695,5,8,0:0:0:0:
272,64,143804,2,0,P|328:96|328:112,1,75,8|2,0:0|0:0,0:0:0:0:
240,248,144347,2,0,P|176:224|168:80,1,200,8|2,0:0|0:0,0:0:0:0:
344,200,145651,1,8,0:0:0:0:
272,120,146086,2,0,P|224:200|272:288,1,200,8|2,0:0|0:0,0:0:0:0:
360,104,147390,1,2,0:0:0:0:
432,240,147825,5,0,0:0:0:0:
352,312,148042,1,8,0:0:0:0:
224,304,148260,1,0,0:0:0:0:
280,216,148477,1,8,0:0:0:0:
168,192,148695,1,0,0:0:0:0:
224,128,148912,1,2,0:0:0:0:
272,112,149021,1,2,0:0:0:0:
320,120,149130,1,2,0:0:0:0:
368,144,149239,1,2,0:0:0:0:
408,176,149347,1,2,0:0:0:0:
408,216,149565,2,0,B|336:248|296:192|192:240,1,200,8|2,0:0|0:0,0:0:0:0:
208,104,150760,5,8,0:0:0:0:
176,216,151086,2,0,L|152:176,1,25,8|8,0:0|0:0,0:0:0:0:
104,224,151303,2,0,P|52:150|72:32,1,200,8|2,0:0|0:0,0:0:0:0:
224,24,152499,2,0,P|288:64|288:72,1,50,8|2,0:0|0:0,0:0:0:0:
160,120,152934,2,0,P|136:176|216:320,1,225,8|2,0:0|0:0,0:0:0:0:
256,192,154347,1,2,0:0:0:0:
360,112,154782,5,0,0:0:0:0:
480,200,154999,1,8,0:0:0:0:
448,328,155216,1,0,0:0:0:0:
416,344,155326,1,0,0:0:0:0:
376,344,155434,1,8,0:0:0:0:
344,240,155651,1,0,0:0:0:0:
248,256,155869,1,0,0:0:0:0:
184,344,156086,2,0,L|136:344,1,25,8|0,0:0|0:0,0:0:0:0:
64,336,156521,2,0,P|56:224|120:168,1,200,8|2,0:0|0:0,0:0:0:0:
296,192,157825,5,8,0:0:0:0:
256,88,158260,2,0,P|176:152|160:160,2,100,8|2|10,0:0|0:0|0:0,0:0:0:0:
384,312,159891,1,8,0:0:0:0:
368,328,159999,2,0,P|248:328|200:256,1,200,8|2,0:0|0:0,0:0:0:0:
368,328,161303,1,2,0:0:0:0:
424,152,161738,5,0,0:0:0:0:
296,144,161956,1,8,0:0:0:0:
344,240,162173,1,0,0:0:0:0:
184,208,162390,1,8,0:0:0:0:
240,280,162608,1,0,0:0:0:0:
80,256,162825,1,0,0:0:0:0:
136,320,163042,1,8,0:0:0:0:
8,304,163260,1,0,0:0:0:0:
8,304,163369,1,0,0:0:0:0:
8,304,163478,2,0,B|8:176|8:176|88:176,1,200,8|2,0:0|0:0,0:0:0:0:
272,248,164782,5,2,0:0:0:0:
224,184,164999,1,2,0:0:0:0:
176,304,165217,2,0,P|96:248|80:240,1,100,8|8,0:0|0:0,0:0:0:0:
304,72,166521,2,0,P|336:112|336:144,1,75,2|8,0:0|0:0,0:0:0:0:
352,184,166956,2,0,P|376:288|376:296,1,100,2|8,0:0|0:0,0:0:0:0:
192,328,167826,2,0,P|128:280|128:256,1,100,2|2,0:0|0:0,0:0:0:0:
56,144,168695,6,0,L|144:176,1,50,2|2,0:0|0:0,0:0:0:0:
144,56,169130,2,0,L|184:120,1,50,2|2,0:0|0:0,0:0:0:0:
264,40,169565,2,0,L|264:104,1,50,2|2,0:0|0:0,0:0:0:0:
400,96,169999,2,0,L|352:144,1,50,2|2,0:0|0:0,0:0:0:0:
424,248,170434,2,0,L|336:232,1,50,2|2,0:0|0:0,0:0:0:0:
296,328,170869,2,0,L|264:256,1,50,2|2,0:0|0:0,0:0:0:0:
128,320,171304,2,0,L|168:256,1,50,2|2,0:0|0:0,0:0:0:0:
48,192,171739,2,0,L|136:184,1,50,2|2,0:0|0:0,0:0:0:0:
128,112,172173,5,0,0:0:0:0:
256,192,172390,12,0,173042,0:0:0:0:
224,320,173477,5,8,0:0:0:0:
120,248,173695,1,8,0:0:0:0:
232,80,173912,2,0,P|336:96|368:128,1,150.000005722046,8|0,0:0|0:0,0:0:0:0:
424,280,174564,1,8,0:0:0:0:
256,320,174999,2,0,P|152:312|112:240,1,150.000005722046,8|8,0:0|0:0,0:0:0:0:
256,192,175651,12,0,178260,0:0:0:0:
256,192,179129,5,8,0:0:0:0:
256,192,179347,12,0,179999,0:0:0:0:
352,304,180434,5,8,0:0:0:0:
400,144,180651,1,8,0:0:0:0:
224,104,180869,2,0,P|232:200|160:248,1,150.000005722046,0|8,0:0|0:0,0:0:0:0:
224,312,181521,2,0,P|296:256|312:136,1,150.000005722046,0|8,0:0|0:0,0:0:0:0:
256,192,182608,12,0,185216,0:0:0:0:
256,192,185869,5,0,0:0:0:0:
256,192,185977,1,0,0:0:0:0:
256,192,186086,1,8,0:0:0:0:
256,192,186195,12,0,186955,0:0:0:0:
368,112,187390,5,8,0:0:0:0:
200,72,187608,1,8,0:0:0:0:
128,240,187825,2,0,P|168:304|264:336,1,150.000005722046,0|8,0:0|0:0,0:0:0:0:
304,208,188478,2,0,P|232:256|216:168,1,150.000005722046,0|8,0:0|0:0,0:0:0:0:
256,192,189347,12,0,192173,0:0:0:0:
256,192,193042,5,8,0:0:0:0:
256,192,193260,12,0,193912,0:0:0:0:
384,320,194347,5,8,0:0:0:0:
408,176,194564,1,8,0:0:0:0:
320,120,194782,2,0,P|208:128|192:176,1,150.000005722046,0|8,0:0|0:0,0:0:0:0:
208,312,195434,2,0,P|240:224|368:160,1,225.000008583069,0|8,0:0|0:0,0:0:0:0:
352,160,196303,1,8,0:0:0:0:
256,192,196521,12,0,199129,0:0:0:0:
388,257,199564,6,0,P|329:211|264:192,1,112.500004291535,8|8,0:0|0:0,0:0:0:0:
272,160,199999,1,8,0:0:0:0:
256,192,200217,12,0,206086,0:0:0:0:
