osu file format v14

[General]
AudioFilename: vistlip - Yoru (TV size ver.).mp3
AudioLeadIn: 2000
PreviewTime: 40092
Countdown: 0
SampleSet: Soft
StackLeniency: 0.7
Mode: 0
LetterboxInBreaks: 0
WidescreenStoryboard: 1

[Editor]
Bookmarks: 13485,16164,17592,86342,88307,89021,89735
DistanceSpacing: 1.2
BeatDivisor: 4
GridSize: 8
TimelineZoom: 0.9600002

[Metadata]
Title:Yoru (TV-Size)
TitleUnicode:夜 (TV-Size)
Artist:vistlip
ArtistUnicode:vistlip
Creator:Rina-desu
Version:Sunset
Source:暁のヨナ
Tags:ending akatsuki no yona version 暁のヨナ Yona of the Dawn Yona: The girl standing in the blush of dawn tv size
BeatmapID:619821
BeatmapSetID:262011

[Difficulty]
HPDrainRate:2
CircleSize:2
OverallDifficulty:2
ApproachRate:3
SliderMultiplier:1.7
SliderTickRate:2

[Events]
//Background and Video events
0,0,"akatsukinoyona.png",0,0
Video,0,"ed.avi"
//Break Periods
2,13506,16152
//Storyboard Layer 0 (Background)
//Storyboard Layer 1 (Fail)
//Storyboard Layer 2 (Pass)
//Storyboard Layer 3 (Foreground)
//Storyboard Sound Samples

[TimingPoints]
450,714.285714285714,4,2,0,40,1,0
17592,-100,4,2,0,40,0,0
40449,-100,4,3,0,60,0,0
63307,-100,4,3,0,80,0,1
74021,-100,4,3,0,80,0,0
82771,-100,4,3,0,80,0,0
89735,-100,4,3,0,80,0,0

[Colours]
Combo1 : 170,170,255
Combo2 : 200,255,200
Combo3 : 172,209,255
Combo4 : 250,171,183
Combo5 : 255,231,155

[HitObjects]
104,160,450,6,0,P|256:96|424:192,1,340
256,304,2592,1,0,0:0:0:0:
88,184,3307,2,0,P|136:120|224:128,1,170
400,224,4735,2,0,P|416:176|400:144,1,85
328,72,5449,2,0,P|248:32|168:56,1,170
256,240,6878,6,0,P|320:296|408:264,2,170
128,80,9021,2,0,P|208:24|280:40,1,170
240,240,10449,1,0,0:0:0:0:
424,320,11164,2,0,L|472:152,1,170
272,104,12592,2,0,P|176:128|144:192,1,170
368,80,17592,6,0,P|448:104|464:184,2,170
320,280,19735,1,0,0:0:0:0:
120,280,20449,6,0,P|48:232|64:144,2,170
328,288,22592,2,0,L|400:344,2,85
328,80,24021,1,0,0:0:0:0:
128,80,24735,6,0,L|96:168,1,85
72,256,25449,1,0,0:0:0:0:
264,320,26164,2,0,L|352:320,2,85
256,120,27592,2,0,L|360:160,2,85
368,296,29021,6,0,L|456:144,1,170
264,72,30449,1,0,0:0:0:0:
88,184,31164,1,0,0:0:0:0:
256,296,31878,6,0,P|344:312|416:272,1,170
344,88,33307,1,0,0:0:0:0:
144,80,34021,2,0,P|56:120|40:200,1,170
240,224,35449,6,0,P|216:264|224:304,1,85
320,328,36164,2,0,P|360:336|408:328,1,85
504,320,36878,1,0,0:0:0:0:
344,192,37592,1,0,0:0:0:0:
184,320,38307,1,0,0:0:0:0:
80,184,40449,6,0,P|104:96|176:64,1,170
352,168,41878,2,0,P|392:176|424:208,1,85
432,304,42592,1,0,0:0:0:0:
336,272,42949,2,0,L|256:216,2,85
256,336,44021,5,0,0:0:0:0:
80,240,44735,1,0,0:0:0:0:
208,80,45449,2,0,B|296:80|296:80|336:120|408:120|408:120,1,170
448,304,46878,5,0,0:0:0:0:
248,304,47592,2,0,P|176:280|216:216,1,170
408,152,49021,2,0,P|428:78|352:76,1,170
152,72,50449,2,0,P|96:80|80:104,1,85
72,200,51164,1,0,0:0:0:0:
256,296,51878,6,0,P|344:296|416:232,1,170
312,200,52949,1,0,0:0:0:0:
368,112,53307,2,0,P|272:112|208:176,1,170
56,32,54735,2,0,P|8:96|24:200,2,170
232,136,56878,1,0,0:0:0:0:
256,336,57592,6,0,P|168:328|112:264,1,170
208,232,58664,2,0,P|176:192|120:184,1,85
48,152,59378,2,0,P|32:104|72:64,1,85
248,112,60449,1,0,0:0:0:0:
320,184,60807,2,0,P|352:104|296:32,2,170
408,240,62592,2,0,P|440:264|464:312,1,85
352,328,63307,6,0,P|304:336|256:320,1,85
176,288,64021,1,0,0:0:0:0:
72,288,64378,2,0,P|72:240|96:208,1,85
144,128,65092,2,0,P|96:112|56:128,2,85
248,128,66164,5,0,0:0:0:0:
416,120,66878,2,0,P|448:208|392:288,1,170
216,312,68307,2,0,L|56:240,1,170
96,144,69378,2,0,L|200:192,1,85
312,40,70449,2,0,P|384:88|400:176,1,170
312,216,71521,2,0,P|336:304|416:336,1,170
408,208,72592,2,0,L|408:112,2,85
232,312,74021,5,0,0:0:0:0:
56,224,74735,2,0,P|56:176|112:128,1,85
152,80,75449,2,0,P|232:48|304:80,1,170
320,208,76878,1,0,0:0:0:0:
384,128,77235,2,0,P|432:200|376:296,1,170
208,304,78664,2,0,L|136:256,1,85
40,216,79378,2,0,P|72:176|112:152,1,85
272,48,80449,5,0,0:0:0:0:
376,48,80807,2,0,P|440:88|448:176,1,170
416,272,81878,2,0,P|376:320|272:336,1,170
120,200,83307,1,0,0:0:0:0:
264,56,84021,1,0,0:0:0:0:
408,200,84735,1,0,0:0:0:0:
208,200,85449,2,0,L|112:200,2,85
256,192,86342,12,0,89021,0:0:0:0:
