osu file format v14

[General]
AudioFilename: vistlip - Yoru (TV size ver.).mp3
AudioLeadIn: 2000
PreviewTime: 40092
Countdown: 0
SampleSet: None
StackLeniency: 0.7
Mode: 0
LetterboxInBreaks: 0
WidescreenStoryboard: 1

[Editor]
Bookmarks: 13485,16521,86164,88307,89021,89735
DistanceSpacing: 1.2
BeatDivisor: 4
GridSize: 8
TimelineZoom: 0.9600002

[Metadata]
Title:Yoru (TV-Size)
TitleUnicode:夜 (TV-Size)
Artist:vistlip
ArtistUnicode:vistlip
Creator:Rina-desu
Version:Midnight
Source:暁のヨナ
Tags:ending akatsuki no yona version 暁のヨナ Yona of the Dawn Yona: The girl standing in the blush of dawn tv size
BeatmapID:646092
BeatmapSetID:262011

[Difficulty]
HPDrainRate:4
CircleSize:3
OverallDifficulty:5
ApproachRate:5
SliderMultiplier:2
SliderTickRate:2

[Events]
//Background and Video events
Video,0,"ed.avi"
0,0,"akatsukinoyona.png",0,0
//Break Periods
2,13506,16392
//Storyboard Layer 0 (Background)
//Storyboard Layer 1 (Fail)
//Storyboard Layer 2 (Pass)
//Storyboard Layer 3 (Foreground)
//Storyboard Sound Samples

[TimingPoints]
450,714.285714285714,4,2,0,40,1,0
17592,-100,4,2,0,40,0,0
40449,-100,4,3,0,60,0,0
63307,-100,4,3,0,80,0,1
74021,-100,4,3,0,80,0,0
82414,-100,4,3,0,80,0,0
89735,-100,4,3,0,80,0,0

[Colours]
Combo1 : 170,170,255
Combo2 : 200,255,200
Combo3 : 172,209,255
Combo4 : 250,171,183
Combo5 : 255,231,155

[HitObjects]
88,328,450,6,0,P|64:280|88:216,1,100
184,272,1164,1,0,0:0:0:0:
416,320,1878,2,0,P|464:232|408:160,1,200
320,248,2949,2,0,P|288:208|296:160,1,100
72,72,4021,5,0,0:0:0:0:
280,200,4735,1,0,0:0:0:0:
168,248,5092,1,0,0:0:0:0:
168,248,5449,1,0,0:0:0:0:
352,88,6164,6,0,P|304:64|256:80,2,100
240,304,7592,2,0,P|144:272|120:176,1,200
352,144,9021,1,0,0:0:0:0:
200,328,9735,1,0,0:0:0:0:
200,328,10092,2,0,P|144:320|120:288,1,100
96,168,10807,2,0,P|144:136|200:152,1,100
384,272,11878,5,0,0:0:0:0:
504,272,12235,2,0,P|496:216|464:192,1,100
344,184,12949,2,0,P|360:128|400:112,1,100
120,128,17592,6,0,P|80:232|160:296,1,200
216,200,18664,2,0,L|320:192,1,100
392,96,19378,2,0,L|288:104,1,100
192,56,20449,6,0,P|144:160|64:192,1,200
72,312,21521,2,0,P|128:312|160:352,2,100
69,191,22592,1,0,0:0:0:0:
264,48,23307,6,0,P|296:8|344:0,1,100
360,120,24021,1,0,0:0:0:0:
360,120,24378,2,0,L|456:176,1,100
344,224,25092,2,0,L|248:168,1,100
232,288,25807,2,0,L|328:344,2,100
128,232,26878,5,0,0:0:0:0:
128,232,27235,2,0,L|40:168,2,100
136,112,28307,2,0,L|240:112,1,100
336,48,29021,6,0,P|440:48|440:144,2,200
112,128,31164,1,0,0:0:0:0:
336,208,31878,2,0,L|232:248,1,100
248,360,32592,2,0,P|304:360|352:320,1,100
408,240,33307,2,0,P|472:240|496:120,2,200
216,96,35449,6,0,P|312:64|384:144,1,200
408,240,36521,1,0,0:0:0:0:
408,240,36878,1,0,0:0:0:0:
392,120,37235,2,0,P|448:128|488:200,2,100
272,128,38307,1,0,0:0:0:0:
248,8,38664,2,0,P|192:24|160:72,2,100
272,128,39735,2,0,P|272:176|232:208,1,100
152,136,40449,5,0,0:0:0:0:
152,136,41164,2,0,P|120:192|128:224,1,100
248,184,41878,1,0,0:0:0:0:
448,312,42592,1,0,0:0:0:0:
392,208,42949,2,0,P|440:192|496:216,2,100
288,264,44021,1,0,0:0:0:0:
184,208,44378,2,0,P|136:192|80:216,2,100
232,320,45449,1,0,0:0:0:0:
432,184,46164,5,0,0:0:0:0:
336,120,46521,2,0,L|240:88,1,100
280,200,47235,2,0,L|184:168,1,100
96,88,47949,2,0,P|56:176|152:248,1,200
240,240,49021,2,0,B|304:264|312:296|344:320|416:336,2,200
16,160,51164,1,0,0:0:0:0:
240,72,51878,6,0,P|344:40|432:88,2,200
408,240,54021,1,0,0:0:0:0:
464,344,54378,1,0,0:0:0:0:
344,336,54735,2,0,P|240:368|152:320,2,200
120,248,56878,1,0,0:0:0:0:
8,208,57235,1,0,0:0:0:0:
0,112,57592,6,0,B|48:80|88:88|136:128|200:120,1,200
304,72,58664,2,0,P|360:64|408:96,1,100
480,168,59378,2,0,B|440:208|464:264|464:320|416:352,1,200
320,280,60449,5,0,0:0:0:0:
216,344,60807,1,0,0:0:0:0:
112,288,61164,2,0,L|24:240,2,100
344,240,62592,5,0,0:0:0:0:
344,240,62949,2,0,P|400:240|432:208,1,100
352,120,63664,1,0,0:0:0:0:
352,120,64021,2,0,P|304:88|240:112,1,100
280,216,64735,1,0,0:0:0:0:
176,152,65092,2,0,P|128:192|128:248,1,100
192,328,65807,2,0,P|136:360|72:344,2,100
224,216,66878,2,0,P|280:248|296:296,2,100
384,264,68307,6,0,P|416:320|464:336,1,100
472,216,69021,2,0,P|464:112|368:72,1,200
368,192,70092,1,0,0:0:0:0:
280,104,70449,2,0,P|224:168|304:272,2,200
496,200,72592,1,0,0:0:0:0:
280,104,73307,1,0,0:0:0:0:
160,312,74021,5,0,0:0:0:0:
272,280,74378,1,0,0:0:0:0:
384,240,74735,1,0,0:0:0:0:
256,40,75449,1,0,0:0:0:0:
256,40,76164,2,0,B|208:40|168:64|136:104|64:104,1,200
152,192,77235,1,0,0:0:0:0:
152,192,77592,2,0,P|200:216|256:208,1,100
336,136,78307,2,0,P|376:224|304:288,1,200
80,224,79735,6,0,P|40:312|112:376,1,200
192,288,80807,1,0,0:0:0:0:
256,184,81164,2,0,P|304:216|320:256,2,100
136,176,82235,1,0,0:0:0:0:
48,88,82592,2,0,P|144:48|240:112,1,200
320,168,83664,5,0,0:0:0:0:
416,240,84021,1,0,0:0:0:0:
416,240,84378,2,0,L|352:320,1,100
256,256,85092,1,0,0:0:0:0:
256,256,85449,2,0,L|336:160,1,100
256,192,86164,12,0,89021,0:0:0:0:
