osu file format v5

[General]
AudioFilename: verynezumi Sound Test in Touhou.mp3
AudioLeadIn: 0
PreviewTime: -1
Countdown: 1
SampleSet: Normal
StackLeniency: 0.7
Mode: 0
LetterboxInBreaks: 1

[Metadata]
Title:Sound Test in Touhou
Artist:verynezumi
Creator:Waffen
Version:Lunatic
Source:
Tags:

[Difficulty]
HPDrainRate:6
CircleSize:5
OverallDifficulty:8
SliderMultiplier:2.3
SliderTickRate:1

[Events]
//Background and Video events
1,0,"Sound Test in Touhou.flv"
//Break Periods
2,36450,38225
2,48450,51950
2,72200,78475
2,86075,87225
2,90074,90683
2,94700,99100
2,114950,123100
2,135825,147100
2,164575,179100
2,209700,211250
2,226200,243250
2,260075,267100
//Storyboard Layer 0 (Background)
//Storyboard Layer 1 (Failing)
//Storyboard Layer 2 (Passing)
//Storyboard Layer 3 (Foreground)
//Storyboard Sound Samples
//Background Colour Transformations
3,100,163,162,255

[TimingPoints]
24000,500,4,1,1,100,1

[HitObjects]
112,96,23000,1,0
138,132,23125,1,0
168,164,23250,1,0
201,193,23375,1,0
256,192,23500,12,0,24000
416,96,24500,5,0
27,94,25583,1,0
385,79,26583,1,0
366,102,26666,1,0
315,157,26875,1,0
245,213,27125,1,0
211,242,27250,1,0
175,269,27375,5,0
135,290,27500,1,0
90,291,27625,2,0,L|26:291,1,57.5
254,325,28375,2,0,L|254:197,1,115
119,200,29000,2,0,L|247:200,1,115
246,333,29625,2,0,L|118:333,1,115
217,229,30250,1,0
378,306,30750,5,0
425,229,31000,1,0
400,142,31250,1,0
328,87,31500,1,0
240,68,31750,1,0
256,192,32000,12,0,32375
144,112,32750,5,0
323,112,33250,1,0
233,112,33500,1,0
428,296,34250,1,0
428,161,34625,1,0
383,161,34750,2,0,L|287:241,1,115
205,240,35250,1,0
115,242,35500,1,0
25,243,35750,1,0
256,192,36000,12,0,36250
256,192,39125,12,0,40000
0,192,40250,5,0
96,192,40500,1,0
192,192,40750,1,0
288,192,41000,1,0
384,192,41250,1,0
384,96,41500,2,0,L|448:96,2,57.5
288,96,42000,5,0
288,192,42250,1,0
384,192,42500,1,0
384,96,42750,1,0
288,96,43000,1,0
336,176,43250,1,0
336,176,43375,1,0
336,176,43500,2,0,L|336:48,1,115
240,64,44000,5,0
240,160,44250,1,0
240,256,44500,1,0
240,352,44750,1,0
144,352,45000,1,0
144,256,45250,5,0
144,224,45375,1,0
144,192,45500,1,0
144,160,45625,1,0
144,128,45750,1,0
144,96,45875,1,0
176,96,46000,5,0
272,96,46250,1,0
368,96,46500,1,0
368,192,46750,1,0
272,192,47000,1,0
176,192,47250,1,0
176,240,47375,1,0
176,336,47625,1,0
208,336,47750,1,0
240,336,47875,1,0
256,192,48000,12,0,48250
400,128,53000,5,0
256,128,53375,1,0
128,128,53750,1,0
192,224,54000,1,0
336,224,54500,1,0
480,224,55000,5,0
480,224,55125,1,0
480,224,55250,1,0
480,224,55375,1,0
480,224,55500,2,0,L|480:96,1,115
368,128,56000,5,0
272,128,56250,1,0
176,128,56500,1,0
80,128,56750,1,0
112,208,57000,1,0
208,208,57250,1,0
304,208,57500,1,0
304,208,57625,1,0
304,208,57750,1,0
208,208,58000,5,0
256,288,58250,1,0
304,208,58500,1,0
208,208,58750,1,0
112,208,59000,1,0
128,304,59250,1,0
160,304,59375,1,0
192,304,59500,1,0
304,304,59750,5,0
400,304,60000,1,0
400,208,60250,1,0
400,112,60500,1,0
336,48,60750,1,0
240,48,61000,1,0
96,48,61250,5,0
96,80,61375,1,0
96,112,61500,1,0
96,144,61625,1,0
96,176,61750,1,0
96,208,61875,1,0
96,240,62000,1,0
192,240,62250,5,0
288,240,62500,1,0
240,320,62750,1,0
336,320,63000,1,0
416,240,63250,5,0
416,208,63375,1,0
416,176,63500,1,0
416,144,63625,1,0
416,112,63750,1,0
416,80,63875,1,0
256,80,64000,5,0
256,176,64250,1,0
160,176,64500,1,0
160,80,64750,1,0
256,80,65000,1,0
256,176,65250,1,0
240,272,65500,5,0
208,272,65625,1,0
176,272,65750,1,0
160,176,66000,1,0
256,176,66250,1,0
352,176,66500,5,0
448,176,66750,1,0
448,80,67000,1,0
352,80,67250,1,0
352,112,67375,1,0
352,144,67500,1,0
256,176,67750,5,0
160,176,68000,1,0
160,272,68250,1,0
256,272,68500,1,0
352,272,68750,1,0
352,176,69000,1,0
448,256,69250,5,0
448,288,69375,1,0
448,320,69500,1,0
416,320,69625,1,0
384,320,69750,1,0
352,320,69875,1,0
320,320,70000,1,0
224,320,70250,5,0
128,320,70500,1,0
32,320,70750,1,0
80,240,71000,1,0
176,240,71250,1,0
272,240,71375,5,0
272,208,71500,1,0
272,176,71625,1,0
272,144,71750,1,0
272,112,71875,1,0
272,80,72000,1,0
112,96,79375,5,0
240,208,79750,1,0
144,256,80000,1,0
432,80,80750,1,0
208,320,81500,1,0
128,240,81750,1,0
64,112,82750,2,0,L|128:112,1,38.3333333333333
352,112,83375,5,0
416,272,83750,1,0
304,256,84000,1,0
48,48,84750,1,0
160,64,85000,1,0
160,176,85250,2,0,L|64:112|144:160|144:160,1,172.5
384,128,87500,6,0,L|272:64|192:192,1,230
352,336,88750,1,0
240,320,89000,2,0,L|208:208|480:160,1,345
320,96,91250,6,0,L|320:336,1,230
224,160,92000,1,0
320,96,92250,1,0
432,96,92500,2,0,L|432:224,1,115
256,192,93916,12,0,94500
64,240,100000,5,0
368,112,100750,1,0
144,304,101416,2,0,L|271:202,1,153.333333333333
160,144,102666,1,0
416,240,103500,6,0,L|256:64,1,230
80,128,104750,1,0
160,240,105333,2,0,L|317:242,1,153.333333333333
384,288,107312,6,0,L|240:160,1,172.5
368,144,108000,1,0
48,272,108750,2,0,L|320:272,1,258.75
320,64,109750,1,0
112,64,111250,6,0,L|112:240,1,153.333333333333
112,304,111833,1,0
208,304,112000,2,0,L|384:304,1,153.333333333333
448,304,112583,1,0
448,224,112833,1,0
256,192,114083,12,0,114750
480,192,124000,5,0
32,192,124500,1,0
256,32,125000,1,0
256,352,125500,1,0
80,192,126000,1,0
256,64,126500,1,0
432,192,127000,1,0
256,320,127500,1,0
368,192,128000,6,0,L|240:192,2,115
253,192,128750,1,0
304,128,129000,1,0
256,192,129250,1,0
256,192,129375,2,0,L|304:128,1,76.6666666666667
304,128,129750,2,0,L|256:192,1,76.6666666666667
256,192,130000,2,0,L|208:144,1,57.5
215,152,130375,2,0,L|151:232,1,57.5
179,196,130750,2,0,L|80:96,1,115
368,112,131500,5,0
272,112,131750,1,0
176,112,132000,1,0
192,240,132375,1,0
224,240,132500,1,0
256,240,132625,1,0
368,240,132875,5,0
368,144,133125,1,0
272,144,133375,1,0
240,144,133500,1,0
144,144,133750,1,0
256,272,134250,5,0
208,272,134375,1,0
160,272,134500,2,0,L|96:272,1,57.5
256,192,135000,12,0,135625
400,320,148000,5,0
400,224,148250,1,0
400,128,148500,1,0
496,128,148750,1,0
400,128,149000,1,0
304,128,149250,1,0
208,128,149500,5,0
176,128,149625,1,0
144,128,149750,1,0
144,224,150000,1,0
256,224,150250,1,0
256,128,150500,1,0
256,32,150750,1,0
160,32,151000,1,0
64,32,151250,5,0
64,64,151375,1,0
64,96,151500,1,0
64,192,151750,1,0
64,288,152000,1,0
160,288,152250,1,0
64,288,152500,1,0
160,288,152750,1,0
240,224,153000,1,0
336,288,153250,5,0
336,256,153375,1,0
336,224,153500,1,0
336,192,153625,1,0
336,160,153750,1,0
336,128,153875,1,0
224,128,154000,5,0
224,224,154250,1,0
128,224,154500,1,0
32,176,154750,1,0
128,128,155000,1,0
224,128,155250,1,0
256,128,155375,1,0
192,128,155500,1,0
224,160,155625,1,0
224,96,155750,1,0
224,128,155875,1,0
224,128,156000,1,0
416,128,156250,5,0
320,128,156500,1,0
224,128,156750,1,0
128,128,157000,1,0
128,224,157250,1,0
224,224,157500,1,0
256,224,157625,1,0
288,224,157750,1,0
432,336,158000,5,0
432,240,158250,1,0
432,144,158500,1,0
432,48,158750,1,0
336,48,159000,1,0
240,48,159250,1,0
256,80,159375,1,0
272,112,159500,1,0
224,192,159750,1,0
128,96,160000,5,0
128,192,160250,1,0
128,288,160500,1,0
224,288,160750,1,0
320,288,161000,1,0
416,288,161250,5,0
416,256,161375,1,0
416,224,161500,1,0
416,192,161625,1,0
384,192,161750,1,0
352,192,161875,1,0
256,192,162000,5,0
192,96,162250,1,0
320,96,162500,1,0
256,192,162750,1,0
192,96,163000,1,0
320,96,163250,1,0
304,128,163375,1,0
288,160,163500,1,0
272,192,163625,1,0
256,224,163750,1,0
240,256,163875,1,0
256,192,164000,12,0,164375
48,48,180000,5,0
48,336,180500,1,0
464,336,181000,1,0
464,48,181500,1,0
48,48,182000,1,0
48,336,182500,1,0
464,336,183000,1,0
464,48,183500,1,0
80,192,184000,5,0
432,192,184500,1,0
256,32,185000,1,0
256,352,185500,1,0
32,192,186000,1,0
480,192,186500,1,0
256,192,187000,12,0,187625
288,192,188000,5,0
288,80,188250,1,0
176,80,188500,1,0
176,192,188750,1,0
288,192,189000,1,0
400,192,189250,1,0
400,304,189500,1,0
368,304,189625,1,0
336,304,189750,1,0
224,304,190000,5,0
224,192,190250,1,0
224,80,190500,1,0
128,128,190750,1,0
32,192,191000,1,0
32,80,191250,1,0
128,128,191500,1,0
32,192,191750,5,0
128,256,192000,1,0
32,320,192250,1,0
128,256,192500,1,0
208,192,192750,1,0
208,80,193000,1,0
320,80,193250,5,0
352,80,193375,1,0
384,80,193500,1,0
416,80,193625,1,0
448,80,193750,1,0
448,112,193875,1,0
448,144,194000,1,0
448,256,194250,5,0
336,256,194500,1,0
392,158,194750,1,0
336,256,195000,1,0
240,256,195250,1,0
208,256,195375,1,0
176,256,195500,1,0
144,256,195625,1,0
112,256,195750,1,0
80,256,195875,1,0
48,256,196000,1,0
256,192,196500,5,0
480,192,197000,1,0
256,192,197500,1,0
32,192,198000,1,0
256,352,198500,1,0
480,192,199000,1,0
256,32,199500,1,0
256,192,200000,1,0
256,0,200500,5,0
256,96,200750,1,0
256,192,201000,1,0
352,192,201250,1,0
336,288,201500,1,0
304,288,201625,1,0
272,288,201750,1,0
240,288,201875,1,0
208,288,202000,1,0
192,192,202250,5,0
288,192,202500,1,0
384,192,202750,1,0
480,192,203000,1,0
496,96,203250,1,0
464,96,203375,1,0
432,96,203500,1,0
336,96,203750,1,0
256,48,204000,5,0
368,192,204500,1,0
144,192,205000,1,0
256,192,205500,1,0
176,192,206000,5,0
256,80,206250,1,0
336,192,206500,1,0
256,288,206750,1,0
176,192,207000,1,0
336,192,207250,1,0
256,80,207500,1,0
256,112,207625,1,0
256,144,207750,1,0
256,192,208000,5,0
144,320,208500,1,0
368,320,209000,1,0
256,192,209500,1,0
64,192,212000,5,0
176,192,212500,1,0
288,192,213000,1,0
400,192,213500,1,0
64,192,214000,1,0
400,192,214500,5,0
288,192,214750,1,0
176,192,215000,1,0
64,192,215500,1,0
112,320,216000,1,0
176,192,216250,1,0
112,64,216500,1,0
64,192,216750,1,0
112,320,217000,1,0
176,192,217250,5,0
208,192,217375,1,0
240,192,217500,1,0
320,96,217750,1,0
384,192,218000,1,0
320,288,218250,1,0
176,288,218500,1,0
112,192,218750,1,0
256,192,219000,1,0
64,64,220000,5,0
64,192,220500,1,0
192,192,221000,1,0
128,288,221500,1,0
64,192,222000,1,0
192,192,222500,1,0
256,288,222750,5,0
320,192,223000,1,0
256,288,223500,1,0
384,288,224000,1,0
256,288,224250,1,0
320,192,224500,1,0
256,288,224750,1,0
320,192,225000,1,0
224,192,225250,5,0
192,192,225375,1,0
160,192,225500,1,0
64,192,225750,1,0
112,96,226000,1,0
320,176,244000,5,0
224,176,244250,1,0
128,176,244500,1,0
176,256,244750,1,0
224,176,245000,1,0
272,96,245500,5,0
320,176,246000,1,0
224,176,246500,1,0
272,96,246750,1,0
320,176,247000,1,0
144,48,248000,5,0
32,144,248250,1,0
176,192,248500,1,0
416,336,249000,5,0
272,288,249250,1,0
400,192,249500,1,0
256,96,250000,5,0
144,176,250500,1,0
256,256,250750,1,0
368,192,251000,1,0
256,96,251500,5,0
224,96,251625,1,0
192,96,251750,1,0
160,96,251875,1,0
80,160,252000,5,0
80,256,252250,1,0
176,192,252500,1,0
80,256,252750,1,0
176,192,253000,1,0
80,160,253500,1,0
96,64,254000,5,0
112,96,254125,1,0
128,128,254250,1,0
160,128,254375,1,0
192,144,254500,1,0
208,176,254625,1,0
224,208,254750,1,0
224,240,254875,1,0
256,256,255000,5,0
288,272,255125,1,0
320,240,255250,1,0
320,208,255375,1,0
304,176,255500,1,0
272,160,255625,1,0
240,144,255750,1,0
208,160,255875,5,0
176,176,256000,1,0
144,208,256125,1,0
144,240,256250,1,0
160,272,256375,1,0
176,304,256500,1,0
208,304,256625,1,0
240,304,256750,5,0
272,304,256875,1,0
272,272,257000,1,0
240,304,257125,1,0
208,304,257250,1,0
176,304,257375,1,0
176,272,257500,1,0
176,240,257625,5,0
192,208,257750,1,0
208,176,257875,1,0
224,144,258000,1,0
256,128,258125,1,0
288,112,258250,1,0
320,128,258375,1,0
320,160,258500,1,0
288,176,258625,5,0
256,160,258750,1,0
256,128,258875,1,0
288,112,259000,1,0
320,128,259125,1,0
352,144,259250,1,0
384,160,259375,1,0
400,192,259500,1,0
416,224,259625,5,0
384,240,259750,1,0
352,256,259875,1,0
160,160,268000,5,0
256,224,268250,1,0
144,272,268500,1,0
256,224,268750,1,0
160,160,269000,1,0
144,272,269500,1,0
416,80,270000,5,0
416,208,270500,1,0
320,288,270750,1,0
176,320,271000,1,0
64,320,272000,5,0
192,176,272250,1,0
288,336,272500,1,0
464,80,273000,5,0
256,80,273250,1,0
368,256,273500,1,0
256,192,274000,5,0
320,112,274500,1,0
224,96,274750,1,0
256,192,275000,1,0
384,96,275500,5,0
400,128,275625,1,0
416,160,275750,1,0
432,192,275875,1,0
448,224,276000,1,0
336,256,276250,5,0
208,256,276500,1,0
96,192,276750,1,0
80,80,277000,1,0
208,48,277500,1,0
336,48,278000,5,0
368,64,278125,1,0
368,96,278250,1,0
384,128,278375,1,0
400,160,278500,1,0
416,192,278625,1,0
432,224,278750,1,0
400,240,278875,5,0
368,240,279000,1,0
336,256,279125,1,0
320,288,279250,1,0
288,288,279375,1,0
272,256,279500,1,0
240,240,279625,1,0
208,256,279750,1,0
192,288,279875,5,0
160,304,280000,1,0
128,272,280125,1,0
96,240,280250,1,0
80,208,280375,1,0
80,176,280500,1,0
112,176,280625,1,0
144,176,280750,1,0
176,176,280875,5,0
208,192,281000,1,0
208,224,281125,1,0
192,256,281250,1,0
160,272,281375,1,0
128,256,281500,1,0
96,240,281625,1,0
80,208,281750,1,0
80,176,281875,5,0
80,144,282000,1,0
112,128,282125,1,0
144,128,282250,1,0
176,144,282375,1,0
208,128,282500,1,0
240,128,282625,1,0
272,144,282750,1,0
304,176,282875,5,0
320,208,283000,1,0
352,224,283125,1,0
384,208,283250,1,0
400,176,283375,1,0
400,144,283500,1,0
384,112,283625,1,0
400,80,283750,1,0
432,64,283875,1,0
464,48,284000,1,0
