osu file format v13

[General]
AudioFilename: 665.mp3
AudioLeadIn: 1500
PreviewTime: 110271
Countdown: 0
SampleSet: None
StackLeniency: 0.7
Mode: 0
LetterboxInBreaks: 1
WidescreenStoryboard: 0

[Editor]
DistanceSpacing: 1.1
BeatDivisor: 4
GridSize: 4
TimelineZoom: 1

[Metadata]
Title:665
TitleUnicode:665
Artist:uzP feat. Append (Dark)
ArtistUnicode:uzP feat. 初音ミク Append (Dark)
Creator:meiikyuu
Version:Hard
Source:
Tags:vocacloud 01 breaking of the emotion vocaloid
BeatmapID:509274
BeatmapSetID:217063

[Difficulty]
HPDrainRate:6
CircleSize:4
OverallDifficulty:6
ApproachRate:8
SliderMultiplier:1.5
SliderTickRate:1

[Events]
//Background and Video events
0,0,"665.jpg",0,0
//Break Periods
2,22496,32346
2,76196,86346
2,88946,91746
2,99296,107946
2,110696,116946
2,120296,145746
2,150296,159246
2,172196,188946
2,193196,260046
//Storyboard Layer 0 (Background)
//Storyboard Layer 1 (Fail)
//Storyboard Layer 2 (Pass)
//Storyboard Layer 3 (Foreground)
//Storyboard Sound Samples
//Background Colour Transformations
3,100,128,0,255

[TimingPoints]
696,300,6,2,1,30,1,0
1596,-133.333333333333,6,2,1,30,0,0
7896,-100,6,1,1,65,0,0
36696,-100,6,2,1,10,0,0
38496,-111.111111111111,6,2,1,60,0,0
81696,-100,6,1,1,60,0,1
110496,-100,6,1,1,60,0,0
204096,-100,6,1,1,60,0,1
232896,-100,6,1,1,60,0,0
261771,-100,6,2,1,25,0,0
265296,-100,6,2,1,10,0,0

[Colours]
Combo1 : 174,51,91
Combo2 : 102,251,132
Combo3 : 154,101,138
Combo4 : 72,72,255

[HitObjects]
100,276,696,5,0,0:0:0:0:
236,344,1146,1,0,0:0:0:0:
388,320,1596,2,0,P|424:280|440:208,2,112.500004291535,2|0|0,0:0|0:0|0:0,0:0:0:0:
332,236,2496,5,0,0:0:0:0:
388,152,2796,1,0,0:0:0:0:
332,68,3096,1,0,0:0:0:0:
236,100,3396,1,2,0:0:0:0:
240,200,3696,1,0,0:0:0:0:
332,236,3996,1,0,0:0:0:0:
388,152,4296,6,0,P|452:104|492:4,2,168.750006437302,0|0|2,0:0|0:0|0:0,0:0:0:0:
292,188,5496,1,0,0:0:0:0:
196,160,5796,1,0,0:0:0:0:
104,120,6096,2,0,P|100:184|136:240,2,112.500004291535,0|0|0,0:0|0:0|0:0,0:0:0:0:
196,160,6996,2,0,P|200:108|172:40,2,112.500004291535,2|0|0,0:0|0:0|0:0,0:0:0:0:
220,292,7896,6,0,B|288:320|288:320|380:320,1,150,4|0,0:0|0:0,0:0:0:0:
424,260,8346,2,0,B|400:208|400:208|400:104,1,150,0|0,0:0|0:0,0:0:0:0:
368,40,8796,2,0,L|276:48,1,75
236,108,9096,1,0,0:0:0:0:
152,252,9396,1,0,0:0:0:0:
36,132,9696,5,0,0:0:0:0:
93,298,9996,2,0,P|124:277|152:252,1,75
196,128,10296,2,0,P|200:172|208:208,1,75
228,284,10596,2,0,P|280:316|380:340,2,150,0|0|0,0:0|0:0|0:0,0:0:0:0:
212,204,11346,1,0,0:0:0:0:
256,136,11496,6,0,L|416:112,1,150,4|0,0:0|0:0,0:0:0:0:
256,136,11946,2,0,L|96:112,1,150,0|0,0:0|0:0,0:0:0:0:
60,180,12396,2,0,B|40:232|40:232|40:276|56:332,2,150,0|0|0,0:0|0:0|0:0,0:0:0:0:
180,292,13296,1,0,0:0:0:0:
344,312,13596,2,0,P|368:268|376:228,1,75
456,228,13896,2,0,P|444:172|428:140,1,75
380,96,14196,2,0,L|216:80,1,150
156,120,14646,2,0,P|112:112|76:100,2,75,0|0|0,0:0|0:0|0:0,0:0:0:0:
204,188,15096,6,0,B|176:228|176:228|168:284|192:340,1,150,4|0,0:0|0:0,0:0:0:0:
272,256,15546,2,0,B|291:212|283:156|283:156|255:116,1,150
172,112,15996,1,0,0:0:0:0:
136,184,16146,1,0,0:0:0:0:
152,264,16296,2,0,P|120:308|96:332,2,75,0|0|0,0:0|0:0|0:0,0:0:0:0:
136,184,16746,1,0,0:0:0:0:
88,116,16896,6,0,P|56:80|24:60,1,75
172,112,17196,2,0,P|216:132|336:144,2,150,0|0|0,0:0|0:0|0:0,0:0:0:0:
332,72,18096,2,0,P|392:76|484:56,1,150
484,140,18546,1,0,0:0:0:0:
484,140,18696,6,0,B|456:208|456:208|460:296,1,150,4|0,0:0|0:0,0:0:0:0:
384,320,19146,2,0,L|376:160,1,150
312,120,19596,2,0,L|220:104,2,75,0|0|0,0:0|0:0|0:0,0:0:0:0:
296,200,20046,1,0,0:0:0:0:
216,224,20196,2,0,P|172:224|128:216,1,75
68,184,20496,6,0,P|96:120|100:24,1,150
256,152,21096,1,0,0:0:0:0:
444,184,21396,2,0,P|416:120|412:24,1,150
256,152,21996,1,0,0:0:0:0:
260,324,22296,1,4,0:0:0:0:
256,192,33096,12,0,36696,0:0:0:0:
340,128,38496,5,0,0:0:0:0:
380,244,38796,2,0,B|440:216|440:216|480:144,2,134.999995880127,0|0|0,0:0|0:0|0:0,0:0:0:0:
260,220,39696,1,0,0:0:0:0:
176,304,39996,1,0,0:0:0:0:
72,244,40296,2,0,B|48:180|48:180|64:88,1,134.999995880127
156,40,40896,1,0,0:0:0:0:
236,132,41196,2,0,B|332:116|332:116|376:84|392:16,1,202.499993820191
304,36,41796,2,0,L|224:52,1,67.4999979400635,0|0,0:0|0:0,0:0:0:0:
172,84,42096,6,0,P|156:132|176:224,2,134.999995880127,4|0|0,0:0|0:0|0:0,0:0:0:0:
296,168,42996,2,0,P|312:216|292:308,2,134.999995880127,0|0|0,0:0|0:0|0:0,0:0:0:0:
216,260,43896,2,0,P|268:288|404:260,1,202.499993820191
432,192,44496,1,0,0:0:0:0:
376,84,44796,1,0,0:0:0:0:
272,144,45096,1,0,0:0:0:0:
176,72,45396,1,0,0:0:0:0:
112,172,45696,6,0,B|116:232|116:232|128:252|128:252|132:304,2,134.999995880127,4|0|0,0:0|0:0|0:0,0:0:0:0:
216,236,46596,2,0,B|220:296|220:296|232:316|232:316|236:368,2,134.999995880127,0|0|0,0:0|0:0|0:0,0:0:0:0:
376,224,47496,2,0,B|372:164|372:164|360:144|360:144|356:92,2,134.999995880127,0|0|0,0:0|0:0|0:0,0:0:0:0:
272,160,48396,2,0,B|268:100|268:100|256:80|256:80|252:28,2,134.999995880127,0|0|0,0:0|0:0|0:0,0:0:0:0:
176,232,49296,6,0,P|128:188|112:100,1,134.999995880127,4|0,0:0|0:0,0:0:0:0:
200,40,49896,1,0,0:0:0:0:
256,148,50196,2,0,L|256:300,2,134.999995880127,0|0|0,0:0|0:0|0:0,0:0:0:0:
312,40,51096,1,0,0:0:0:0:
402,122,51396,2,0,P|384:186|336:232,1,134.999995880127,0|0,0:0|0:0,0:0:0:0:
324,112,51996,2,0,P|404:43|478:101,1,202.499993820191
476,164,52596,2,0,P|460:224|464:300,1,134.999995880127,0|4,0:0|0:0,0:0:0:0:
352,348,53196,5,0,0:0:0:0:
288,244,53496,1,0,0:0:0:0:
188,316,53796,2,0,P|128:292|44:280,1,134.999995880127
184,200,54396,1,0,0:0:0:0:
232,88,54696,2,0,P|292:112|376:124,1,134.999995880127
296,224,55296,1,0,0:0:0:0:
328,340,55596,2,0,L|464:292,1,134.999995880127
480,224,56046,1,0,0:0:0:0:
448,156,56196,1,0,0:0:0:0:
448,156,56496,6,0,P|404:172|308:152,1,134.999995880127,4|0,0:0|0:0,0:0:0:0:
256,52,57096,1,0,0:0:0:0:
168,136,57396,2,0,P|144:192|152:272,2,134.999995880127,0|0|0,0:0|0:0|0:0,0:0:0:0:
240,264,58296,2,0,P|260:308|400:360,1,202.499993820191
464,328,58896,1,0,0:0:0:0:
476,180,59196,2,0,L|336:148,1,134.999995880127
292,288,59796,1,0,0:0:0:0:
184,232,60096,6,0,B|120:232|120:232|88:240|88:240|44:232,1,134.999995880127,4|0,0:0|0:0,0:0:0:0:
32,160,60546,1,0,0:0:0:0:
92,116,60696,2,0,B|128:76|136:44|136:44|196:36,2,134.999995880127,0|0|0,0:0|0:0|0:0,0:0:0:0:
240,128,61596,1,0,0:0:0:0:
380,172,61896,2,0,B|344:212|336:244|336:244|276:252,1,134.999995880127,0|0,0:0|0:0,0:0:0:0:
220,212,62346,1,0,0:0:0:0:
164,260,62496,1,0,0:0:0:0:
164,260,62796,2,0,P|100:216|72:148,1,134.999995880127
136,60,63396,1,0,0:0:0:0:
252,92,63696,6,0,P|284:128|316:212,1,134.999995880127,4|0,0:0|0:0,0:0:0:0:
256,316,64296,2,0,B|200:336|164:320|108:340,1,134.999995880127
80,220,64896,1,0,0:0:0:0:
180,148,65196,2,0,B|221:132|257:148|313:128,2,134.999995880127,0|0|0,0:0|0:0|0:0,0:0:0:0:
200,268,66096,1,0,0:0:0:0:
320,196,66396,6,0,P|316:144|308:112,1,67.4999979400635,0|0,1:0|1:0,0:0:0:0:
396,96,66696,2,0,P|372:64|344:40,1,67.4999979400635,0|0,1:0|1:0,0:0:0:0:
256,64,66996,2,0,P|220:56|184:40,1,67.4999979400635,0|0,1:0|1:0,0:0:0:0:
104,32,67296,6,0,B|92:100|92:100|100:188,1,134.999995880127,4|0,0:0|0:0,0:0:0:0:
148,220,67746,1,0,0:0:0:0:
116,288,67896,1,0,0:0:0:0:
160,348,68046,1,0,0:0:0:0:
232,324,68196,2,0,P|284:312|380:320,2,134.999995880127,0|0|0,1:0|0:0|0:0,0:0:0:0:
360,196,69096,6,0,P|400:216|432:236,2,67.4999979400635,0|0|0,0:0|0:0|0:0,0:0:0:0:
292,164,69546,1,0,0:0:0:0:
256,100,69696,2,0,P|256:56|268:24,1,67.4999979400635
216,164,69996,2,0,P|152:180|72:148,2,134.999995880127,0|0|0,1:0|0:0|0:0,0:0:0:0:
348,92,70896,6,0,P|416:68|488:92,1,134.999995880127,4|0,0:0|0:0,0:0:0:0:
472,220,71496,1,0,0:0:0:0:
372,308,71796,2,0,P|324:288|304:272,1,67.4999979400635,0|0,1:0|0:0,0:0:0:0:
272,216,72096,2,0,P|264:172|264:140,1,67.4999979400635
276,76,72396,2,0,P|288:36|304:8,1,67.4999979400635
184,112,72696,2,0,P|176:168|124:248,2,134.999995880127,0|0|0,0:0|0:0|0:0,0:0:0:0:
352,192,73596,1,0,1:0:0:0:
296,336,73896,2,0,P|284:280|280:248,1,67.4999979400635
352,192,74196,2,0,P|404:188|440:192,1,67.4999979400635
492,264,74496,6,0,P|486:297|478:330,1,67.4999979400635,4|0,0:0|0:0,0:0:0:0:
388,268,74796,2,0,P|364:228|340:128,1,134.999995880127
420,32,75396,1,0,1:0:0:0:
256,176,75696,1,0,0:0:0:0:
88,112,75996,1,0,0:0:0:0:
228,296,87096,6,0,B|224:232|168:212|168:212|180:164,1,150
144,292,87546,2,0,P|96:308|0:264,1,150
52,204,87996,2,0,P|76:152|80:124,1,75
156,64,88296,2,0,L|160:144,1,75
200,212,88596,1,0,0:0:0:0:
272,248,88746,1,0,0:0:0:0:
156,168,92496,6,0,L|188:332,1,150
256,236,92946,1,0,0:0:0:0:
327,315,93096,2,0,L|356:168,2,150,0|0|0,0:0|0:0|0:0,0:0:0:0:
256,144,93996,1,0,0:0:0:0:
400,60,94296,6,0,L|464:112,2,75,0|0|0,0:0|0:0|0:0,0:0:0:0:
320,48,94746,1,0,0:0:0:0:
252,92,94896,2,0,L|180:140,1,75
132,76,95196,2,0,L|48:68,1,75
80,168,95496,2,0,L|4:220,1,75
136,252,95796,2,0,L|112:332,1,75
232,256,96096,6,0,B|308:244|308:244|392:268,1,150,4|0,0:0|0:0,0:0:0:0:
372,189,96546,2,0,L|378:264,1,75
288,168,96846,1,0,0:0:0:0:
344,108,96996,2,0,L|348:24,1,75
256,64,97296,2,0,L|264:148,1,75
180,104,97596,1,0,0:0:0:0:
164,184,97746,1,0,0:0:0:0:
96,268,97896,6,0,L|72:188,1,75
142,112,98196,2,0,L|164:184,1,75,0|0,0:0|0:0,0:0:0:0:
220,244,98496,1,0,0:0:0:0:
352,112,98796,2,0,L|492:180,1,150
72,96,108696,6,0,P|68:168|88:264,1,150
156,208,109146,2,0,P|176:284|224:356,1,150
276,276,109596,2,0,P|308:304|340:320,1,75
388,252,109896,2,0,P|440:256|480:248,1,75
344,148,110196,2,0,P|308:168|284:208,1,75
440,164,110496,1,4,0:0:0:0:
136,308,117696,6,0,B|128:252|128:252|116:232|116:232|104:148,1,150
132,84,118146,1,0,0:0:0:0:
132,84,118296,1,0,0:0:0:0:
352,76,118596,2,0,B|360:132|360:132|372:152|372:152|384:236,1,150
356,300,119046,1,0,0:0:0:0:
356,300,119196,1,0,0:0:0:0:
136,168,119496,6,0,B|184:148|184:148|220:160|304:148,1,150
268,68,119946,1,0,0:0:0:0:
352,76,120096,1,0,0:0:0:0:
244,232,146496,5,0,0:0:0:0:
256,192,146646,12,4,150096,0:0:0:0:
112,76,159996,5,4,2:0:0:0:
204,212,160296,2,0,L|220:296,1,75
280,344,160596,1,0,0:0:0:0:
404,192,160896,6,0,B|396:272|396:272|380:300|380:300|372:356,1,150,4|0,0:0|0:0,0:0:0:0:
320,228,161346,2,0,L|336:72,1,150
248,140,161796,2,0,L|160:112,1,75
108,184,162096,2,0,L|179:206,1,75
92,104,162396,2,0,L|20:81,1,75
24,200,162696,6,0,B|88:228|88:228|116:232|116:232|176:260,1,150,4|0,0:0|0:0,0:0:0:0:
228,336,163146,2,0,L|244:244,1,75
184,152,163446,2,0,L|171:225,2,75,0|0|0,0:0|0:0|0:0,0:0:0:0:
236,88,163896,2,0,P|280:100|312:124,1,75
280,196,164196,2,0,P|316:232|328:268,1,75
196,272,164496,6,0,B|168:236|168:236|160:176|192:116,1,150,4|0,0:0|0:0,0:0:0:0:
252,88,164946,2,0,B|312:84|312:84|360:96|360:96|424:88,1,150
468,156,165396,2,0,L|384:180,1,75
368,272,165696,2,0,L|440:251,1,75
316,208,165996,2,0,L|243:228,1,75
172,268,166296,5,4,0:0:0:0:
56,148,166596,1,0,0:0:0:0:
56,148,166746,2,0,B|132:128|132:128|204:72,1,150
256,132,167196,2,0,L|256:216,1,75
336,267,167496,2,0,L|336:192,1,75
216,288,167796,2,0,L|216:376,1,75
304,332,168096,6,0,P|344:304|452:288,1,150,4|0,0:0|0:0,0:0:0:0:
436,204,168546,2,0,L|424:40,1,150
352,100,168996,2,0,L|356:180,1,75
280,232,169296,2,0,L|276:157,1,75
192,108,169596,2,0,L|195:182,1,75
184,296,169896,6,0,P|112:248|44:224,1,150,4|0,0:0|0:0,0:0:0:0:
160,168,170346,2,0,P|204:196|304:220,1,150
360,164,170796,2,0,L|336:84,1,75
360,264,171096,2,0,L|381:335,1,75
469,267,171396,2,0,L|448:196,1,75
360,164,171696,6,0,B|300:168|300:168|272:160|272:160|208:168,1,150,4|0,0:0|0:0,0:0:0:0:
416,64,189696,6,0,P|352:92|264:76,1,150,4|0,0:0|0:0,0:0:0:0:
192,72,190146,1,0,0:0:0:0:
144,140,190296,2,0,P|136:184|140:220,2,75,0|0|0,0:0|0:0|0:0,0:0:0:0:
64,252,190746,2,0,P|108:292|204:264,1,150,0|0,0:0|0:0,0:0:0:0:
248,216,191196,2,0,P|300:208|340:212,1,75
384,264,191496,6,0,P|428:280|464:304,1,75
388,348,191796,1,0,0:0:0:0:
384,264,191946,1,0,0:0:0:0:
432,196,192096,1,0,0:0:0:0:
416,116,192246,1,0,0:0:0:0:
348,68,192396,2,0,P|292:84|188:88,2,150,0|0|0,0:0|0:0|0:0,0:0:0:0:
124,248,260796,6,0,L|132:292,3,37.5,0|0|0|0,0:0|0:0|0:0|0:0,0:0:0:0:
160,304,261096,2,0,L|244:324,1,75
316,316,261396,5,0,0:0:0:0:
392,284,261546,1,0,0:0:0:0:
424,208,261696,1,4,0:0:0:0:
256,192,261771,12,0,265296,0:0:0:0:
