osu file format v13

[General]
AudioFilename: Watamote - Ending 4 (summer festival).mp3
AudioLeadIn: 0
PreviewTime: 71740
Countdown: 0
SampleSet: Normal
StackLeniency: 0.7
Mode: 1
LetterboxInBreaks: 0
WidescreenStoryboard: 1

[Editor]
DistanceSpacing: 1
BeatDivisor: 8
GridSize: 32
TimelineZoom: 3.799998

[Metadata]
Title:Natsu Matsuri (TV Size)
TitleUnicode:夏祭り (TV Size)
Artist:utsuP & Minatsuki Toka
ArtistUnicode:鬱P & ミナツキトーカ
Creator:Stefan
Version:Oni
Source:Watashi ga Motenai no wa Dou Kangaete mo Omaera ga Warui!
Tags:hatsune miku ending vocaloid kuroki tomoko watamote 私がモテないのはどう考えてもお前らが悪い!
BeatmapID:408332
BeatmapSetID:168217

[Difficulty]
HPDrainRate:5
CircleSize:5
OverallDifficulty:5
ApproachRate:5
SliderMultiplier:1.6
SliderTickRate:1

[Events]
//Background and Video events
0,0,"ss (2014-04-22 at 06.32.49).jpg",0,35
//Break Periods
//Storyboard Layer 0 (Background)
//Storyboard Layer 1 (Fail)
//Storyboard Layer 2 (Pass)
//Storyboard Layer 3 (Foreground)
//Storyboard Sound Samples
//Background Colour Transformations
3,100,163,162,255

[TimingPoints]
1484,800,4,1,0,50,1,0
1484,-54.054054054054,4,1,0,50,0,0
34325,975.609756097561,4,1,0,50,1,0
34325,-50,4,1,0,50,0,0
35300,1140.68441064639,4,1,0,50,1,0
35300,-50,4,1,0,50,0,0
36440,1250,4,1,0,50,1,0
36440,-50,4,1,0,50,0,0
37932,422.535211267606,4,1,0,100,1,0
71312,-90.9090909090909,4,1,0,100,0,0
71523,-83.3333333333333,4,1,0,100,0,0
71734,-76.9230769230769,4,1,0,100,0,1
83777,-100,4,1,0,100,0,1
90326,-100,4,1,0,100,0,0

[HitObjects]
256,192,1484,5,8,0:0:0:0:
256,192,2284,1,0,0:0:0:0:
256,192,2684,1,0,0:0:0:0:
256,192,3084,1,8,0:0:0:0:
256,192,3884,1,0,0:0:0:0:
256,192,4684,1,8,0:0:0:0:
256,192,5484,1,0,0:0:0:0:
256,192,5884,1,0,0:0:0:0:
256,192,6284,1,8,0:0:0:0:
256,192,7084,1,0,0:0:0:0:
256,192,7884,1,8,0:0:0:0:
256,192,8684,1,0,0:0:0:0:
256,192,9084,1,0,0:0:0:0:
256,192,9484,1,8,0:0:0:0:
256,192,10284,1,0,0:0:0:0:
256,192,11084,1,8,0:0:0:0:
256,192,11884,1,0,0:0:0:0:
256,192,12284,1,0,0:0:0:0:
256,192,12684,1,8,0:0:0:0:
256,192,13484,1,0,0:0:0:0:
256,192,14284,1,0,0:0:0:0:
256,192,15084,1,0,0:0:0:0:
256,192,15884,1,8,0:0:0:0:
256,192,16684,1,0,0:0:0:0:
256,192,17084,1,0,0:0:0:0:
256,192,17484,1,8,0:0:0:0:
256,192,18284,1,0,0:0:0:0:
256,192,19084,1,8,0:0:0:0:
256,192,19884,1,8,0:0:0:0:
256,192,20284,1,0,0:0:0:0:
256,192,20684,1,0,0:0:0:0:
256,192,21484,1,0,0:0:0:0:
256,192,22284,1,8,0:0:0:0:
256,192,23084,1,0,0:0:0:0:
256,192,23484,1,0,0:0:0:0:
256,192,23884,1,8,0:0:0:0:
256,192,25484,1,8,0:0:0:0:
256,192,27084,1,8,0:0:0:0:
256,192,27484,1,0,0:0:0:0:
256,192,27884,1,0,0:0:0:0:
256,192,28084,1,0,0:0:0:0:
256,192,28284,1,8,0:0:0:0:
256,192,28684,1,8,0:0:0:0:
256,192,29084,1,0,0:0:0:0:
256,192,29484,1,0,0:0:0:0:
256,192,29884,1,0,0:0:0:0:
256,192,30284,1,8,0:0:0:0:
256,192,30684,1,0,0:0:0:0:
256,192,31084,1,0,0:0:0:0:
256,192,31284,1,0,0:0:0:0:
256,192,31884,1,8,0:0:0:0:
256,192,32284,1,0,0:0:0:0:
256,192,32684,1,0,0:0:0:0:
256,192,33084,1,8,0:0:0:0:
256,192,33484,1,8,0:0:0:0:
256,192,33884,1,0,0:0:0:0:
256,192,34325,1,0,0:0:0:0:
256,192,34568,1,0,0:0:0:0:
256,192,35300,12,0,37533,0:0:0:0:
256,192,37932,5,4,0:0:0:0:
256,192,38143,1,0,0:0:0:0:
256,192,38248,1,0,0:0:0:0:
256,192,38354,1,8,0:0:0:0:
256,192,38565,1,0,0:0:0:0:
256,192,38671,1,0,0:0:0:0:
256,192,38882,1,0,0:0:0:0:
256,192,38988,1,0,0:0:0:0:
256,192,39199,1,8,0:0:0:0:
256,192,39305,1,8,0:0:0:0:
256,192,39410,1,8,0:0:0:0:
256,192,39516,1,8,0:0:0:0:
256,192,39622,1,0,0:0:0:0:
256,192,39833,1,0,0:0:0:0:
256,192,39939,1,0,0:0:0:0:
256,192,40044,1,8,0:0:0:0:
256,192,40255,1,0,0:0:0:0:
256,192,40361,1,8,0:0:0:0:
256,192,40572,1,0,0:0:0:0:
256,192,40678,1,8,0:0:0:0:
256,192,40889,1,8,0:0:0:0:
256,192,40995,1,8,0:0:0:0:
256,192,41101,1,0,0:0:0:0:
256,192,41206,1,8,0:0:0:0:
256,192,41312,1,0,0:0:0:0:
256,192,41523,1,0,0:0:0:0:
256,192,41629,1,0,0:0:0:0:
256,192,41734,1,8,0:0:0:0:
256,192,41946,1,0,0:0:0:0:
256,192,42051,1,0,0:0:0:0:
256,192,42262,1,0,0:0:0:0:
256,192,42368,1,0,0:0:0:0:
256,192,42579,1,8,0:0:0:0:
256,192,42685,1,8,0:0:0:0:
256,192,42791,1,8,0:0:0:0:
256,192,42896,1,8,0:0:0:0:
256,192,43002,1,0,0:0:0:0:
256,192,43213,1,0,0:0:0:0:
256,192,43319,1,0,0:0:0:0:
256,192,43424,1,8,0:0:0:0:
256,192,43636,1,0,0:0:0:0:
256,192,43741,1,8,0:0:0:0:
256,192,43953,1,0,0:0:0:0:
256,192,44058,1,8,0:0:0:0:
256,192,44270,1,8,0:0:0:0:
256,192,44375,1,8,0:0:0:0:
256,192,44481,1,0,0:0:0:0:
256,192,44586,1,8,0:0:0:0:
256,192,44692,1,0,0:0:0:0:
256,192,44903,1,0,0:0:0:0:
256,192,45009,1,0,0:0:0:0:
256,192,45115,1,8,0:0:0:0:
256,192,45326,1,0,0:0:0:0:
256,192,45537,1,8,0:0:0:0:
256,192,45854,1,0,0:0:0:0:
256,192,45960,1,8,0:0:0:0:
256,192,46171,1,0,0:0:0:0:
256,192,46382,1,8,0:0:0:0:
256,192,46699,1,0,0:0:0:0:
256,192,46805,1,8,0:0:0:0:
256,192,47016,1,0,0:0:0:0:
256,192,47227,1,8,0:0:0:0:
256,192,47439,1,8,0:0:0:0:
256,192,47544,1,0,0:0:0:0:
256,192,47650,1,8,0:0:0:0:
256,192,47861,1,8,0:0:0:0:
256,192,48072,1,0,0:0:0:0:
256,192,48389,1,0,0:0:0:0:
256,192,48495,1,8,0:0:0:0:
256,192,48706,1,0,0:0:0:0:
256,192,48917,1,8,0:0:0:0:
256,192,49234,1,0,0:0:0:0:
256,192,49340,1,8,0:0:0:0:
256,192,49551,1,0,0:0:0:0:
256,192,49762,1,8,0:0:0:0:
256,192,49868,1,0,0:0:0:0:
256,192,50079,1,0,0:0:0:0:
256,192,50185,1,8,0:0:0:0:
256,192,50396,1,0,0:0:0:0:
256,192,50608,1,8,0:0:0:0:
256,192,50819,1,8,0:0:0:0:
256,192,50924,1,0,0:0:0:0:
256,192,51030,1,8,0:0:0:0:
256,192,51241,1,8,0:0:0:0:
256,192,51453,1,0,0:0:0:0:
256,192,51664,1,0,0:0:0:0:
256,192,51770,1,0,0:0:0:0:
256,192,51875,1,8,0:0:0:0:
256,192,52086,1,0,0:0:0:0:
256,192,52298,1,8,0:0:0:0:
256,192,52403,1,8,0:0:0:0:
256,192,52509,1,0,0:0:0:0:
256,192,52720,1,8,0:0:0:0:
256,192,52932,1,0,0:0:0:0:
256,192,53143,1,8,0:0:0:0:
256,192,53354,1,0,0:0:0:0:
256,192,53460,1,0,0:0:0:0:
256,192,53565,1,8,0:0:0:0:
256,192,53777,1,0,0:0:0:0:
256,192,53882,1,8,0:0:0:0:
256,192,54093,1,0,0:0:0:0:
256,192,54199,1,0,0:0:0:0:
256,192,54410,1,8,0:0:0:0:
256,192,54516,1,0,0:0:0:0:
256,192,54622,1,8,0:0:0:0:
256,192,54833,1,8,0:0:0:0:
256,192,55044,1,0,0:0:0:0:
256,192,55150,1,0,0:0:0:0:
256,192,55255,1,8,0:0:0:0:
256,192,55678,1,0,0:0:0:0:
256,192,55889,1,0,0:0:0:0:
256,192,56101,1,8,0:0:0:0:
256,192,56206,1,0,0:0:0:0:
256,192,56312,1,0,0:0:0:0:
256,192,56523,1,8,0:0:0:0:
256,192,56734,1,0,0:0:0:0:
256,192,56946,1,8,0:0:0:0:
256,192,57157,1,8,0:0:0:0:
256,192,57262,1,0,0:0:0:0:
256,192,57474,1,0,0:0:0:0:
256,192,57579,1,8,0:0:0:0:
256,192,57791,1,8,0:0:0:0:
256,192,57896,1,0,0:0:0:0:
256,192,58002,1,8,0:0:0:0:
256,192,58108,1,8,0:0:0:0:
256,192,58213,1,0,0:0:0:0:
256,192,58424,1,0,0:0:0:0:
256,192,58530,1,0,0:0:0:0:
256,192,58636,1,8,0:0:0:0:
256,192,58847,1,0,0:0:0:0:
256,192,59058,1,8,0:0:0:0:
256,192,59164,1,0,0:0:0:0:
256,192,59375,1,0,0:0:0:0:
256,192,59481,1,8,0:0:0:0:
256,192,59692,1,8,0:0:0:0:
256,192,59903,1,0,0:0:0:0:
256,192,60220,1,0,0:0:0:0:
256,192,60326,1,8,0:0:0:0:
256,192,60537,1,0,0:0:0:0:
256,192,60748,1,8,0:0:0:0:
256,192,60854,1,0,0:0:0:0:
256,192,61065,1,0,0:0:0:0:
256,192,61171,1,8,0:0:0:0:
256,192,61277,1,0,0:0:0:0:
256,192,61382,1,8,0:0:0:0:
256,192,61593,1,0,0:0:0:0:
256,192,61910,1,8,0:0:0:0:
256,192,62016,1,0,0:0:0:0:
256,192,62227,1,8,0:0:0:0:
256,192,62333,1,0,0:0:0:0:
256,192,62439,1,8,0:0:0:0:
256,192,62755,1,0,0:0:0:0:
256,192,62861,1,8,0:0:0:0:
256,192,63072,1,0,0:0:0:0:
256,192,63284,1,8,0:0:0:0:
256,192,63389,1,0,0:0:0:0:
256,192,63495,1,0,0:0:0:0:
256,192,63601,1,8,0:0:0:0:
256,192,63706,1,8,0:0:0:0:
256,192,63917,1,0,0:0:0:0:
256,192,64129,1,8,0:0:0:0:
256,192,64340,1,0,0:0:0:0:
256,192,64446,1,0,0:0:0:0:
256,192,64551,1,8,0:0:0:0:
256,192,64762,1,0,0:0:0:0:
256,192,64974,1,0,0:0:0:0:
256,192,65396,1,8,0:0:0:0:
256,192,65608,1,0,0:0:0:0:
256,192,65713,1,0,0:0:0:0:
256,192,65819,1,8,0:0:0:0:
256,192,66030,1,0,0:0:0:0:
256,192,66241,1,8,0:0:0:0:
256,192,66347,1,8,0:0:0:0:
256,192,66453,1,0,0:0:0:0:
256,192,66664,1,0,0:0:0:0:
256,192,66875,1,0,0:0:0:0:
256,192,66981,1,0,0:0:0:0:
256,192,67086,1,8,0:0:0:0:
256,192,67298,1,0,0:0:0:0:
256,192,67403,1,8,0:0:0:0:
256,192,67615,1,0,0:0:0:0:
256,192,67720,1,8,0:0:0:0:
256,192,67932,1,8,0:0:0:0:
256,192,68037,1,0,0:0:0:0:
256,192,68143,1,0,0:0:0:0:
256,192,68354,1,0,0:0:0:0:
256,192,68777,1,8,0:0:0:0:
256,192,69199,1,0,0:0:0:0:
256,192,69622,1,8,0:0:0:0:
256,192,69833,1,0,0:0:0:0:
256,192,70044,1,8,0:0:0:0:
256,192,70150,1,0,0:0:0:0:
256,192,70255,1,0,0:0:0:0:
256,192,70467,1,8,0:0:0:0:
256,192,70678,1,8,0:0:0:0:
256,192,70784,1,0,0:0:0:0:
256,192,70889,1,8,0:0:0:0:
256,192,70995,1,0,0:0:0:0:
256,192,71101,1,0,0:0:0:0:
256,192,71312,1,8,0:0:0:0:
256,192,71523,1,0,0:0:0:0:
256,192,71734,1,4,0:0:0:0:
256,192,71946,1,0,0:0:0:0:
256,192,72051,1,0,0:0:0:0:
256,192,72157,1,8,0:0:0:0:
256,192,72368,1,0,0:0:0:0:
256,192,72579,1,8,0:0:0:0:
256,192,72685,1,0,0:0:0:0:
256,192,72791,1,0,0:0:0:0:
256,192,73002,1,0,0:0:0:0:
256,192,73213,1,8,0:0:0:0:
256,192,73424,1,8,0:0:0:0:
256,192,73530,1,0,0:0:0:0:
256,192,73636,1,0,0:0:0:0:
256,192,73741,1,0,0:0:0:0:
256,192,73847,1,8,0:0:0:0:
256,192,74058,1,0,0:0:0:0:
256,192,74270,1,8,0:0:0:0:
256,192,74375,1,0,0:0:0:0:
256,192,74481,1,0,0:0:0:0:
256,192,74692,1,8,0:0:0:0:
256,192,74903,1,0,0:0:0:0:
256,192,75115,1,8,0:0:0:0:
256,192,75537,1,0,0:0:0:0:
256,192,75748,1,0,0:0:0:0:
256,192,75854,1,0,0:0:0:0:
256,192,75960,1,8,0:0:0:0:
256,192,76171,1,0,0:0:0:0:
256,192,76382,1,0,0:0:0:0:
256,192,76488,1,0,0:0:0:0:
256,192,76593,1,8,0:0:0:0:
256,192,76805,1,8,0:0:0:0:
256,192,76910,1,8,0:0:0:0:
256,192,77016,1,0,0:0:0:0:
256,192,77122,1,0,0:0:0:0:
256,192,77227,1,8,0:0:0:0:
256,192,77333,1,8,0:0:0:0:
256,192,77439,1,0,0:0:0:0:
256,192,77544,1,0,0:0:0:0:
256,192,77650,1,8,0:0:0:0:
256,192,77755,1,8,0:0:0:0:
256,192,77861,1,0,0:0:0:0:
256,192,77967,1,0,0:0:0:0:
256,192,78072,1,8,0:0:0:0:
256,192,78178,1,8,0:0:0:0:
256,192,78284,1,8,0:0:0:0:
256,192,78389,1,8,0:0:0:0:
256,192,78495,1,4,0:0:0:0:
256,192,78706,1,8,0:0:0:0:
256,192,78812,1,8,0:0:0:0:
256,192,78917,1,0,0:0:0:0:
256,192,79129,1,8,0:0:0:0:
256,192,79340,1,0,0:0:0:0:
256,192,79446,1,8,0:0:0:0:
256,192,79551,1,0,0:0:0:0:
256,192,79762,1,8,0:0:0:0:
256,192,79974,1,0,0:0:0:0:
256,192,80185,1,8,0:0:0:0:
256,192,80291,1,0,0:0:0:0:
256,192,80396,1,0,0:0:0:0:
256,192,80502,1,0,0:0:0:0:
256,192,80608,1,8,0:0:0:0:
256,192,80819,1,0,0:0:0:0:
256,192,81030,1,8,0:0:0:0:
256,192,81241,1,8,0:0:0:0:
256,192,81347,1,0,0:0:0:0:
256,192,81453,1,0,0:0:0:0:
256,192,81664,1,0,0:0:0:0:
256,192,81875,1,8,0:0:0:0:
256,192,82298,1,8,0:0:0:0:
256,192,82403,1,0,0:0:0:0:
256,192,82509,1,0,0:0:0:0:
256,192,82720,1,8,0:0:0:0:
256,192,82932,1,0,0:0:0:0:
256,192,83037,1,0,0:0:0:0:
256,192,83143,1,8,0:0:0:0:
256,192,83354,1,0,0:0:0:0:
256,192,83565,1,4,0:0:0:0:
256,192,83777,1,0,0:0:0:0:
256,192,83882,1,0,0:0:0:0:
256,192,83988,1,8,0:0:0:0:
256,192,84199,1,0,0:0:0:0:
256,192,84305,1,8,0:0:0:0:
256,192,84516,1,8,0:0:0:0:
256,192,84622,1,0,0:0:0:0:
256,192,84833,1,8,0:0:0:0:
256,192,84939,1,8,0:0:0:0:
256,192,85044,1,0,0:0:0:0:
256,192,85150,1,8,0:0:0:0:
256,192,85255,1,0,0:0:0:0:
256,192,85467,1,0,0:0:0:0:
256,192,85572,1,0,0:0:0:0:
256,192,85678,1,8,0:0:0:0:
256,192,85889,1,0,0:0:0:0:
256,192,85995,1,0,0:0:0:0:
256,192,86206,1,0,0:0:0:0:
256,192,86312,1,0,0:0:0:0:
256,192,86523,1,8,0:0:0:0:
256,192,86629,1,8,0:0:0:0:
256,192,86734,1,0,0:0:0:0:
256,192,86840,1,0,0:0:0:0:
256,192,86946,1,0,0:0:0:0:
256,192,87157,1,0,0:0:0:0:
256,192,87262,1,0,0:0:0:0:
256,192,87368,1,8,0:0:0:0:
256,192,87579,1,0,0:0:0:0:
256,192,87685,1,8,0:0:0:0:
256,192,87896,1,8,0:0:0:0:
256,192,88002,1,0,0:0:0:0:
256,192,88213,1,8,0:0:0:0:
256,192,88319,1,8,0:0:0:0:
256,192,88424,1,0,0:0:0:0:
256,192,88530,1,0,0:0:0:0:
256,192,88636,1,8,0:0:0:0:
256,192,88847,1,0,0:0:0:0:
256,192,88953,1,0,0:0:0:0:
256,192,89058,1,8,0:0:0:0:
256,192,89270,1,0,0:0:0:0:
256,192,89375,1,0,0:0:0:0:
256,192,89586,1,8,0:0:0:0:
256,192,89692,1,0,0:0:0:0:
256,192,89903,1,8,0:0:0:0:
256,192,90009,1,0,0:0:0:0:
256,192,90115,1,0,0:0:0:0:
256,192,90326,1,4,0:0:0:0:
