osu file format v13

[General]
AudioFilename: Eternal break.mp3
AudioLeadIn: 0
PreviewTime: 17600
Countdown: 0
SampleSet: Normal
StackLeniency: 0.7
Mode: 0
LetterboxInBreaks: 0
WidescreenStoryboard: 1

[Editor]
Bookmarks: 1600,8000,13600,16000,17100,17200,17600,19200,30400,35200,38000,39200,40000,44800,46400,52800,59200,60200,64000,65200,65600,77600,78400,84800,90800,91200,104000,110400,116800
DistanceSpacing: 0.9
BeatDivisor: 4
GridSize: 4
TimelineZoom: 1.900001

[Metadata]
Title:Eternal break
TitleUnicode:Eternal break
Artist:urimu
ArtistUnicode:urimu
Creator:Kurosanyan
Version:Eternal Hula
Source:BMS
Tags:Hard Trance Hula Alumetorz Tess Kaguya Hourain
BeatmapID:557363
BeatmapSetID:240877

[Difficulty]
HPDrainRate:6
CircleSize:4
OverallDifficulty:7
ApproachRate:9
SliderMultiplier:1.8
SliderTickRate:4

[Events]
//Background and Video events
0,0,"917b5fc29d8bac42945b5be96ca61f06.jpg",0,0
//Break Periods
2,65500,77000
//Storyboard Layer 0 (Background)
//Storyboard Layer 1 (Fail)
//Storyboard Layer 2 (Pass)
//Storyboard Layer 3 (Foreground)
//Storyboard Sound Samples
//Background Colour Transformations
3,100,163,162,255

[TimingPoints]
1600,400,4,1,0,100,1,0
1600,-100,4,1,0,70,0,0
13600,-153.846153846153,4,1,0,70,0,0
14400,-117.647058823529,4,1,0,55,0,0
16000,-100,4,3,0,78,0,0
17600,-100,4,1,0,79,0,0
41600,-100,4,1,0,56,0,0
43200,-100,4,1,0,76,0,0
44800,-100,4,1,0,66,0,0
45600,-100,4,1,0,25,0,0
45900,-100,4,1,0,9,0,0
46000,-100,4,1,0,26,0,0
46000,-100,4,1,0,56,0,0
46400,-100,4,1,0,76,0,0
47200,-100,4,1,0,26,0,0
47600,-100,4,1,0,56,0,0
48800,-100,4,1,0,76,0,0
52400,-76.9230769230769,4,1,0,76,0,0
52500,-100,4,1,0,26,0,0
52800,-100,4,1,0,76,0,0
53200,-100,4,1,0,36,0,0
53600,-100,4,1,0,76,0,0
54400,-100,4,1,0,56,0,0
54800,-100,4,1,0,66,0,0
55000,-100,4,1,0,56,0,0
55200,-100,4,1,0,76,0,0
58900,-100,4,1,0,16,0,0
59200,-100,4,1,0,76,0,0
62400,-86.9565217391304,4,1,0,76,0,0
63400,-100,4,1,0,76,0,0
64000,-83.3333333333333,4,1,0,76,0,0
65300,-100,4,1,0,24,0,0
77600,-100,4,1,0,66,0,0
78400,-83.3333333333333,4,1,0,76,0,0

[Colours]
Combo1 : 244,210,19
Combo2 : 44,248,33
Combo3 : 4,251,251
Combo4 : 209,51,249
Combo5 : 252,150,12

[HitObjects]
104,192,1600,5,0,0:0:0:0:
184,232,1800,1,0,0:0:0:0:
256,180,2000,2,0,L|376:176,1,90
440,123,2400,1,0,0:0:0:0:
448,149,2500,1,0,0:0:0:0:
452,176,2600,1,0,0:0:0:0:
448,202,2700,1,0,0:0:0:0:
439,228,2800,2,0,P|432:276|440:320,1,90
312,272,3200,6,0,L|288:336,2,45,0|0|0,0:0|0:0|0:0,0:0:0:0:
224,272,3600,2,0,L|184:356,1,90
136,272,4000,1,0,0:0:0:0:
128,246,4100,1,0,0:0:0:0:
124,219,4200,1,0,0:0:0:0:
128,193,4300,1,0,0:0:0:0:
137,167,4400,1,0,0:0:0:0:
64,88,4600,1,0,0:0:0:0:
168,68,4800,6,0,B|197:69|197:69|216:92|260:80,2,90,0|0|0,0:0|0:0|0:0,0:0:0:0:
64,88,5400,1,0,0:0:0:0:
21,185,5600,1,0,0:0:0:0:
13,209,5700,1,0,0:0:0:0:
16,236,5800,1,0,0:0:0:0:
32,258,5900,1,0,0:0:0:0:
56,269,6000,2,0,P|86:292|99:341,1,90
188,236,6400,6,0,L|208:300,2,45,0|0|0,0:0|0:0|0:0,0:0:0:0:
268,192,6800,2,0,L|300:280,1,90
348,144,7200,2,0,P|364:186|365:192,1,45
406,108,7400,2,0,P|422:150|423:156,1,45
466,73,7600,2,0,P|486:121|495:180,1,90
348,144,8000,6,0,B|312:144|288:120|288:120|240:120,2,90,0|0|0,0:0|0:0|0:0,0:0:0:0:
408,212,8600,1,0,0:0:0:0:
348,280,8800,1,0,0:0:0:0:
323,292,8900,1,0,0:0:0:0:
299,303,9000,1,0,0:0:0:0:
275,292,9100,1,0,0:0:0:0:
250,281,9200,1,0,0:0:0:0:
300,208,9400,1,0,0:0:0:0:
408,212,9600,6,0,P|436:268|432:304,1,90
372,360,10000,1,0,0:0:0:0:
299,303,10200,1,0,0:0:0:0:
220,348,10400,2,0,B|204:328|204:328|192:296,1,45
130,334,10600,2,0,B|126:308|126:308|131:274,1,45
58,277,10800,2,0,P|80:233|138:222,1,90
204,192,11200,6,0,P|176:146|125:131,2,90,0|0|0,0:0|0:0|0:0,0:0:0:0:
184,283,11800,1,0,0:0:0:0:
284,240,12000,1,0,0:0:0:0:
310,235,12100,1,0,0:0:0:0:
336,240,12200,2,0,P|354:239|393:220,2,45,0|0|0,0:0|0:0|0:0,0:0:0:0:
296,135,12600,1,0,0:0:0:0:
385,69,12800,6,0,B|420:52|420:52|448:80|484:77,1,90
296,135,13200,1,0,0:0:0:0:
232,238,13400,1,0,0:0:0:0:
169,135,13600,6,0,B|144:136|144:136|132:152|132:152|104:152,1,58.4999973220826
180,64,14000,2,0,B|208:64|204:32|232:48|232:48|260:32|256:64|284:64,1,116.999994644165
444,192,16000,5,4,0:0:0:0:
443,235,16100,1,4,0:0:0:0:
348,316,16300,1,4,0:0:0:0:
226,274,16500,1,4,0:0:0:0:
185,256,16600,1,4,0:0:0:0:
144,238,16700,1,4,0:0:0:0:
127,197,16800,1,4,0:0:0:0:
87,179,16900,1,4,0:0:0:0:
78,136,17000,1,4,0:0:0:0:
170,62,17200,5,4,0:0:0:0:
211,80,17300,1,4,0:0:0:0:
256,87,17400,1,4,0:0:0:0:
300,81,17500,1,4,0:0:0:0:
341,63,17600,5,4,1:3:0:0:
388,148,17800,1,0,0:0:0:0:
280,192,18000,2,0,P|248:232|252:268,1,90
348,336,18400,1,0,0:0:0:0:
384,332,18500,1,0,0:0:0:0:
420,328,18600,1,0,0:0:0:0:
252,268,18800,1,0,0:0:0:0:
216,264,18900,1,0,0:0:0:0:
180,260,19000,1,0,0:0:0:0:
144,256,19100,1,0,0:0:0:0:
108,252,19200,6,0,P|56:264|32:296,1,90
12,124,19600,1,0,0:0:0:0:
32,152,19700,1,0,0:0:0:0:
184,152,19900,1,0,0:0:0:0:
204,124,20000,1,0,0:0:0:0:
108,216,20200,1,0,0:0:0:0:
108,252,20300,1,0,0:0:0:0:
108,288,20400,2,0,L|108:344,3,45,0|0|0|0,0:0|0:0|0:0|0:0,0:0:0:0:
172,356,20800,6,0,P|216:372|272:368,2,90,0|0|0,0:0|0:0|0:0,0:0:0:0:
236,264,21400,1,0,0:0:0:0:
272,264,21500,1,0,0:0:0:0:
304,276,21600,1,0,0:0:0:0:
328,300,21700,1,0,0:0:0:0:
340,332,21800,1,0,0:0:0:0:
144,268,22000,2,0,L|136:216,2,45,0|0|0,0:0|0:0|0:0,0:0:0:0:
216,132,22400,5,0,0:0:0:0:
244,103,22500,1,0,0:0:0:0:
280,85,22600,1,0,0:0:0:0:
320,78,22700,1,0,0:0:0:0:
360,84,22800,1,0,0:0:0:0:
460,156,23000,1,0,0:0:0:0:
436,180,23100,1,0,0:0:0:0:
404,192,23200,1,0,0:0:0:0:
286,148,23400,1,0,0:0:0:0:
168,192,23600,2,0,P|112:184|72:160,1,90
31,126,23900,1,0,0:0:0:0:
0,185,24000,6,0,L|8:289,1,90
96,342,24400,2,0,L|125:295,2,45,0|0|0,0:0|0:0|0:0,0:0:0:0:
259,212,24800,1,0,0:0:0:0:
268,246,24900,1,0,0:0:0:0:
264,281,25000,2,0,P|252:304|220:326,2,45,0|0|0,0:0|0:0|0:0,0:0:0:0:
176,256,25400,1,0,0:0:0:0:
358,218,25600,5,0,0:0:0:0:
358,218,25700,1,0,0:0:0:0:
358,218,25800,1,0,0:0:0:0:
316,109,26000,2,0,L|351:65,2,45,0|0|0,0:0|0:0|0:0,0:0:0:0:
358,218,26400,1,0,0:0:0:0:
244,200,26600,1,0,0:0:0:0:
211,214,26700,1,0,0:0:0:0:
179,230,26800,1,0,0:0:0:0:
440,124,27000,1,0,0:0:0:0:
358,218,27200,6,0,P|390:256|430:274,1,90
311,147,27600,2,0,P|277:108|237:90,1,90
136,96,28000,1,0,0:0:0:0:
76,200,28200,1,0,0:0:0:0:
68,236,28300,2,0,L|56:280,1,45
212,272,28600,1,0,0:0:0:0:
204,236,28700,1,0,0:0:0:0:
196,200,28800,5,0,0:0:0:0:
284,284,29000,1,0,0:0:0:0:
364,192,29200,2,0,P|412:184|456:208,1,90
280,196,29600,2,0,L|256:152,1,45,0|0,0:0|0:0,0:0:0:0:
324,128,29800,2,0,L|300:84,1,45,0|0,0:0|0:0,0:0:0:0:
368,64,30000,1,0,0:0:0:0:
476,188,30200,1,0,0:0:0:0:
427,305,30400,6,0,L|368:288,1,45,0|0,0:0|0:0,0:0:0:0:
336,304,30600,1,0,0:0:0:0:
204,268,30800,2,0,L|212:328,1,45
136,168,31100,1,0,0:0:0:0:
92,144,31200,2,0,L|80:48,1,90
224,52,31600,2,0,L|176:36,1,45
180,112,31800,2,0,L|232:132,1,45
136,168,32000,5,0,0:0:0:0:
120,205,32100,1,0,0:0:0:0:
118,245,32200,2,0,L|118:307,1,45
188,328,32400,2,0,L|188:283,2,45,0|0|0,0:0|0:0|0:0,0:0:0:0:
40,192,32800,2,0,L|40:240,2,45,0|0|0,0:0|0:0|0:0,0:0:0:0:
188,328,33200,1,0,0:0:0:0:
296,304,33400,1,0,0:0:0:0:
332,296,33500,1,0,0:0:0:0:
368,288,33600,5,0,0:0:0:0:
224,200,33800,1,0,0:0:0:0:
340,172,34000,2,0,L|396:120,1,45
224,200,34300,1,0,0:0:0:0:
180,184,34400,2,0,P|144:152|136:108,1,90
216,116,34800,1,0,0:0:0:0:
216,116,34900,1,0,0:0:0:0:
216,116,35000,1,0,0:0:0:0:
232,284,35200,5,0,0:0:0:0:
195,300,35300,1,0,0:0:0:0:
155,303,35400,1,0,0:0:0:0:
116,292,35500,1,0,0:0:0:0:
83,269,35600,1,0,0:0:0:0:
36,176,35800,1,0,0:0:0:0:
112,104,36000,1,0,0:0:0:0:
256,104,36200,2,0,L|276:160,1,45
360,95,36400,2,0,L|344:52,1,45
184,60,36700,1,0,0:0:0:0:
184,116,36800,6,0,L|184:168,2,45,0|0|0,0:0|0:0|0:0,0:0:0:0:
112,240,37200,2,0,L|98:196,2,45,0|0|0,0:0|0:0|0:0,0:0:0:0:
216,328,37600,2,0,L|229:284,2,45,0|0|0,0:0|0:0|0:0,0:0:0:0:
312,172,38000,21,0,0:0:0:0:
312,172,38100,1,0,0:0:0:0:
312,172,38200,1,0,0:0:0:0:
312,172,38300,1,0,0:0:0:0:
312,172,38400,2,0,L|336:232,1,45
376,136,38600,2,0,L|352:76,1,45
308,48,38800,1,0,0:0:0:0:
264,36,38900,1,0,0:0:0:0:
220,48,39000,1,0,0:0:0:0:
176,56,39100,1,0,0:0:0:0:
132,44,39200,2,0,L|104:48,4,22.5,0|0|0|0|0,0:0|0:0|0:0|0:0|0:0,0:0:0:0:
144,88,39500,1,0,0:0:0:0:
136,132,39600,1,0,0:0:0:0:
108,168,39700,1,0,0:0:0:0:
64,180,39800,2,0,L|72:216,3,22.5,0|0|0|0,0:0|0:0|0:0|0:0,0:0:0:0:
20,160,40000,5,0,0:0:0:0:
88,264,40200,1,0,0:0:0:0:
204,224,40400,1,0,0:0:0:0:
316,300,40600,1,0,0:0:0:0:
316,300,40700,1,0,0:0:0:0:
316,300,40800,2,0,L|316:356,1,45,4|0,0:0|0:0,0:0:0:0:
328,256,41000,1,0,0:3:0:0:
340,212,41100,1,0,0:3:0:0:
352,168,41200,1,0,0:0:0:0:
320,52,41400,1,0,0:0:0:0:
276,56,41500,1,0,0:0:0:0:
232,60,41600,6,0,L|203:63,8,22.5,0|0|0|0|0|0|0|0|0,0:0|0:0|0:0|0:0|0:0|0:0|0:0|0:0|0:0,0:0:0:0:
256,148,42200,1,0,0:0:0:0:
148,148,42400,1,0,0:0:0:0:
204,260,42600,1,0,0:0:0:0:
40,148,42800,1,0,0:0:0:0:
60,124,42900,1,0,0:0:0:0:
80,100,43000,1,0,0:0:0:0:
100,76,43100,1,0,0:0:0:0:
120,52,43200,5,4,0:0:0:0:
392,332,43400,1,4,0:0:0:0:
280,360,43600,1,0,0:0:0:0:
392,228,43800,1,0,0:0:0:0:
392,228,43900,1,0,0:0:0:0:
392,228,44000,2,0,L|448:272,1,45
376,184,44200,1,0,0:0:0:0:
360,140,44300,1,0,0:0:0:0:
344,96,44400,1,0,0:0:0:0:
252,32,44600,1,0,0:0:0:0:
232,72,44700,1,0,0:0:0:0:
212,116,44800,6,0,L|184:164,1,45
164,192,45000,1,0,0:0:0:0:
122,176,45100,1,0,0:0:0:0:
80,192,45200,1,0,0:0:0:0:
54,155,45300,2,0,P|34:137|8:132,1,45
152,112,45600,6,0,P|192:156|264:196,1,135,0|0,2:0|0:0,2:0:0:0:
354,252,46000,2,0,P|290:276|238:340,1,135,0|0,2:0|0:0,0:0:0:0:
246,325,46400,5,0,0:0:0:0:
104,296,46600,1,0,0:0:0:0:
246,325,46800,1,0,0:0:0:0:
220,212,47000,1,0,0:0:0:0:
208,184,47100,1,0,0:0:0:0:
196,156,47200,2,0,L|200:120,8,22.5,0|0|0|0|0|0|0|0|0,0:0|0:0|0:0|0:0|0:0|0:0|0:0|0:0|0:0,0:0:0:0:
304,220,47800,1,0,0:0:0:0:
412,156,48000,2,0,L|408:120,8,22.5,0|0|0|0|0|0|0|0|0,0:0|0:0|0:0|0:0|0:0|0:0|0:0|0:0|0:0,0:0:0:0:
412,156,48800,5,0,0:0:0:0:
392,205,48900,1,0,0:0:0:0:
375,255,49000,2,0,L|356:296,1,45
292,296,49200,5,0,0:0:0:0:
277,250,49300,1,0,0:0:0:0:
259,203,49400,1,0,0:0:0:0:
244,156,49500,1,0,0:0:0:0:
226,110,49600,5,4,0:0:0:0:
44,332,49800,1,4,0:0:0:0:
168,336,50000,1,0,0:0:0:0:
36,216,50200,1,0,0:0:0:0:
36,216,50300,1,0,0:0:0:0:
36,216,50400,2,0,L|0:252,1,45
72,184,50600,1,0,0:0:0:0:
104,152,50700,1,0,0:0:0:0:
136,120,50800,1,0,0:0:0:0:
256,160,51000,1,0,0:0:0:0:
376,120,51200,6,0,L|356:140,1,22.5
408,148,51300,2,0,L|388:168,1,22.5
436,180,51400,2,0,L|416:200,1,22.5
464,212,51500,2,0,L|444:232,1,22.5
492,244,51600,1,0,0:0:0:0:
336,200,51800,1,0,0:0:0:0:
392,48,52000,1,0,0:0:0:0:
220,152,52200,1,0,0:0:0:0:
411,308,52400,2,0,P|408:280|392:256,1,58.4999973220826
280,328,52800,5,0,0:0:0:0:
412,308,53000,1,0,0:0:0:0:
184,236,53200,2,0,L|212:212,7,22.5,0|0|0|0|0|0|0|0,0:0|0:0|0:0|0:0|0:0|0:0|0:0|0:0,0:0:0:0:
140,232,53600,1,0,0:0:0:0:
140,232,53700,1,0,0:0:0:0:
140,232,53800,2,0,L|104:264,1,45,0|0,0:0|0:0,0:0:0:0:
40,228,54000,2,0,L|73:198,1,45,0|0,0:0|0:0,0:0:0:0:
136,160,54200,1,0,0:0:0:0:
40,56,54400,6,0,L|16:76,7,22.5,0|0|0|0|0|0|0|0,0:0|0:0|0:0|0:0|0:0|0:0|0:0|0:0,0:0:0:0:
109,56,54800,2,0,L|133:76,7,22.5,0|0|0|0|0|0|0|0,0:0|0:0|0:0|0:0|0:0|0:0|0:0|0:0,0:0:0:0:
160,12,55200,5,0,0:0:0:0:
204,4,55300,1,0,0:0:0:0:
248,12,55400,1,0,0:0:0:0:
280,44,55500,1,0,0:0:0:0:
292,88,55600,2,0,L|344:80,1,45
376,144,55800,2,0,L|331:150,1,45
256,156,56000,5,0,0:0:0:0:
72,180,56200,1,0,0:0:0:0:
56,220,56300,1,0,0:0:0:0:
60,264,56400,1,0,0:0:0:0:
84,300,56500,1,0,0:0:0:0:
124,320,56600,1,0,0:0:0:0:
168,312,56700,1,0,0:0:0:0:
196,276,56800,2,0,L|236:312,2,45,0|0|0,0:0|0:0|0:0,0:0:0:0:
300,176,57200,1,0,0:0:0:0:
196,276,57400,1,0,0:0:0:0:
208,135,57600,6,0,L|174:123,1,22.5,0|0,0:0|0:0,0:0:0:0:
221,108,57700,2,0,L|190:87,1,22.5,0|0,0:0|0:0,0:0:0:0:
242,89,57800,2,0,L|222:63,1,22.5,0|0,0:0|0:0,0:0:0:0:
268,77,57900,2,0,L|260:49,1,22.5
298,74,58000,1,0,0:0:0:0:
196,276,58200,1,0,0:0:0:0:
71,138,58400,2,0,L|98:175,1,45,2|2,0:2|0:2,0:2:0:0:
208,136,58600,2,0,L|172:107,1,45,2|2,0:2|0:2,0:2:0:0:
45,247,58800,2,0,L|86:264,1,45,2|2,0:2|0:2,0:2:0:0:
140,135,59200,5,0,0:0:0:0:
260,78,59400,1,0,0:0:0:0:
372,135,59600,1,0,0:0:0:0:
372,180,59700,1,0,0:0:0:0:
372,225,59800,1,0,0:0:0:0:
345,261,59900,1,0,0:0:0:0:
318,297,60000,1,0,0:0:0:0:
256,192,60200,1,0,0:0:0:0:
140,135,60400,1,0,0:0:0:0:
140,180,60500,1,0,0:0:0:0:
140,225,60600,1,0,0:0:0:0:
167,261,60700,1,0,0:0:0:0:
194,297,60800,2,0,L|199:337,7,22.5,0|0|0|0|0|0|0|0,0:0|0:0|0:0|0:0|0:0|0:0|0:0|0:0,0:0:0:0:
145,307,61200,5,0,0:0:0:0:
97,295,61300,1,0,0:0:0:0:
57,263,61400,1,0,0:0:0:0:
33,219,61500,1,0,0:0:0:0:
33,171,61600,1,0,0:0:0:0:
504,240,61800,1,0,0:0:0:0:
408,100,62000,1,0,0:0:0:0:
370,69,62100,1,0,0:0:0:0:
320,60,62200,1,0,0:0:0:0:
272,72,62300,1,0,0:0:0:0:
230,96,62400,6,0,L|143:168,1,103.500001974106,4|0,0:3|0:0,0:0:0:0:
230,324,62800,2,0,L|150:258,1,103.500001974106,4|0,0:3|0:2,0:0:0:0:
24,208,63200,2,0,L|17:156,2,51.7500009870529,0|0|0,0:0|0:0|0:0,0:0:0:0:
32,252,63500,1,0,0:0:0:0:
48,294,63600,1,0,0:0:0:0:
96,308,63700,1,0,0:0:0:0:
144,322,63800,1,0,0:0:0:0:
336,368,64000,6,0,L|274:368,1,53.9999983520508
284,296,64200,2,0,L|230:296,1,53.9999983520508
236,224,64400,2,0,L|182:224,1,53.9999983520508
186,152,64600,2,0,L|130:152,1,53.9999983520508
250,72,64800,2,0,L|250:16,1,53.9999983520508,0|0,0:0|0:0,0:0:0:0:
346,152,65000,2,0,L|290:152,1,53.9999983520508
132,98,65200,2,0,L|132:152,1,53.9999983520508
256,112,77600,5,0,0:0:0:0:
256,272,77800,1,0,0:0:0:0:
292,252,77900,1,0,0:0:0:0:
328,232,78000,1,0,0:0:0:0:
256,112,78200,1,0,0:0:0:0:
292,132,78300,1,0,0:0:0:0:
328,152,78400,6,0,P|376:160|424:128,1,107.999996704102
444,60,78700,2,0,P|488:96|477:175,1,107.999996704102
424,128,79000,1,0,0:0:0:0:
356,64,79200,2,0,P|300:44|252:64,1,107.999996704102
212,116,79500,2,0,P|161:132|112:112,1,107.999996704102
72,56,79800,1,0,0:0:0:0:
192,256,80100,5,0,0:0:0:0:
212,116,80400,1,0,0:0:0:0:
192,256,80600,1,0,0:0:0:0:
224,292,80700,1,0,0:0:0:0:
264,320,80800,2,0,P|292:332|332:332,1,53.9999983520508
400,320,81000,2,0,P|408:276|408:244,1,53.9999983520508
456,192,81200,1,0,0:0:0:0:
456,192,81300,1,0,0:0:0:0:
456,192,81400,1,0,0:0:0:0:
312,92,81600,6,0,P|258:91|210:115,1,107.999996704102
175,179,81900,2,0,P|127:202|73:202,1,107.999996704102,0|0,0:0|0:0,0:0:0:0:
4,192,82200,2,0,P|3:159|-6:133,1,53.9999983520508,0|0,0:0|0:0,2:0:0:0:
30,256,82400,2,0,P|39:308|25:360,1,107.999996704102,0|0,0:0|0:0,0:0:0:0:
100,359,82700,2,0,L|156:334,2,53.9999983520508,0|0|0,0:0|0:0|0:0,0:0:0:0:
104,280,83000,1,0,0:0:0:0:
256,192,83300,5,0,0:0:0:0:
172,24,83600,2,0,P|180:68|180:80,1,53.9999983520508
248,72,83800,2,0,P|256:116|256:128,1,53.9999983520508
324,122,84000,2,0,P|383:124|386:119,1,53.9999983520508
454,159,84200,2,0,P|457:119|453:91,2,53.9999983520508,0|0|0,0:0|0:0|0:0,0:0:0:0:
447,229,84500,1,0,0:0:0:0:
384,260,84600,2,0,P|352:258|320:240,1,53.9999983520508
256,192,84800,5,0,0:0:0:0:
128,124,85000,1,0,0:0:0:0:
128,172,85100,1,0,0:0:0:0:
256,192,85300,1,0,0:0:0:0:
384,212,85500,1,0,0:0:0:0:
384,260,85600,1,0,0:0:0:0:
256,348,85800,1,0,0:0:0:0:
128,260,86000,1,0,0:0:0:0:
128,260,86100,1,0,0:0:0:0:
128,260,86200,1,0,0:0:0:0:
128,260,86300,1,0,0:0:0:0:
128,260,86400,5,0,0:0:0:0:
256,192,86600,1,0,0:0:0:0:
296,164,86700,1,0,0:0:0:0:
408,76,86900,1,0,0:0:0:0:
496,184,87100,1,0,0:0:0:0:
496,232,87200,1,0,0:0:0:0:
361,302,87400,1,0,0:0:0:0:
256,192,87600,1,0,0:0:0:0:
256,192,87700,1,0,0:0:0:0:
256,192,87800,1,0,0:0:0:0:
256,192,87900,1,0,0:0:0:0:
256,192,88000,5,0,0:0:0:0:
128,260,88200,1,0,0:0:0:0:
100,220,88300,2,0,L|68:172,1,53.9999983520508
42,135,88500,1,0,0:0:0:0:
132,32,88700,1,0,0:0:0:0:
181,35,88800,1,0,0:0:0:0:
284,128,89000,1,0,0:0:0:0:
144,132,89200,1,0,0:0:0:0:
144,132,89300,1,0,0:0:0:0:
144,132,89400,1,0,0:0:0:0:
144,132,89500,1,0,0:0:0:0:
144,132,89600,5,0,0:0:0:0:
184,116,89700,1,0,0:0:0:0:
220,93,89800,1,0,0:0:0:0:
252,64,89900,1,0,0:0:0:0:
296,56,90000,1,0,0:0:0:0:
336,76,90100,1,0,0:0:0:0:
356,116,90200,1,0,0:0:0:0:
348,160,90300,1,0,0:0:0:0:
320,192,90400,2,0,P|312:240|320:264,1,53.9999983520508
324,285,90600,1,0,0:0:0:0:
324,285,90700,1,0,0:0:0:0:
447,324,90900,1,0,0:0:0:0:
466,279,91000,1,0,0:0:0:0:
462,230,91100,1,0,0:0:0:0:
462,230,91200,5,0,0:0:0:0:
