osu file format v12

[General]
AudioFilename: Minua_ollaan_vastassa_(RAPEMIXXX).mp3
AudioLeadIn: 0
PreviewTime: -1
Countdown: 1
SampleSet: Normal
StackLeniency: 0.7
Mode: 0
LetterboxInBreaks: 1
WidescreenStoryboard: 0

[Editor]
DistanceSpacing: 1
BeatDivisor: 4
GridSize: 8

[Metadata]
Title:minua_ollaan_vastassa_(RAPEMIXX)
TitleUnicode:minua_ollaan_vastassa_(RAPEMIXX)
Artist:unknown
ArtistUnicode:unknown
Creator:[AsunaYuuki]
Version:MANY KAWAII
Source:
Tags:
BeatmapID:344482
BeatmapSetID:137869

[Difficulty]
HPDrainRate:6
CircleSize:5
OverallDifficulty:7
ApproachRate:10
SliderMultiplier:1.4
SliderTickRate:1

[Events]
//Background and Video events
//Break Periods
2,24610,26015
//Storyboard Layer 0 (Background)
//Storyboard Layer 1 (Fail)
//Storyboard Layer 2 (Pass)
//Storyboard Layer 3 (Foreground)
//Storyboard Sound Samples
//Background Colour Transformations
3,100,163,162,255

[TimingPoints]
10438.3466650285,410.958904109589,4,1,0,100,1,0

[Colours]
Combo1 : 255,0,0
Combo2 : 255,255,0

[HitObjects]
112,192,13315,1,0,0:0:0:0:
208,80,13726,1,0,0:0:0:0:
352,232,14136,1,0,0:0:0:0:
192,256,14547,1,0,0:0:0:0:
392,88,14958,1,0,0:0:0:0:
192,176,15369,1,0,0:0:0:0:
296,216,15780,1,0,0:0:0:0:
272,112,16191,1,0,0:0:0:0:
128,248,16602,1,0,0:0:0:0:
368,224,17013,1,0,0:0:0:0:
168,128,17424,1,0,0:0:0:0:
240,232,17835,1,0,0:0:0:0:
376,96,18246,1,0,0:0:0:0:
152,264,18657,1,0,0:0:0:0:
352,240,19068,1,0,0:0:0:0:
184,112,19479,1,0,0:0:0:0:
272,240,19890,1,0,0:0:0:0:
360,112,20301,1,0,0:0:0:0:
192,200,20712,1,0,0:0:0:0:
384,224,21123,1,0,0:0:0:0:
168,112,21534,1,0,0:0:0:0:
112,240,21945,1,0,0:0:0:0:
416,88,22356,1,0,0:0:0:0:
440,176,22767,1,0,0:0:0:0:
408,280,23178,1,0,0:0:0:0:
232,320,23589,1,0,0:0:0:0:
168,112,23999,5,0,0:0:0:0:
128,192,24410,5,0,0:0:0:0:
112,192,26465,5,0,0:0:0:0:
408,192,26876,1,0,0:0:0:0:
112,192,27287,1,0,0:0:0:0:
408,192,27698,1,0,0:0:0:0:
168,328,27801,1,0,0:0:0:0:
264,56,27904,1,0,0:0:0:0:
360,328,28006,1,0,0:0:0:0:
112,192,28109,1,0,0:0:0:0:
408,192,28520,1,0,0:0:0:0:
112,192,28931,1,0,0:0:0:0:
408,192,29342,1,0,0:0:0:0:
336,96,29445,1,0,0:0:0:0:
312,272,29547,1,0,0:0:0:0:
256,152,29650,1,0,0:0:0:0:
112,192,29753,1,0,0:0:0:0:
408,192,30164,1,0,0:0:0:0:
112,192,30575,1,0,0:0:0:0:
408,192,30986,1,0,0:0:0:0:
320,64,31089,1,0,0:0:0:0:
200,320,31191,1,0,0:0:0:0:
256,192,31294,1,0,0:0:0:0:
112,192,31397,1,0,0:0:0:0:
408,192,31808,1,0,0:0:0:0:
112,192,32219,5,0,0:0:0:0:
408,192,32630,1,0,0:0:0:0:
352,128,32732,1,0,0:0:0:0:
216,64,32835,1,0,0:0:0:0:
272,272,32938,1,0,0:0:0:0:
112,192,33041,1,0,0:0:0:0:
408,192,33452,1,0,0:0:0:0:
112,192,33863,1,0,0:0:0:0:
408,192,34273,1,0,0:0:0:0:
344,256,34376,1,0,0:0:0:0:
304,328,34479,1,0,0:0:0:0:
240,216,34582,1,0,0:0:0:0:
112,192,34684,1,0,0:0:0:0:
408,192,35095,1,0,0:0:0:0:
112,192,35506,1,0,0:0:0:0:
408,192,35917,1,0,0:0:0:0:
352,128,36020,1,0,0:0:0:0:
304,208,36123,1,0,0:0:0:0:
248,128,36226,1,0,0:0:0:0:
112,192,36328,1,0,0:0:0:0:
408,192,36739,1,0,0:0:0:0:
112,192,37150,1,0,0:0:0:0:
408,192,37561,1,0,0:0:0:0:
336,240,37664,1,0,0:0:0:0:
360,96,37767,1,0,0:0:0:0:
208,240,37869,1,0,0:0:0:0:
112,192,37972,1,0,0:0:0:0:
408,192,38383,1,0,0:0:0:0:
112,192,38794,1,0,0:0:0:0:
408,192,39205,1,0,0:0:0:0:
112,72,39308,1,0,0:0:0:0:
256,192,39410,1,0,0:0:0:0:
112,304,39513,1,0,0:0:0:0:
112,192,39616,1,0,0:0:0:0:
408,192,40027,1,0,0:0:0:0:
112,192,40438,1,0,0:0:0:0:
408,192,40849,1,0,0:0:0:0:
256,64,40952,1,0,0:0:0:0:
256,312,41054,1,0,0:0:0:0:
256,192,41157,1,0,0:0:0:0:
112,192,41260,1,0,0:0:0:0:
408,192,41671,1,0,0:0:0:0:
112,192,42082,1,0,0:0:0:0:
408,192,42493,1,0,0:0:0:0:
328,128,42595,1,0,0:0:0:0:
192,280,42698,1,0,0:0:0:0:
312,288,42801,1,0,0:0:0:0:
112,192,42904,1,0,0:0:0:0:
408,192,43315,1,0,0:0:0:0:
112,192,43726,1,0,0:0:0:0:
408,192,44136,1,0,0:0:0:0:
304,120,44239,1,0,0:0:0:0:
208,192,44342,1,0,0:0:0:0:
304,256,44445,1,0,0:0:0:0:
112,192,44547,1,0,0:0:0:0:
408,192,44958,1,0,0:0:0:0:
112,192,45369,1,0,0:0:0:0:
408,192,45780,1,0,0:0:0:0:
168,80,45883,1,0,0:0:0:0:
224,304,45986,1,0,0:0:0:0:
312,120,46089,1,0,0:0:0:0:
112,192,46191,1,0,0:0:0:0:
408,192,46602,1,0,0:0:0:0:
112,192,47013,1,0,0:0:0:0:
408,192,47424,1,0,0:0:0:0:
296,232,47527,1,0,0:0:0:0:
256,152,47630,1,0,0:0:0:0:
216,232,47732,1,0,0:0:0:0:
112,192,47835,1,0,0:0:0:0:
408,192,48246,1,0,0:0:0:0:
112,192,48657,1,0,0:0:0:0:
336,80,49068,1,0,0:0:0:0:
160,128,49171,1,0,0:0:0:0:
336,192,49273,1,0,0:0:0:0:
160,240,49376,1,0,0:0:0:0:
336,296,49479,1,0,0:0:0:0:
408,192,49890,1,0,0:0:0:0:
112,192,50301,1,0,0:0:0:0:
408,192,50712,1,0,0:0:0:0:
176,88,50815,1,0,0:0:0:0:
216,176,50917,1,0,0:0:0:0:
400,96,51020,1,0,0:0:0:0:
112,192,51123,1,0,0:0:0:0:
408,192,51534,1,0,0:0:0:0:
112,192,51945,1,0,0:0:0:0:
408,192,52356,1,0,0:0:0:0:
320,248,52458,1,0,0:0:0:0:
264,80,52561,1,0,0:0:0:0:
208,160,52664,1,0,0:0:0:0:
112,192,52767,1,0,0:0:0:0:
408,192,53178,1,0,0:0:0:0:
112,192,53589,1,0,0:0:0:0:
408,192,53999,1,0,0:0:0:0:
328,336,54102,1,0,0:0:0:0:
152,40,54205,1,0,0:0:0:0:
312,152,54308,1,0,0:0:0:0:
112,192,54410,1,0,0:0:0:0:
256,192,54821,1,0,0:0:0:0:
184,96,55232,1,0,0:0:0:0:
232,336,55643,1,0,0:0:0:0:
272,264,55746,1,0,0:0:0:0:
320,336,55849,1,0,0:0:0:0:
352,264,55952,1,0,0:0:0:0:
424,280,56054,1,0,0:0:0:0:
176,176,56465,1,0,0:0:0:0:
384,184,56876,1,0,0:0:0:0:
304,88,57287,1,0,0:0:0:0:
144,96,57390,1,0,0:0:0:0:
336,232,57493,1,0,0:0:0:0:
112,216,57595,1,0,0:0:0:0:
200,272,57698,1,0,0:0:0:0:
376,320,58109,1,0,0:0:0:0:
200,72,58520,5,0,0:0:0:0:
256,192,58931,5,0,0:0:0:0:
368,112,59034,1,0,0:0:0:0:
144,176,59136,1,0,0:0:0:0:
312,256,59239,1,0,0:0:0:0:
256,192,59342,12,0,60164,0:0:0:0:
