osu file format v12

[General]
AudioFilename: Kalimba.mp3
AudioLeadIn: 0
PreviewTime: -1
Countdown: 1
SampleSet: None
StackLeniency: 0.7
Mode: 0
LetterboxInBreaks: 1

[Editor]
DistanceSpacing: 1
BeatDivisor: 4
GridSize: 32

[Metadata]
Title:challenge for OSU!
TitleUnicode:challenge for OSU!
Artist:unknown
ArtistUnicode:unknown
Creator:bobby191
Version:never can do it without no Fail
Source:
Tags:
BeatmapID:251680
BeatmapSetID:93239

[Difficulty]
HPDrainRate:10
CircleSize:2
OverallDifficulty:10
ApproachRate:7
SliderMultiplier:0.400000005960464
SliderTickRate:4

[Events]
//Background and Video events
//Break Periods
2,49325,53350
//Storyboard Layer 0 (Background)
//Storyboard Layer 1 (Fail)
//Storyboard Layer 2 (Pass)
//Storyboard Layer 3 (Foreground)
//Storyboard Sound Samples
//Background Colour Transformations
3,100,163,162,255

[TimingPoints]
0,500,4,2,0,100,1,0

[Colours]
Combo1 : 255,128,192
Combo2 : 0,202,0
Combo3 : 18,124,255

[HitObjects]
256,192,9250,1,0,0:0:0:0:
192,64,11125,1,0,0:0:0:0:
256,192,16125,12,0,17750,0:0:0:0:
256,192,18000,12,0,18250,0:0:0:0:
256,192,18500,12,0,18625,0:0:0:0:
256,192,18875,12,0,19000,0:0:0:0:
256,192,19125,12,0,19250,0:0:0:0:
256,192,19500,12,0,19625,0:0:0:0:
256,192,19625,12,0,19750,0:0:0:0:
256,192,21125,12,0,21250,0:0:0:0:
256,192,21625,12,0,21750,0:0:0:0:
256,192,23125,12,0,23375,0:0:0:0:
256,192,23750,12,0,23875,0:0:0:0:
256,192,24000,12,0,24125,0:0:0:0:
256,192,25375,12,0,25500,0:0:0:0:
256,192,26500,12,0,26625,0:0:0:0:
256,192,28125,12,0,28250,0:0:0:0:
256,192,28875,12,0,29000,0:0:0:0:
256,192,30125,12,0,30250,0:0:0:0:
256,192,30875,12,0,31000,0:0:0:0:
256,192,31375,12,0,31625,0:0:0:0:
256,192,32625,12,0,32750,0:0:0:0:
256,192,33250,12,0,33375,0:0:0:0:
256,192,34000,12,0,34125,0:0:0:0:
256,192,34625,12,0,34750,0:0:0:0:
256,192,35750,12,0,35875,0:0:0:0:
256,192,36875,12,0,37000,0:0:0:0:
256,192,40500,5,0,0:0:0:0:
256,192,40625,1,0,0:0:0:0:
256,192,40750,1,0,0:0:0:0:
256,192,40875,1,0,0:0:0:0:
256,192,41000,1,0,0:0:0:0:
256,192,41125,1,0,0:0:0:0:
256,192,41250,1,0,0:0:0:0:
256,192,42500,1,0,0:0:0:0:
256,192,42625,1,0,0:0:0:0:
256,192,42750,1,0,0:0:0:0:
256,192,42875,1,0,0:0:0:0:
256,192,43000,1,0,0:0:0:0:
256,192,43125,1,0,0:0:0:0:
256,192,43250,1,0,0:0:0:0:
256,192,43375,1,0,0:0:0:0:
256,192,43875,1,0,0:0:0:0:
256,192,44000,1,0,0:0:0:0:
256,192,44250,1,0,0:0:0:0:
256,192,45125,5,0,0:0:0:0:
256,192,45375,1,0,0:0:0:0:
256,192,45500,1,0,0:0:0:0:
256,192,45625,1,0,0:0:0:0:
256,192,45750,1,0,0:0:0:0:
256,192,45875,1,0,0:0:0:0:
256,192,46000,1,0,0:0:0:0:
256,192,46125,1,0,0:0:0:0:
256,192,46250,1,0,0:0:0:0:
256,192,46500,1,0,0:0:0:0:
256,192,46750,1,0,0:0:0:0:
256,192,46875,1,0,0:0:0:0:
256,192,47000,1,0,0:0:0:0:
256,192,47250,1,0,0:0:0:0:
320,64,49125,1,0,0:0:0:0:
64,64,54250,6,0,B|288:160|320:256|256:64|128:288|256:160|416:288|416:224|448:288|480:192,1,510.000007599592
256,192,62500,12,0,62750,0:0:0:0:
256,192,63375,12,0,63500,0:0:0:0:
256,192,63875,12,0,64000,0:0:0:0:
256,192,64125,12,0,64250,0:0:0:0:
256,192,65375,12,0,65500,0:0:0:0:
256,192,65625,12,0,65750,0:0:0:0:
256,192,65875,12,0,66000,0:0:0:0:
256,192,66125,12,0,66250,0:0:0:0:
256,192,69875,12,0,70000,0:0:0:0:
256,192,70750,12,0,70875,0:0:0:0:
256,192,71000,12,0,71250,0:0:0:0:
256,192,71500,12,0,71625,0:0:0:0:
256,192,71750,12,0,71875,0:0:0:0:
256,192,73375,12,0,73500,0:0:0:0:
256,192,74500,12,0,74625,0:0:0:0:
256,192,79625,12,0,79750,0:0:0:0:
256,192,80125,12,0,80250,0:0:0:0:
256,192,80625,12,0,80750,0:0:0:0:
96,64,83625,6,0,B|512:384|192:160|352:64|416:96,1,460.000006854534
256,192,92500,12,0,92625,0:0:0:0:
256,192,93500,12,0,93625,0:0:0:0:
256,192,94125,12,0,94250,0:0:0:0:
256,192,96375,12,0,96500,0:0:0:0:
256,192,99125,12,0,99250,0:0:0:0:
256,192,99750,5,0,0:0:0:0:
256,192,99875,1,0,0:0:0:0:
256,192,100000,1,0,0:0:0:0:
256,192,100250,1,0,0:0:0:0:
256,192,100375,1,0,0:0:0:0:
256,192,100500,1,0,0:0:0:0:
256,192,100625,1,0,0:0:0:0:
256,192,100875,1,0,0:0:0:0:
256,192,101000,1,0,0:0:0:0:
256,192,101125,1,0,0:0:0:0:
256,192,101375,1,0,0:0:0:0:
256,192,101500,1,0,0:0:0:0:
256,192,101750,1,0,0:0:0:0:
256,192,104250,12,0,105750,0:0:0:0:
224,192,106375,5,0,0:0:0:0:
256,192,110750,12,0,112000,0:0:0:0:
224,224,112250,5,0,0:0:0:0:
256,192,115625,12,0,116375,0:0:0:0:
96,64,120250,6,0,P|416:320|416:32,1,920.000013709068
256,96,127250,5,0,0:0:0:0:
256,160,128750,1,0,0:0:0:0:
256,96,129375,1,0,0:0:0:0:
352,64,129750,1,0,0:0:0:0:
320,96,130125,1,0,0:0:0:0:
288,128,130625,1,0,0:0:0:0:
288,224,131000,1,0,0:0:0:0:
