osu file format v12

[General]
AudioFilename: Kalimba.mp3
AudioLeadIn: 0
PreviewTime: -1
Countdown: 1
SampleSet: None
StackLeniency: 0.7
Mode: 0
LetterboxInBreaks: 1

[Editor]
DistanceSpacing: 1
BeatDivisor: 4
GridSize: 32

[Metadata]
Title:challenge for OSU!
TitleUnicode:challenge for OSU!
Artist:unknown
ArtistUnicode:unknown
Creator:bobby191
Version:more slider more fun
Source:
Tags:
BeatmapID:251678
BeatmapSetID:93239

[Difficulty]
HPDrainRate:10
CircleSize:2
OverallDifficulty:10
ApproachRate:7
SliderMultiplier:0.400000005960464
SliderTickRate:4

[Events]
//Background and Video events
//Break Periods
2,49325,53350
2,116575,118725
2,236574,243850
2,311324,315850
2,338200,347155
//Storyboard Layer 0 (Background)
//Storyboard Layer 1 (Fail)
//Storyboard Layer 2 (Pass)
//Storyboard Layer 3 (Foreground)
//Storyboard Sound Samples
//Background Colour Transformations
3,100,163,162,255

[TimingPoints]
0,500,4,2,0,100,1,0

[Colours]
Combo1 : 255,128,192
Combo2 : 0,202,0
Combo3 : 18,124,255

[HitObjects]
256,192,9250,1,0,0:0:0:0:
192,64,11125,1,0,0:0:0:0:
256,192,16125,12,0,17750,0:0:0:0:
256,192,18000,12,0,18250,0:0:0:0:
256,192,18500,12,0,18625,0:0:0:0:
256,192,18875,12,0,19000,0:0:0:0:
256,192,19125,12,0,19250,0:0:0:0:
256,192,19500,12,0,19625,0:0:0:0:
256,192,19625,12,0,19750,0:0:0:0:
256,192,21125,12,0,21250,0:0:0:0:
256,192,21625,12,0,21750,0:0:0:0:
256,192,23125,12,0,23375,0:0:0:0:
256,192,23750,12,0,23875,0:0:0:0:
256,192,24000,12,0,24125,0:0:0:0:
256,192,25375,12,0,25500,0:0:0:0:
256,192,26500,12,0,26625,0:0:0:0:
256,192,28125,12,0,28250,0:0:0:0:
256,192,28875,12,0,29000,0:0:0:0:
256,192,30125,12,0,30250,0:0:0:0:
256,192,30875,12,0,31000,0:0:0:0:
256,192,31375,12,0,31625,0:0:0:0:
256,192,32625,12,0,32750,0:0:0:0:
256,192,33250,12,0,33375,0:0:0:0:
256,192,34000,5,0,0:0:0:0:
256,192,34625,12,0,34750,0:0:0:0:
256,192,35000,5,0,0:0:0:0:
256,192,35750,12,0,35875,0:0:0:0:
256,192,36125,5,0,0:0:0:0:
256,192,36875,1,0,0:0:0:0:
256,192,40375,1,0,0:0:0:0:
256,192,40500,5,0,0:0:0:0:
256,192,40625,1,0,0:0:0:0:
256,192,40750,1,0,0:0:0:0:
256,192,40875,1,0,0:0:0:0:
256,192,41000,1,0,0:0:0:0:
256,192,41125,1,0,0:0:0:0:
256,192,41250,1,0,0:0:0:0:
192,128,42500,1,0,0:0:0:0:
256,192,42625,1,0,0:0:0:0:
256,192,42750,1,0,0:0:0:0:
256,192,42875,1,0,0:0:0:0:
256,192,43000,1,0,0:0:0:0:
256,192,43125,1,0,0:0:0:0:
256,192,43250,1,0,0:0:0:0:
256,192,43375,1,0,0:0:0:0:
256,192,43875,1,0,0:0:0:0:
256,192,44000,1,0,0:0:0:0:
256,192,44250,1,0,0:0:0:0:
256,192,45125,5,0,0:0:0:0:
256,192,45250,1,0,0:0:0:0:
256,192,45375,1,0,0:0:0:0:
256,192,45500,1,0,0:0:0:0:
256,192,45625,1,0,0:0:0:0:
256,192,45750,1,0,0:0:0:0:
256,192,45875,1,0,0:0:0:0:
256,192,46000,1,0,0:0:0:0:
256,192,46125,1,0,0:0:0:0:
256,192,46250,1,0,0:0:0:0:
256,192,46500,1,0,0:0:0:0:
256,192,46750,1,0,0:0:0:0:
256,192,46875,1,0,0:0:0:0:
256,192,47000,1,0,0:0:0:0:
256,192,47250,1,0,0:0:0:0:
128,128,49000,1,0,0:0:0:0:
320,64,49125,1,0,0:0:0:0:
64,64,54250,6,0,B|288:160|320:256|256:64|128:288|256:160|416:288|416:224|448:288|480:192,1,510.000007599592
160,288,55250,1,0,0:0:0:0:
224,320,56000,1,0,0:0:0:0:
96,224,56500,1,0,0:0:0:0:
96,256,56875,1,0,0:0:0:0:
128,256,57250,1,0,0:0:0:0:
160,288,57875,1,0,0:0:0:0:
256,192,62500,12,0,62750,0:0:0:0:
96,128,63000,5,0,0:0:0:0:
256,192,63375,12,0,63500,0:0:0:0:
128,160,63500,1,0,0:0:0:0:
256,192,63875,12,0,64000,0:0:0:0:
288,224,64125,5,0,0:0:0:0:
256,192,65375,12,0,65500,0:0:0:0:
256,160,65625,5,0,0:0:0:0:
256,192,65875,12,0,66000,0:0:0:0:
256,192,66125,12,0,66250,0:0:0:0:
256,160,67250,5,0,0:0:0:0:
96,32,69875,1,0,0:0:0:0:
256,192,70750,12,0,70875,0:0:0:0:
256,192,71000,12,0,71250,0:0:0:0:
256,192,71250,5,0,0:0:0:0:
256,192,71500,12,0,71625,0:0:0:0:
256,192,71750,12,0,71875,0:0:0:0:
256,192,72125,5,0,0:0:0:0:
256,192,73375,12,0,73500,0:0:0:0:
192,192,73625,5,0,0:0:0:0:
256,192,74500,12,0,74625,0:0:0:0:
192,192,74750,5,0,0:0:0:0:
480,224,78500,1,0,0:0:0:0:
448,224,78875,1,0,0:0:0:0:
448,224,79000,1,0,0:0:0:0:
448,224,79125,1,0,0:0:0:0:
256,192,79375,1,0,0:0:0:0:
256,192,79625,1,0,0:0:0:0:
256,192,80125,12,0,80250,0:0:0:0:
256,192,80250,5,0,0:0:0:0:
256,192,80625,12,0,80750,0:0:0:0:
256,192,81500,5,0,0:0:0:0:
256,192,82375,1,0,0:0:0:0:
256,192,82625,1,0,0:0:0:0:
96,64,83625,6,0,B|512:384|192:160|352:64|416:96,1,460.000006854534
224,288,84000,1,0,0:0:0:0:
128,288,84750,1,0,0:0:0:0:
128,288,84875,1,0,0:0:0:0:
160,320,85375,1,0,0:0:0:0:
192,160,87750,1,0,0:0:0:0:
320,128,89250,1,0,0:0:0:0:
256,192,92500,12,0,92625,0:0:0:0:
96,96,92875,5,0,0:0:0:0:
256,192,93500,12,0,93625,0:0:0:0:
96,96,93875,5,0,0:0:0:0:
256,192,94125,12,0,94250,0:0:0:0:
96,96,94750,5,0,0:0:0:0:
256,192,96375,12,0,96500,0:0:0:0:
96,96,96625,5,0,0:0:0:0:
256,192,99125,12,0,99250,0:0:0:0:
256,224,99250,1,0,0:0:0:0:
256,192,99750,5,0,0:0:0:0:
256,192,99875,1,0,0:0:0:0:
256,192,100000,1,0,0:0:0:0:
256,192,100250,1,0,0:0:0:0:
256,192,100375,1,0,0:0:0:0:
256,192,100500,1,0,0:0:0:0:
256,192,100625,1,0,0:0:0:0:
256,192,100875,1,0,0:0:0:0:
256,192,101000,1,0,0:0:0:0:
256,192,101125,1,0,0:0:0:0:
256,192,101375,1,0,0:0:0:0:
256,192,101500,1,0,0:0:0:0:
256,192,101750,1,0,0:0:0:0:
256,192,103500,1,0,0:0:0:0:
256,192,104000,1,0,0:0:0:0:
256,192,104250,12,0,105750,0:0:0:0:
256,192,106000,5,0,0:0:0:0:
224,192,106375,5,0,0:0:0:0:
256,192,110750,12,0,112000,0:0:0:0:
224,224,112250,5,0,0:0:0:0:
224,192,112625,2,0,B|448:160|288:288|128:192,1,330.000004917383
256,192,115625,12,0,116375,0:0:0:0:
288,160,119625,5,0,0:0:0:0:
96,64,120250,6,0,P|416:320|416:32,1,920.000013709068
224,128,120500,1,0,0:0:0:0:
256,96,121000,1,0,0:0:0:0:
448,288,122250,1,0,0:0:0:0:
352,256,123500,1,0,0:0:0:0:
320,256,123875,1,0,0:0:0:0:
320,224,124125,1,0,0:0:0:0:
256,96,127250,5,0,0:0:0:0:
256,192,128375,1,0,0:0:0:0:
256,160,128750,1,0,0:0:0:0:
256,192,129125,1,0,0:0:0:0:
256,96,129375,1,0,0:0:0:0:
352,64,129750,1,0,0:0:0:0:
320,96,130125,1,0,0:0:0:0:
288,128,130625,1,0,0:0:0:0:
288,224,131000,1,0,0:0:0:0:
64,320,134250,1,0,0:0:0:0:
352,96,138750,1,0,0:0:0:0:
288,160,139750,1,0,0:0:0:0:
128,224,141875,5,0,0:0:0:0:
160,224,142375,1,0,0:0:0:0:
160,224,142500,1,0,0:0:0:0:
224,192,143250,1,0,0:0:0:0:
224,192,143500,1,0,0:0:0:0:
224,192,143625,1,0,0:0:0:0:
224,192,144000,1,0,0:0:0:0:
224,192,144125,1,0,0:0:0:0:
224,192,144375,1,0,0:0:0:0:
224,192,144625,1,0,0:0:0:0:
224,192,144750,1,0,0:0:0:0:
224,192,144875,1,0,0:0:0:0:
224,192,145125,1,0,0:0:0:0:
224,192,145375,1,0,0:0:0:0:
224,192,145750,1,0,0:0:0:0:
224,192,145875,1,0,0:0:0:0:
224,192,146250,1,0,0:0:0:0:
224,192,146625,1,0,0:0:0:0:
224,192,146750,1,0,0:0:0:0:
224,192,147000,1,0,0:0:0:0:
224,192,147250,1,0,0:0:0:0:
224,192,147625,1,0,0:0:0:0:
224,192,147875,1,0,0:0:0:0:
224,192,148125,1,0,0:0:0:0:
224,192,148500,1,0,0:0:0:0:
224,192,148625,1,0,0:0:0:0:
224,192,148875,1,0,0:0:0:0:
224,192,149250,1,0,0:0:0:0:
224,192,149500,1,0,0:0:0:0:
288,160,150125,1,0,0:0:0:0:
288,160,150375,1,0,0:0:0:0:
288,160,150500,1,0,0:0:0:0:
256,160,150750,1,0,0:0:0:0:
256,160,150875,1,0,0:0:0:0:
288,160,151125,1,0,0:0:0:0:
288,160,151375,1,0,0:0:0:0:
288,160,151500,1,0,0:0:0:0:
288,160,151625,1,0,0:0:0:0:
256,192,152125,1,0,0:0:0:0:
256,192,152250,1,0,0:0:0:0:
256,224,152500,1,0,0:0:0:0:
256,224,152750,1,0,0:0:0:0:
256,224,152875,1,0,0:0:0:0:
352,192,157125,5,0,0:0:0:0:
320,192,157500,1,0,0:0:0:0:
288,192,157875,1,0,0:0:0:0:
256,192,158125,1,0,0:0:0:0:
256,224,158500,1,0,0:0:0:0:
224,224,158750,1,0,0:0:0:0:
224,224,159000,1,0,0:0:0:0:
224,224,159125,1,0,0:0:0:0:
224,192,159375,1,0,0:0:0:0:
256,192,159625,1,0,0:0:0:0:
288,192,159875,1,0,0:0:0:0:
320,192,160125,1,0,0:0:0:0:
320,192,160375,1,0,0:0:0:0:
320,192,160500,1,0,0:0:0:0:
320,224,160750,1,0,0:0:0:0:
320,224,161000,1,0,0:0:0:0:
320,224,161125,1,0,0:0:0:0:
288,224,161375,1,0,0:0:0:0:
256,224,161625,1,0,0:0:0:0:
256,224,161750,1,0,0:0:0:0:
224,224,162000,1,0,0:0:0:0:
224,192,162250,1,0,0:0:0:0:
224,160,162500,1,0,0:0:0:0:
256,160,162750,1,0,0:0:0:0:
288,160,163000,1,0,0:0:0:0:
320,160,163250,1,0,0:0:0:0:
320,192,163500,1,0,0:0:0:0:
320,224,163750,1,0,0:0:0:0:
320,224,164000,1,0,0:0:0:0:
320,224,164250,1,0,0:0:0:0:
320,224,164500,1,0,0:0:0:0:
320,224,164750,1,0,0:0:0:0:
320,224,164875,1,0,0:0:0:0:
288,224,165125,1,0,0:0:0:0:
256,224,165375,1,0,0:0:0:0:
256,192,165625,1,0,0:0:0:0:
256,160,165875,1,0,0:0:0:0:
288,160,166125,1,0,0:0:0:0:
320,160,166625,1,0,0:0:0:0:
320,192,166875,1,0,0:0:0:0:
320,192,167000,1,0,0:0:0:0:
288,192,167250,1,0,0:0:0:0:
256,192,167500,1,0,0:0:0:0:
256,192,167750,1,0,0:0:0:0:
256,160,168000,1,0,0:0:0:0:
288,160,168375,1,0,0:0:0:0:
288,160,168500,1,0,0:0:0:0:
256,192,169875,12,0,170750,0:0:0:0:
256,192,170875,12,0,171125,0:0:0:0:
256,192,172125,12,0,172375,0:0:0:0:
256,192,172875,12,0,173125,0:0:0:0:
256,192,173375,12,0,173625,0:0:0:0:
256,192,173875,12,0,174000,0:0:0:0:
256,192,174250,12,0,174500,0:0:0:0:
256,192,174625,12,0,174875,0:0:0:0:
256,192,175000,12,0,175125,0:0:0:0:
256,192,176125,12,0,176250,0:0:0:0:
256,192,176500,12,0,176750,0:0:0:0:
256,192,176875,12,0,177125,0:0:0:0:
256,192,177625,12,0,178000,0:0:0:0:
256,192,178250,12,0,178500,0:0:0:0:
256,192,178750,12,0,179000,0:0:0:0:
256,192,179125,12,0,179250,0:0:0:0:
256,192,179500,12,0,179625,0:0:0:0:
256,192,179750,12,0,180000,0:0:0:0:
256,192,180125,12,0,180250,0:0:0:0:
256,192,180500,12,0,180625,0:0:0:0:
256,192,180750,12,0,181000,0:0:0:0:
256,192,181125,12,0,181250,0:0:0:0:
256,192,181375,12,0,181625,0:0:0:0:
256,192,181750,12,0,182000,0:0:0:0:
256,192,182625,12,0,182875,0:0:0:0:
256,192,183625,12,0,183875,0:0:0:0:
256,192,185125,12,0,186750,0:0:0:0:
256,192,188000,12,0,188250,0:0:0:0:
256,192,188750,12,0,188875,0:0:0:0:
256,192,189500,12,0,189750,0:0:0:0:
256,192,190750,12,0,190875,0:0:0:0:
256,192,191500,12,0,191625,0:0:0:0:
256,192,192125,12,0,192375,0:0:0:0:
256,192,193000,12,0,193125,0:0:0:0:
256,192,194000,12,0,194125,0:0:0:0:
256,192,194500,12,0,194625,0:0:0:0:
160,128,198625,6,0,B|448:224|192:288|128:256,1,350.000005215406
96,160,198875,6,0,L|448:224,1,350.000005215406
384,64,200375,6,0,L|320:320,1,260.000003874302
288,192,202875,6,0,P|320:32|288:64,1,590.000008791684
128,256,203125,2,0,L|480:256,1,350.000005215406
128,128,204750,2,0,L|128:192,1,60.0000008940696
288,224,205125,2,0,L|352:288,1,90.0000013411044
352,352,206000,2,0,L|128:64,1,360.000005364418
96,224,207750,2,0,L|288:128,1,210.000003129244
96,192,215000,1,0,0:0:0:0:
128,192,215500,1,0,0:0:0:0:
128,224,218875,6,0,L|480:32,1,400.000005960464
96,96,221500,6,0,B|480:320|256:32,1,440.00000655651
352,128,225625,6,0,L|64:320,1,340.000005066394
128,96,228750,2,0,L|384:352,1,360.000005364418
128,288,230500,2,0,L|480:96,1,400.000005960464
224,128,233000,2,0,L|416:320,1,270.000004023313
320,128,244750,6,0,P|128:128|224:192,1,530.000007897615
352,192,247250,2,0,L|128:32,1,270.000004023313
384,128,249500,2,0,L|160:288,1,270.000004023313
416,288,251125,2,0,B|128:0|128:32,1,390.000005811452
160,288,253000,2,0,L|544:320,1,380.000005662441
160,32,256250,2,0,L|224:256,1,230.000003427267
352,224,258125,2,0,L|-32:32,1,430.000006407499
224,224,259625,2,0,L|352:128,1,160.000002384186
288,96,261125,2,0,L|288:352,1,250.00000372529
160,64,262750,2,0,L|384:288,1,310.00000461936
379,283,264250,2,0,P|160:192|256:160,1,640.000009536742
352,192,266375,2,0,L|352:128,1,60.0000008940696
128,96,270750,1,0,0:0:0:0:
32,256,271125,1,0,0:0:0:0:
160,192,272875,5,0,0:0:0:0:
96,0,275375,6,0,L|384:192,1,340.000005066394
160,224,276875,2,0,L|416:64,1,300.000004470348
288,320,278375,2,0,L|256:64,1,250.00000372529
64,64,283875,2,0,B|480:256|480:224,1,450.000006705522
256,288,287750,2,0,L|288:96,1,190.00000283122
480,192,289750,2,0,L|160:192,1,320.000004768371
352,64,292250,2,0,L|320:320,1,250.00000372529
160,160,294250,2,0,L|480:224,1,320.000004768371
320,288,295875,2,0,L|448:384,1,160.000002384186
352,96,298000,6,0,L|160:32,1,200.000002980232
416,224,300000,2,0,B|192:0|192:224|288:256,1,360.000005364418
192,320,304250,2,0,L|448:160,1,300.000004470348
224,160,305875,2,0,L|448:320,1,270.000004023313
352,32,307500,2,0,L|256:384,1,360.000005364418
384,160,308875,2,0,L|448:224,1,90.0000013411044
416,224,310250,2,0,L|352:192,1,70.0000010430812
256,192,316750,12,0,323875,0:0:0:0:
192,128,326125,5,0,0:0:0:0:
192,128,326250,1,0,0:0:0:0:
192,128,326500,1,0,0:0:0:0:
96,32,328375,2,0,L|448:224,1,400.000005960464
480,96,330125,2,0,L|192:288,1,340.000005066394
96,160,331875,6,0,L|512:96,1,420.000006258487
320,32,333125,2,0,L|224:416,1,390.000005811452
224,320,348055,5,0,0:0:0:0:
