osu file format v12

[General]
AudioFilename: Kalimba.mp3
AudioLeadIn: 0
PreviewTime: -1
Countdown: 3
SampleSet: None
StackLeniency: 0.7
Mode: 0
LetterboxInBreaks: 1

[Editor]
DistanceSpacing: 1
BeatDivisor: 4
GridSize: 32

[Metadata]
Title:challenge for OSU!
TitleUnicode:challenge for OSU!
Artist:unknown
ArtistUnicode:unknown
Creator:bobby191
Version:just satan who can do this
Source:
Tags:
BeatmapID:251677
BeatmapSetID:93239

[Difficulty]
HPDrainRate:10
CircleSize:6
OverallDifficulty:10
ApproachRate:10
SliderMultiplier:0.600000005960464
SliderTickRate:1

[Events]
//Background and Video events
//Break Periods
2,101502,137550
2,149074,163300
2,176074,184675
2,310199,328425
//Storyboard Layer 0 (Background)
//Storyboard Layer 1 (Fail)
//Storyboard Layer 2 (Pass)
//Storyboard Layer 3 (Foreground)
//Storyboard Sound Samples
//Background Colour Transformations
3,100,163,162,255

[TimingPoints]
0,500,4,2,0,100,1,0

[Colours]
Combo1 : 255,128,192
Combo2 : 0,202,0
Combo3 : 18,124,255

[HitObjects]
32,32,0,2,0,L|512:32,1,480.000004768372
256,192,250,12,0,500,0:0:0:0:
480,96,1750,6,0,L|32:96,1,435.000004321337
32,160,5000,2,0,L|512:160,1,480.000004768372
32,288,9875,2,0,B|512:288|480:256,1,450.000004470348
352,320,13750,2,0,L|192:96,1,270.000002682209
416,64,15500,2,0,L|96:320,1,405.000004023313
384,224,16750,2,0,L|480:288,1,105.000001043081
224,128,17750,2,0,B|192:128|480:160,1,255.000002533197
128,0,19875,2,0,L|160:96,1,90.0000008940697
96,64,24125,2,0,L|384:224,1,330.000003278255
480,32,25125,2,0,L|224:288,1,360.000003576279
64,128,26125,2,0,L|512:320,1,480.000004768372
480,192,27250,2,0,L|128:128,1,345.000003427267
352,192,28625,2,0,L|224:256,1,135.000001341104
224,288,29875,2,0,L|288:32,1,255.000002533197
192,192,30250,1,0,0:0:0:0:
352,160,31000,1,0,0:0:0:0:
288,160,31250,2,0,L|64:352,1,285.000002831221
192,128,32375,1,0,0:0:0:0:
160,96,32625,2,0,L|160:64,1,30.0000002980232
320,64,34125,1,0,0:0:0:0:
224,96,34875,1,0,0:0:0:0:
224,128,35250,1,0,0:0:0:0:
256,160,35625,1,0,0:0:0:0:
224,224,36250,1,0,0:0:0:0:
192,288,36750,1,0,0:0:0:0:
224,288,37000,1,0,0:0:0:0:
256,288,37250,1,0,0:0:0:0:
288,288,37500,1,0,0:0:0:0:
320,256,37750,1,0,0:0:0:0:
352,224,38125,1,0,0:0:0:0:
352,192,38375,1,0,0:0:0:0:
320,160,38875,1,0,0:0:0:0:
256,192,39000,1,0,0:0:0:0:
256,192,39125,1,0,0:0:0:0:
256,192,39250,1,0,0:0:0:0:
256,192,39375,1,0,0:0:0:0:
256,192,39500,1,0,0:0:0:0:
256,192,39625,1,0,0:0:0:0:
256,192,39750,1,0,0:0:0:0:
256,192,39875,1,0,0:0:0:0:
256,192,40000,1,0,0:0:0:0:
256,192,40125,1,0,0:0:0:0:
256,192,40250,1,0,0:0:0:0:
256,192,40375,1,0,0:0:0:0:
256,192,40500,1,0,0:0:0:0:
256,192,40625,1,0,0:0:0:0:
256,192,40875,1,0,0:0:0:0:
256,192,41000,1,0,0:0:0:0:
256,192,41500,1,0,0:0:0:0:
256,192,42125,1,0,0:0:0:0:
256,192,42500,1,0,0:0:0:0:
256,192,42875,1,0,0:0:0:0:
256,192,43000,1,0,0:0:0:0:
256,192,43250,1,0,0:0:0:0:
256,192,43375,1,0,0:0:0:0:
256,192,43500,1,0,0:0:0:0:
256,192,43625,1,0,0:0:0:0:
256,192,43750,1,0,0:0:0:0:
256,192,43875,1,0,0:0:0:0:
256,192,44125,1,0,0:0:0:0:
256,192,44250,1,0,0:0:0:0:
256,192,44375,1,0,0:0:0:0:
256,192,44500,1,0,0:0:0:0:
256,192,44750,1,0,0:0:0:0:
256,192,45000,1,0,0:0:0:0:
256,192,45125,1,0,0:0:0:0:
256,192,45375,1,0,0:0:0:0:
256,192,45500,1,0,0:0:0:0:
256,192,45625,1,0,0:0:0:0:
256,192,45750,1,0,0:0:0:0:
256,192,45875,1,0,0:0:0:0:
256,192,46125,1,0,0:0:0:0:
256,192,46500,1,0,0:0:0:0:
256,192,46875,1,0,0:0:0:0:
256,192,47250,1,0,0:0:0:0:
256,192,47375,1,0,0:0:0:0:
256,192,47625,1,0,0:0:0:0:
256,192,47750,1,0,0:0:0:0:
256,192,48000,1,0,0:0:0:0:
256,192,48125,1,0,0:0:0:0:
256,192,48250,1,0,0:0:0:0:
256,192,48375,1,0,0:0:0:0:
256,192,48625,1,0,0:0:0:0:
256,192,48875,1,0,0:0:0:0:
256,192,49000,1,0,0:0:0:0:
256,192,49125,1,0,0:0:0:0:
256,192,49375,1,0,0:0:0:0:
256,192,49500,1,0,0:0:0:0:
256,192,49750,1,0,0:0:0:0:
256,192,49875,1,0,0:0:0:0:
256,192,50000,1,0,0:0:0:0:
256,192,50125,1,0,0:0:0:0:
256,192,50250,1,0,0:0:0:0:
256,192,50375,1,0,0:0:0:0:
256,192,50625,1,0,0:0:0:0:
256,192,50875,1,0,0:0:0:0:
256,192,51000,1,0,0:0:0:0:
256,192,51250,1,0,0:0:0:0:
256,192,51500,1,0,0:0:0:0:
256,192,51625,1,0,0:0:0:0:
256,192,51750,1,0,0:0:0:0:
256,192,51875,1,0,0:0:0:0:
256,192,52125,1,0,0:0:0:0:
256,192,52250,1,0,0:0:0:0:
256,192,52375,1,0,0:0:0:0:
256,192,52625,1,0,0:0:0:0:
256,192,52750,1,0,0:0:0:0:
256,192,52875,1,0,0:0:0:0:
256,192,53000,1,0,0:0:0:0:
256,192,53125,1,0,0:0:0:0:
256,192,53250,1,0,0:0:0:0:
256,192,53500,1,0,0:0:0:0:
256,192,54000,1,0,0:0:0:0:
256,192,54250,1,0,0:0:0:0:
256,192,54375,1,0,0:0:0:0:
256,192,54500,1,0,0:0:0:0:
256,192,54875,1,0,0:0:0:0:
256,192,55250,1,0,0:0:0:0:
256,192,55375,1,0,0:0:0:0:
256,192,55500,1,0,0:0:0:0:
256,192,55750,1,0,0:0:0:0:
256,192,56000,1,0,0:0:0:0:
256,192,56125,1,0,0:0:0:0:
256,192,56375,1,0,0:0:0:0:
256,192,56625,1,0,0:0:0:0:
256,192,56750,1,0,0:0:0:0:
256,192,57000,1,0,0:0:0:0:
256,192,57125,1,0,0:0:0:0:
256,192,57250,1,0,0:0:0:0:
256,192,57375,1,0,0:0:0:0:
256,192,57875,1,0,0:0:0:0:
256,192,58000,1,0,0:0:0:0:
256,192,58375,1,0,0:0:0:0:
256,192,58500,1,0,0:0:0:0:
256,192,58750,1,0,0:0:0:0:
256,192,59000,1,0,0:0:0:0:
256,192,61250,5,0,0:0:0:0:
256,192,61625,1,0,0:0:0:0:
256,192,61875,1,0,0:0:0:0:
256,192,62125,1,0,0:0:0:0:
256,192,62375,1,0,0:0:0:0:
256,192,62625,1,0,0:0:0:0:
256,192,63250,5,0,0:0:0:0:
256,192,63500,1,0,0:0:0:0:
256,192,63625,1,0,0:0:0:0:
256,192,63875,1,0,0:0:0:0:
256,192,64000,1,0,0:0:0:0:
256,192,64250,1,0,0:0:0:0:
256,192,64375,1,0,0:0:0:0:
256,192,64500,1,0,0:0:0:0:
256,192,64750,1,0,0:0:0:0:
256,192,65000,1,0,0:0:0:0:
256,192,65125,1,0,0:0:0:0:
256,192,65375,1,0,0:0:0:0:
256,192,65500,1,0,0:0:0:0:
256,192,65750,1,0,0:0:0:0:
256,192,65875,1,0,0:0:0:0:
256,192,66125,1,0,0:0:0:0:
256,192,66500,1,0,0:0:0:0:
256,192,66875,1,0,0:0:0:0:
256,192,67750,1,0,0:0:0:0:
256,192,68125,1,0,0:0:0:0:
256,192,68250,1,0,0:0:0:0:
416,256,69000,6,0,B|320:64|96:256|224:288|384:64|256:320|192:288,1,375.00000372529
96,64,69625,6,0,B|480:288|224:288|160:320,1,450.000004470348
384,128,71125,2,0,L|96:224,1,300.000002980232
64,192,72375,6,0,B|544:160|352:288|320:320,1,435.000004321337
224,256,74125,2,0,L|64:128,1,195.000001937151
96,192,75250,6,0,L|384:128,1,285.000002831221
192,192,76125,2,0,L|96:352,1,180.000001788139
64,160,77000,6,0,L|416:160,1,345.000003427267
96,32,78500,6,0,B|480:64|480:320|288:320|288:384|480:192|512:128|128:320|64:384|160:384|192:320|192:192|128:256|96:288|64:192|64:224|64:160|192:128|192:160|96:256|352:352|352:192|320:160|320:160|512:352|96:128|128:96|64:96|256:128|32:32|448:128|288:128|352:224|544:224|384:32,4,1770.00001758337
224,320,101302,5,0,0:0:0:0:
0,128,138000,6,0,B|576:160|224:256|320:64|416:192|416:192|192:352|256:128|320:384|160:128|256:160|256:352|128:128|256:256|64:160|64:320|160:352|128:-32|96:0|256:320|160:64|128:288|128:288|64:288|320:256|352:160,1,1305.00001296401
64,160,163750,6,0,L|480:320,1,435.000004321337
448,32,164875,2,0,L|64:288,1,450.000004470348
480,192,165125,2,0,L|192:192,1,285.000002831221
32,96,166250,2,0,L|480:416,1,540.000005364418
192,64,166375,2,0,L|320:224,1,195.000001937151
192,32,170500,2,0,L|352:160,1,195.000001937151
416,64,171875,2,0,L|192:128,1,225.000002235174
64,32,172750,2,0,L|448:288,1,450.000004470348
416,192,173875,2,0,L|64:352,1,375.00000372529
192,128,174875,2,0,L|64:128,1,120.000001192093
480,32,185125,6,8,L|0:224,2,510.000005066395
96,64,196250,2,8,B|416:352|448:160,1,450.000004470348
416,0,198625,2,8,L|128:352,1,450.000004470348
352,96,199750,2,0,L|416:256,1,165.000001639128
448,256,200750,2,0,L|32:96,1,435.000004321337
192,128,201875,2,0,L|128:160,1,60.0000005960464
352,256,202875,2,0,L|224:288,1,120.000001192093
320,96,205875,2,0,L|384:128,1,60.0000005960464
320,128,207625,6,0,L|288:128,22,30.0000002980232
320,128,215875,1,0,0:0:0:0:
288,160,216250,1,0,0:0:0:0:
320,160,216500,1,0,0:0:0:0:
320,128,216875,1,0,0:0:0:0:
320,128,217000,1,0,0:0:0:0:
320,128,217250,1,0,0:0:0:0:
320,128,217500,1,0,0:0:0:0:
320,128,217625,1,0,0:0:0:0:
320,128,217875,1,0,0:0:0:0:
288,160,218500,1,0,0:0:0:0:
288,160,218625,1,0,0:0:0:0:
256,160,218875,1,0,0:0:0:0:
224,160,219250,1,0,0:0:0:0:
192,160,219500,1,0,0:0:0:0:
192,160,219750,1,0,0:0:0:0:
192,160,220000,1,0,0:0:0:0:
192,160,220125,1,0,0:0:0:0:
160,160,220375,1,0,0:0:0:0:
160,160,220500,1,0,0:0:0:0:
128,64,222750,6,0,B|448:256|480:96|288:160,1,420.000004172325
416,384,224750,2,0,L|416:64,1,315.000003129244
224,0,225625,2,0,L|160:288,1,285.000002831221
96,192,227250,2,0,L|352:288,1,270.000002682209
256,192,228750,2,0,B|96:96|384:224,1,270.000002682209
224,224,230375,2,0,L|160:192,1,60.0000005960464
288,256,231500,2,0,L|288:320,1,60.0000005960464
288,320,232500,2,0,L|320:128,1,195.000001937151
256,224,233500,2,0,L|448:256,1,195.000001937151
416,192,234500,2,0,L|192:128,1,225.000002235174
256,192,238875,12,0,273125,0:0:0:0:
256,192,273875,12,0,274125,0:0:0:0:
256,192,274375,12,0,274500,0:0:0:0:
256,192,274750,12,0,274875,0:0:0:0:
256,192,275000,12,0,275125,0:0:0:0:
256,192,276000,12,0,276125,0:0:0:0:
192,192,277500,5,0,0:0:0:0:
224,160,278000,1,0,0:0:0:0:
224,128,278375,1,0,0:0:0:0:
192,96,278750,1,0,0:0:0:0:
192,192,279125,1,0,0:0:0:0:
192,192,279250,1,0,0:0:0:0:
224,192,279500,1,0,0:0:0:0:
224,192,279625,1,0,0:0:0:0:
256,192,279875,1,0,0:0:0:0:
256,192,280000,1,0,0:0:0:0:
128,288,281875,1,0,0:0:0:0:
192,256,282625,1,0,0:0:0:0:
256,256,283375,1,0,0:0:0:0:
256,256,283500,1,0,0:0:0:0:
256,256,283750,1,0,0:0:0:0:
256,160,284750,2,0,L|448:288,1,225.000002235174
128,96,286250,6,0,L|384:128,1,255.000002533197
320,0,287500,2,0,L|256:224,1,225.000002235174
256,224,290375,2,0,L|512:128,1,270.000002682209
384,32,293125,6,0,L|384:320,1,285.000002831221
448,160,294500,6,0,L|128:128,1,315.000003129244
129,128,295750,6,0,L|480:352,1,405.000004023313
475,348,296875,6,0,L|288:96,1,300.000002980232
320,192,298125,6,0,L|160:192,1,150.000001490116
160,192,299125,6,0,L|480:96,1,330.000003278255
476,97,300250,6,0,L|192:128,1,285.000002831221
96,96,301500,6,0,L|480:352,1,450.000004470348
478,351,302500,6,0,L|256:32,1,375.00000372529
128,192,305000,6,0,L|448:256,1,315.000003129244
441,254,306000,6,0,L|192:64,1,300.000002980232
224,32,307875,6,0,L|320:352,1,330.000003278255
224,160,309000,6,0,L|224:288,1,120.000001192093
256,192,328875,12,0,329000,0:0:0:0:
256,192,332000,6,0,L|512:0,1,315.000003129244
256,64,332750,6,0,L|384:160,1,150.000001490116
192,224,334750,6,0,L|448:288,1,255.000002533197
444,287,336000,6,0,L|288:32,1,285.000002831221
512,0,336250,2,0,L|480:160,1,150.000001490116
287,31,337125,6,0,L|96:160,1,225.000002235174
448,160,337625,6,0,L|160:192,1,285.000002831221
96,159,338375,6,0,L|480:384,1,435.000004321337
159,192,338875,6,0,L|448:288,1,300.000002980232
476,381,339625,6,0,L|448:128,1,255.000002533197
384,256,340125,6,0,L|416:64,1,195.000001937151
448,133,340875,6,0,L|224:128,1,225.000002235174
415,68,341250,6,0,L|224:64,1,180.000001788139
228,128,342125,6,0,L|352:192,1,135.000001341104
225,64,342750,6,0,L|224:288,1,225.000002235174
352,96,343375,6,0,L|320:0,1,90.0000008940697
224,284,344000,6,0,L|512:256,1,285.000002831221
320,1,344500,6,0,L|96:160,1,270.000002682209
100,157,345625,6,0,L|320:192,1,220.000003278255
256,288,345750,2,0,L|448:32,1,320.000004768371
256,192,346000,12,0,346250,0:0:0:0:
256,192,346853,8,0,346855,0:0:0:0:
317,191,346875,6,0,L|256:32,1,170.000002533197
256,192,347000,12,0,347250,0:0:0:0:
256,192,347250,12,0,347500,0:0:0:0:
256,192,347750,12,0,347875,0:0:0:0:
