osu file format v4

[General]
AudioFilename: Goosebumps.mp3
AudioLeadIn: 0
AudioHash: 2076ec857a06668b7e8207ddddc5e8cb
PreviewTime: -1
SampleSet: Normal

[Metadata]
Title:Goosebumps Main Song
Artist:unknown
Creator:RogerisLuigi2
Version:Hard

[Difficulty]
HPDrainRate:7
CircleSize:7
OverallDifficulty:7
SliderMultiplier: 1.4
SliderTickRate: 1

[Events]
0,0,"chillogy_1024x768.jpg"
3,0,163,162,255

[TimingPoints]
1016,773,4,1,0

[HitObjects]
64,96,1789,1,0,
192,96,2562,1,0,
320,96,3335,1,0,
320,192,4494,1,0,
320,256,4881,1,0,
256,288,5654,1,0,
160,160,6813,1,0,
288,160,7586,1,0,
288,288,8746,1,0,
160,96,11451,5,0,
192,192,12224,1,0,
192,256,12611,1,0,
384,160,13770,1,0,
192,64,16089,1,0,
192,128,16476,1,0,
192,192,17249,1,0,
224,256,18022,1,0,
384,256,18795,1,0,
352,192,19181,1,0,
224,160,20341,1,0,
224,224,21114,1,0,
288,288,21500,1,0,
352,160,23819,5,0,
256,160,24206,1,0,
160,160,24979,1,0,
160,224,25365,1,0,
256,224,26138,1,0,
352,96,27684,5,0,
288,128,28071,1,0,
192,192,29617,5,0,
224,256,30390,1,0,
320,256,30776,1,0,
288,160,31936,1,0,
224,160,33095,5,0,
224,224,33868,1,0,
320,224,34641,1,0,
320,160,35028,1,0,
192,128,36187,5,0,
192,192,36960,1,0,
288,224,38120,1,0,
320,160,38506,1,0,
288,96,38893,1,0,
224,128,40439,1,0,
224,160,40825,1,0,
224,224,41598,1,0,
288,96,43144,5,0,
288,160,43917,1,0,
288,192,44304,1,0,
192,160,45850,1,0,
160,160,46236,1,0,
96,160,46623,1,0,
