osu file format v5

[General]
AudioFilename: F [1].MP3
AudioLeadIn: 3000
PreviewTime: -1
Countdown: 1
SampleSet: Normal
StackLeniency: 0.7
Mode: 0
LetterboxInBreaks: 1

[Metadata]
Title:Final Fantasy IX Battle theme(Guitar&cell phone remix)
Artist:unknown
Creator:Srank300
Version:Normal
Source:
Tags:

[Difficulty]
HPDrainRate:5
CircleSize:6
OverallDifficulty:6
SliderMultiplier:0.6
SliderTickRate:2

[Events]
//Background and Video events
0,0,"Vivi.jpg"
//Break Periods
2,15467,20259
2,42506,56212
2,108172,121877
//Storyboard Layer 0 (Background)
//Storyboard Layer 1 (Failing)
//Storyboard Layer 2 (Passing)
//Storyboard Layer 3 (Foreground)
//Storyboard Sound Samples
//Background Colour Transformations
3,100,163,162,255

[TimingPoints]
9424,396.174463493492,4,1,0,100

[HitObjects]
160,160,9721,1,0
288,192,10216,1,0
224,256,10711,1,0
224,128,11602,1,0
224,128,11801,1,0
224,128,11999,1,0
224,128,12197,1,0
256,224,12395,1,0
320,192,12890,1,0
352,96,13385,1,0
416,224,13980,1,0
224,192,14574,1,0
192,128,14871,1,0
96,96,15267,1,0
128,128,21309,5,0
192,256,21903,1,0
288,256,22398,1,0
320,160,22794,1,0
384,192,23290,1,0
384,288,23884,1,0
288,320,24280,1,0
256,192,24874,1,0
160,288,27251,5,0
224,256,27846,1,0
288,192,28341,1,0
320,128,28737,1,0
384,224,29926,1,0
320,320,30322,1,0
128,256,33194,5,0
192,256,33788,1,0
288,256,34382,1,0
352,256,34779,1,0
384,256,35373,1,0
448,256,35868,1,0
448,192,36264,1,0
448,128,36760,1,0
160,160,39236,5,0
224,256,39830,1,0
320,160,40325,1,0
352,256,40721,1,0
416,256,41910,1,0
416,160,42306,1,0
128,128,57262,5,0
192,256,57856,1,0
288,256,58450,1,0
384,224,58846,1,0
192,96,60233,1,0
192,160,60629,1,0
224,224,61025,1,0
320,256,61421,1,0
384,256,61818,1,0
192,160,63204,5,0
256,256,63798,1,0
352,256,64195,1,0
352,256,64393,1,0
448,192,64789,1,0
384,128,65383,1,0
288,128,65680,1,0
288,128,65878,1,0
192,192,66275,1,0
256,256,66869,1,0
352,256,67364,1,0
384,160,67760,1,0
352,96,68354,1,0
288,128,68850,1,0
224,192,69246,1,0
224,256,69840,1,0
192,96,72316,6,0,B|288:256,2,180
192,128,75089,5,0
160,160,75387,5,0
192,256,75882,1,0
320,256,76377,1,0
352,160,77169,1,0
352,160,77367,1,0
352,160,77566,1,0
352,160,77764,1,0
416,128,77962,1,0
320,96,78457,1,0
192,192,79051,1,0
288,256,79546,1,0
352,192,80141,1,0
416,256,80537,1,0
448,320,80933,1,0
128,160,86975,5,0
192,224,87470,1,0
256,256,87965,1,0
352,288,88361,1,0
384,224,88956,1,0
384,160,89451,1,0
320,128,89847,1,0
320,224,90441,1,0
160,256,92917,5,0
224,256,93512,1,0
352,256,94007,1,0
384,192,94403,1,0
288,192,95492,1,0
320,128,95889,1,0
192,256,98860,5,0
256,288,99454,1,0
320,128,100048,1,0
384,192,100445,1,0
288,224,100940,1,0
288,128,101534,1,0
352,224,101930,1,0
416,288,102425,1,0
224,256,104803,5,0
288,256,105397,1,0
352,256,105991,1,0
416,256,106387,1,0
448,288,107576,1,0
480,224,107972,1,0
160,128,122927,5,0
160,192,123522,1,0
256,224,124116,1,0
320,256,124413,1,0
416,160,125899,1,0
320,160,126295,1,0
256,192,126691,1,0
192,192,127087,1,0
128,192,127483,1,0
128,256,128870,5,0
224,224,129464,1,0
288,224,129861,1,0
288,224,130059,1,0
352,224,130455,1,0
416,192,131049,1,0
416,128,131346,1,0
416,128,131544,1,0
352,128,131940,1,0
352,64,132436,1,0
256,96,132931,1,0
256,160,133426,1,0
256,224,133921,1,0
320,256,134516,1,0
384,256,134912,1,0
384,192,135407,1,0
256,192,138279,12,0,141746
