osu file format v5

[General]
AudioFilename: Castlevania- Vampire Killer.MP3
AudioLeadIn: 1996
PreviewTime: -1
Countdown: 1
SampleSet: Normal
StackLeniency: 0.7
Mode: 0
LetterboxInBreaks: 1

[Metadata]
Title:Castlevania- Vampire killer
Artist:unknown
Creator:Srank300
Version:Normal
Source:
Tags:

[Difficulty]
HPDrainRate:7
CircleSize:6
OverallDifficulty:5
SliderMultiplier:1.5
SliderTickRate:2

[Events]
//Background and Video events
0,0,"castlevania.png"
//Break Periods
2,40378,47259
2,63860,78527
2,97476,111772
2,128744,135130
//Storyboard Layer 0 (Background)
//Storyboard Layer 1 (Failing)
//Storyboard Layer 2 (Passing)
//Storyboard Layer 3 (Foreground)
//Storyboard Sound Samples
//Background Colour Transformations
3,100,163,162,255

[TimingPoints]
1990,494.35447496208,4,1,0,60

[HitObjects]
128,128,9528,1,0
256,128,11382,1,0
256,192,12371,1,0
256,256,12865,1,0
352,288,13360,1,0
288,160,15337,1,0
288,224,16326,1,0
288,256,16820,1,0
288,288,17314,1,0
256,160,18674,1,0
352,160,19663,1,0
288,64,20651,1,0
256,128,21146,1,0
256,224,22134,1,0
256,192,22382,12,0,24853
96,288,25595,1,0
224,288,26584,1,0
320,288,27572,1,0
320,224,28437,1,0
320,160,28932,1,0
160,96,29921,1,0
288,160,30909,1,0
192,256,31898,1,0
288,288,32392,1,0
384,256,32887,1,0
256,160,33875,1,0
384,160,34864,1,0
352,224,35853,1,0
352,288,36347,1,0
384,320,36841,1,0
192,192,37830,1,0
256,192,38448,12,0,40178
128,192,48459,5,0
160,192,48830,1,0
192,192,49448,1,0
256,192,50436,1,0
288,288,51425,1,0
352,320,51919,1,0
352,192,52414,1,0
320,192,52784,1,0
256,192,53402,1,0
192,96,54267,1,0
256,160,55256,1,0
288,192,55751,1,0
352,256,56245,1,0
320,256,56616,1,0
224,256,57234,1,0
160,256,58222,1,0
160,128,59211,1,0
192,192,59705,1,0
256,192,60200,1,0
288,192,60571,1,0
384,192,61188,1,0
352,256,62177,1,0
352,320,63166,1,0
384,256,63660,1,0
128,192,79727,5,0
192,256,80715,1,0
256,224,81210,1,0
256,160,81704,1,0
352,224,82693,1,0
288,256,83187,1,0
256,160,83682,1,0
288,64,85041,1,0
192,224,86030,1,0
288,224,86524,1,0
352,224,87018,1,0
352,128,87513,1,0
384,256,88502,1,0
224,256,89490,1,0
224,192,89985,1,0
224,128,90479,1,0
224,64,90973,1,0
320,96,91468,1,0
256,160,91962,1,0
352,192,92456,1,0
256,256,92951,1,0
352,288,93445,1,0
224,320,93939,1,0
192,192,94434,1,0
256,160,94928,1,0
256,192,95299,12,0,97276
128,160,112848,1,0
224,160,113837,1,0
288,192,114826,1,0
288,288,115815,1,0
352,288,116309,1,0
384,224,116803,1,0
288,160,117792,1,0
224,224,118781,1,0
224,288,119769,1,0
288,288,120264,1,0
352,288,120758,1,0
320,192,121747,1,0
288,256,122736,1,0
384,288,123601,1,0
384,224,124095,1,0
384,128,124589,1,0
288,128,125578,1,0
256,192,126196,12,0,128544
160,192,136330,1,0
192,192,136701,1,0
256,192,137319,1,0
352,192,138184,1,0
288,288,139173,1,0
256,192,139667,1,0
224,96,140162,1,0
256,96,140532,1,0
320,96,141150,1,0
320,256,142139,1,0
192,256,143128,1,0
224,192,143622,1,0
288,192,144116,1,0
320,192,144487,1,0
384,192,145105,1,0
288,288,146094,1,0
288,128,147083,1,0
288,192,147577,1,0
320,288,147948,1,0
352,288,148318,1,0
416,288,148936,1,0
352,160,149925,1,0
256,288,150914,1,0
256,192,151902,12,0,155363
