osu file format v14

[General]
AudioFilename: masaka in nightmare inst_01.mp3
AudioLeadIn: 0
PreviewTime: -1
Countdown: 1
SampleSet: None
StackLeniency: 0.7
Mode: 1
LetterboxInBreaks: 1
WidescreenStoryboard: 0

[Editor]
DistanceSpacing: 1.2
BeatDivisor: 8
GridSize: 8
TimelineZoom: 3.099999

[Metadata]
Title:masaka IN Nightmare
TitleUnicode:masaka IN Nightmare
Artist:uma
ArtistUnicode:uma
Creator:-[ ix Ishida xi ]-
Version:-[ ix Nightmare xi ]-
Source:
Tags:
BeatmapID:813881
BeatmapSetID:371485

[Difficulty]
HPDrainRate:5
CircleSize:5
OverallDifficulty:5
ApproachRate:5
SliderMultiplier:1.4
SliderTickRate:1

[Events]
//Background and Video events
0,0,"a.jpg",0,0
//Break Periods
//Storyboard Layer 0 (Background)
//Storyboard Layer 1 (Fail)
//Storyboard Layer 2 (Pass)
//Storyboard Layer 3 (Foreground)
//Storyboard Sound Samples

[TimingPoints]
-14,352.941176470588,4,1,0,100,1,0
74,-133.333333333333,4,1,0,100,0,0
12691,-83.3333333333333,4,1,0,100,0,1
23985,-83.3333333333333,4,1,0,100,0,0
24074,-100,4,1,0,100,0,0
38103,-71.4285714285714,4,1,0,100,0,0
38191,-142.857142857143,4,1,0,100,0,0
38809,-71.4285714285714,4,1,0,100,0,0
38897,-142.857142857143,4,1,0,100,0,0
39515,-71.4285714285714,4,1,0,100,0,0
39603,-142.857142857143,4,1,0,100,0,0
40221,-71.4285714285714,4,1,0,100,0,0
40309,-142.857142857143,4,1,0,100,0,0
40574,-83.3333333333333,4,1,0,100,0,0
40927,-100,4,1,0,100,0,0
45162,-71.4285714285714,4,1,0,100,0,0
46618,-100,4,1,0,100,0,0
55044,-71.4285714285714,4,1,0,100,0,1
77280,-50,4,1,0,100,0,1
77338,-45.4545454545455,4,1,0,100,0,1
77397,-41.6666666666667,4,1,0,100,0,1
77456,-38.4615384615385,4,1,0,100,0,1
77574,-35.7142857142857,4,1,0,100,0,1
77633,-25,4,1,0,100,0,0
77721,-83.3333333333333,4,1,0,100,0,0
99868,-50,4,1,0,100,0,0
99927,-55.5555555555556,4,1,0,100,0,0
99985,-62.5,4,1,0,100,0,0
100044,-71.4285714285714,4,1,0,100,0,0
100088,-83.3333333333333,4,1,0,100,0,0
100133,-100,4,1,0,100,0,0
100177,-125,4,1,0,100,0,0
100220,-50,4,3,0,5,0,1
100308,-25,4,3,0,5,0,0

[HitObjects]
296,152,1221,5,0,0:0:0:0:
296,152,1309,1,0,0:0:0:0:
296,152,1398,1,0,0:0:0:0:
144,160,1750,1,8,0:0:0:0:
136,160,2103,1,0,0:0:0:0:
128,168,2368,1,0,0:0:0:0:
128,168,2456,1,8,0:0:0:0:
248,120,2633,1,0,0:0:0:0:
248,120,2809,1,0,0:0:0:0:
248,128,3074,1,0,0:0:0:0:
248,128,3162,1,8,0:0:0:0:
248,128,3339,1,0,0:0:0:0:
232,112,3515,1,0,0:0:0:0:
296,168,3603,1,8,0:0:0:0:
296,168,3692,1,0,0:0:0:0:
296,168,3868,1,8,0:0:0:0:
296,168,3956,1,8,0:0:0:0:
296,168,4045,1,8,0:0:0:0:
296,168,4133,1,8,0:0:0:0:
296,168,4221,1,0,0:0:0:0:
232,112,4486,1,0,0:0:0:0:
232,112,4574,1,8,0:0:0:0:
232,112,4750,1,0,0:0:0:0:
232,112,4927,1,0,0:0:0:0:
232,112,5103,1,0,0:0:0:0:
232,112,5192,1,8,0:0:0:0:
232,112,5368,1,8,0:0:0:0:
232,112,5456,1,0,0:0:0:0:
232,112,5633,1,0,0:0:0:0:
232,112,5721,1,8,0:0:0:0:
232,112,5809,1,8,0:0:0:0:
232,112,5898,1,8,0:0:0:0:
232,112,5986,1,0,0:0:0:0:
232,112,6162,1,0,0:0:0:0:
232,112,6250,1,8,0:0:0:0:
232,112,6339,1,8,0:0:0:0:
232,112,6427,1,8,0:0:0:0:
232,112,6515,1,0,0:0:0:0:
232,112,6692,1,8,0:0:0:0:
232,112,6780,1,8,0:0:0:0:
232,112,6868,1,8,0:0:0:0:
232,112,6956,1,8,0:0:0:0:
232,112,7045,1,0,0:0:0:0:
256,160,7309,1,0,0:0:0:0:
256,160,7398,1,8,0:0:0:0:
376,56,7662,1,8,0:0:0:0:
368,64,7750,1,0,0:0:0:0:
368,64,7927,1,0,0:0:0:0:
368,64,8015,1,8,0:0:0:0:
368,64,8192,1,8,0:0:0:0:
368,64,8280,1,0,0:0:0:0:
368,64,8456,1,0,0:0:0:0:
320,200,8545,1,8,0:0:0:0:
320,200,8721,1,0,0:0:0:0:
320,200,8898,1,8,0:0:0:0:
320,200,8986,1,0,0:0:0:0:
320,200,9162,1,8,0:0:0:0:
320,200,9250,1,8,0:0:0:0:
320,200,9339,1,0,0:0:0:0:
320,200,9515,1,8,0:0:0:0:
320,200,9603,1,8,0:0:0:0:
320,200,9692,1,8,0:0:0:0:
320,200,9780,1,8,0:0:0:0:
320,200,9868,1,0,0:0:0:0:
200,176,10133,1,0,0:0:0:0:
200,176,10221,1,8,0:0:0:0:
272,192,10398,1,8,0:0:0:0:
200,176,10486,1,8,0:0:0:0:
200,176,10574,1,0,0:0:0:0:
200,176,10662,1,8,0:0:0:0:
200,176,10839,1,0,0:0:0:0:
200,176,11015,1,8,0:0:0:0:
184,144,11103,1,0,0:0:0:0:
184,144,11280,1,0,0:0:0:0:
184,144,11368,1,8,0:0:0:0:
184,144,11456,1,8,0:0:0:0:
184,144,11545,1,8,0:0:0:0:
184,144,11633,1,0,0:0:0:0:
184,144,11809,1,8,0:0:0:0:
184,144,11898,1,8,0:0:0:0:
184,144,11986,1,8,0:0:0:0:
184,144,12074,1,8,0:0:0:0:
224,104,12162,1,8,0:0:0:0:
224,104,12250,1,0,0:0:0:0:
272,216,12427,1,0,0:0:0:0:
272,216,12515,1,8,0:0:0:0:
272,216,12603,1,8,0:0:0:0:
272,216,12692,1,0,0:0:0:0:
208,104,12956,1,0,0:0:0:0:
208,104,13045,1,8,0:0:0:0:
208,104,13221,1,8,0:0:0:0:
208,104,13309,1,8,0:0:0:0:
208,104,13398,1,0,0:0:0:0:
208,104,13486,1,0,0:0:0:0:
208,104,13574,1,0,0:0:0:0:
208,104,13662,1,8,0:0:0:0:
208,104,13839,1,0,0:0:0:0:
208,104,13927,1,8,0:0:0:0:
208,104,14015,1,8,0:0:0:0:
208,104,14103,1,0,0:0:0:0:
208,104,14280,1,8,0:0:0:0:
208,104,14368,1,0,0:0:0:0:
208,104,14456,1,0,0:0:0:0:
208,104,14545,1,8,0:0:0:0:
208,104,14633,1,0,0:0:0:0:
208,104,14721,1,0,0:0:0:0:
208,104,14809,1,8,0:0:0:0:
208,104,14898,1,8,0:0:0:0:
208,104,14986,1,0,0:0:0:0:
208,104,15074,1,8,0:0:0:0:
208,104,15250,1,0,0:0:0:0:
208,104,15339,1,8,0:0:0:0:
208,104,15427,1,8,0:0:0:0:
208,104,15515,1,0,0:0:0:0:
208,104,15692,1,8,0:0:0:0:
208,104,15780,1,0,0:0:0:0:
208,104,15868,1,8,0:0:0:0:
208,104,16045,1,8,0:0:0:0:
208,104,16133,1,0,0:0:0:0:
208,104,16221,1,8,0:0:0:0:
208,104,16309,1,8,0:0:0:0:
208,104,16398,1,0,0:0:0:0:
208,104,16486,1,8,0:0:0:0:
216,176,16663,1,8,0:0:0:0:
216,176,16751,1,0,0:0:0:0:
216,176,16839,1,8,0:0:0:0:
216,176,16928,1,0,0:0:0:0:
424,328,17016,1,8,0:0:0:0:
376,216,17104,1,8,0:0:0:0:
352,152,17192,1,0,0:0:0:0:
352,152,17281,1,8,0:0:0:0:
352,152,17369,1,8,0:0:0:0:
352,152,17457,1,0,0:0:0:0:
352,152,17545,1,8,0:0:0:0:
352,152,17634,1,0,0:0:0:0:
352,152,17722,1,8,0:0:0:0:
352,152,17810,1,8,0:0:0:0:
352,152,17898,1,0,0:0:0:0:
208,104,17986,1,8,0:0:0:0:
208,104,18074,1,8,0:0:0:0:
208,104,18162,1,8,0:0:0:0:
208,104,18250,1,8,0:0:0:0:
208,104,18339,1,4,0:0:0:0:
288,192,18515,1,8,0:0:0:0:
288,192,18603,1,0,0:0:0:0:
288,192,18692,1,8,0:0:0:0:
288,192,18868,1,8,0:0:0:0:
288,192,18956,1,0,0:0:0:0:
288,192,19045,1,8,0:0:0:0:
288,192,19133,1,8,0:0:0:0:
288,192,19221,1,0,0:0:0:0:
288,192,19309,1,8,0:0:0:0:
288,192,19486,1,0,0:0:0:0:
288,192,19574,1,8,0:0:0:0:
288,192,19662,1,8,0:0:0:0:
288,192,19750,1,0,0:0:0:0:
288,192,19839,1,0,0:0:0:0:
288,192,19927,1,8,0:0:0:0:
288,192,20015,1,0,0:0:0:0:
288,192,20103,1,0,0:0:0:0:
288,192,20192,1,8,0:0:0:0:
288,192,20280,1,0,0:0:0:0:
224,184,20456,1,8,0:0:0:0:
216,192,20545,1,0,0:0:0:0:
216,192,20633,1,8,0:0:0:0:
216,192,20721,1,8,0:0:0:0:
216,192,20809,1,0,0:0:0:0:
216,192,20897,1,8,0:0:0:0:
216,192,20986,1,8,0:0:0:0:
216,192,21074,1,8,0:0:0:0:
216,192,21162,1,0,0:0:0:0:
224,200,21339,1,8,0:0:0:0:
224,200,21427,1,0,0:0:0:0:
224,200,21515,1,8,0:0:0:0:
200,120,21692,1,0,0:0:0:0:
200,120,21780,1,8,0:0:0:0:
200,120,21868,1,0,0:0:0:0:
200,120,21956,1,8,0:0:0:0:
200,120,22045,1,8,0:0:0:0:
200,120,22133,1,0,0:0:0:0:
272,128,22309,1,0,0:0:0:0:
272,128,22397,1,8,0:0:0:0:
272,128,22486,1,8,0:0:0:0:
272,128,22574,1,0,0:0:0:0:
272,128,22750,1,8,0:0:0:0:
176,192,22839,1,0,0:0:0:0:
312,208,23015,1,8,0:0:0:0:
312,208,23103,1,0,0:0:0:0:
312,208,23280,1,8,0:0:0:0:
312,208,23368,1,0,0:0:0:0:
312,208,23456,1,0,0:0:0:0:
312,208,23545,1,8,0:0:0:0:
312,208,23633,1,0,0:0:0:0:
312,208,23721,1,0,0:0:0:0:
312,208,23809,1,8,0:0:0:0:
312,208,23897,1,8,0:0:0:0:
312,208,23986,1,0,0:0:0:0:
344,176,24162,1,8,0:0:0:0:
344,176,24250,1,0,0:0:0:0:
344,176,24427,1,8,0:0:0:0:
344,176,24515,1,0,0:0:0:0:
344,176,24692,1,0,0:0:0:0:
344,176,24780,1,8,0:0:0:0:
344,176,24868,1,0,0:0:0:0:
280,168,25045,1,8,0:0:0:0:
280,168,25133,1,8,0:0:0:0:
280,168,25221,1,0,0:0:0:0:
280,168,25309,1,0,0:0:0:0:
280,168,25397,1,0,0:0:0:0:
280,168,25574,1,8,0:0:0:0:
280,168,25662,1,0,0:0:0:0:
280,168,25839,1,8,0:0:0:0:
280,168,25927,1,0,0:0:0:0:
336,160,26103,1,0,0:0:0:0:
336,160,26192,1,8,0:0:0:0:
336,160,26368,1,0,0:0:0:0:
336,160,26456,1,8,0:0:0:0:
336,160,26545,1,8,0:0:0:0:
336,160,26633,1,0,0:0:0:0:
328,160,26809,1,0,0:0:0:0:
328,160,26986,1,8,0:0:0:0:
328,160,27074,1,0,0:0:0:0:
328,160,27250,1,8,0:0:0:0:
328,160,27339,1,0,0:0:0:0:
328,160,27515,1,0,0:0:0:0:
328,160,27603,1,8,0:0:0:0:
240,168,27692,1,0,0:0:0:0:
240,168,27868,1,8,0:0:0:0:
240,168,27956,1,8,0:0:0:0:
240,168,28045,1,8,0:0:0:0:
240,168,28133,1,8,0:0:0:0:
240,168,28221,1,0,0:0:0:0:
240,168,28397,1,8,0:0:0:0:
240,168,28486,1,0,0:0:0:0:
208,144,28662,1,8,0:0:0:0:
208,144,28750,1,0,0:0:0:0:
208,152,28927,1,8,0:0:0:0:
208,152,29015,1,0,0:0:0:0:
208,152,29192,1,0,0:0:0:0:
208,152,29280,1,8,0:0:0:0:
208,152,29368,1,8,0:0:0:0:
208,152,29456,1,0,0:0:0:0:
248,168,29633,1,0,0:0:0:0:
248,168,29809,1,8,0:0:0:0:
248,168,29897,1,0,0:0:0:0:
248,168,30074,1,8,0:0:0:0:
248,168,30162,1,0,0:0:0:0:
248,168,30339,1,0,0:0:0:0:
248,168,30427,1,8,0:0:0:0:
248,168,30603,1,0,0:0:0:0:
248,168,30780,1,8,0:0:0:0:
248,168,30868,1,0,0:0:0:0:
248,168,30956,1,0,0:0:0:0:
248,168,31045,1,8,0:0:0:0:
248,168,31221,1,0,0:0:0:0:
248,168,31309,1,8,0:0:0:0:
248,168,31486,1,0,0:0:0:0:
248,168,31574,1,8,0:0:0:0:
248,168,31750,1,0,0:0:0:0:
248,168,31839,1,8,0:0:0:0:
248,168,32015,1,0,0:0:0:0:
248,168,32103,1,8,0:0:0:0:
304,176,32192,1,8,0:0:0:0:
304,176,32280,1,0,0:0:0:0:
240,168,32368,1,8,0:0:0:0:
240,168,32456,1,0,0:0:0:0:
304,176,32633,1,8,0:0:0:0:
296,184,32721,1,0,0:0:0:0:
296,184,32897,1,8,0:0:0:0:
296,184,32986,1,0,0:0:0:0:
296,184,33162,1,0,0:0:0:0:
296,184,33250,1,8,0:0:0:0:
264,128,33427,1,0,0:0:0:0:
264,128,33515,1,8,0:0:0:0:
264,96,33692,1,0,0:0:0:0:
264,104,33780,1,8,0:0:0:0:
264,104,33868,1,0,0:0:0:0:
264,104,34045,1,8,0:0:0:0:
264,104,34133,1,0,0:0:0:0:
264,104,34309,1,8,0:0:0:0:
264,104,34397,1,0,0:0:0:0:
264,104,34574,1,0,0:0:0:0:
264,104,34662,1,8,0:0:0:0:
272,224,34750,1,0,0:0:0:0:
272,224,34839,1,8,0:0:0:0:
264,192,35015,1,8,0:0:0:0:
264,104,35103,1,0,0:0:0:0:
264,104,35192,1,8,0:0:0:0:
264,104,35280,1,0,0:0:0:0:
256,208,35456,1,8,0:0:0:0:
256,208,35545,1,0,0:0:0:0:
256,208,35721,1,8,0:0:0:0:
256,208,35809,1,0,0:0:0:0:
256,208,35986,1,0,0:0:0:0:
256,208,36074,1,8,0:0:0:0:
256,208,36162,1,0,0:0:0:0:
256,216,36339,1,8,0:0:0:0:
256,216,36515,1,8,0:0:0:0:
256,216,36603,1,8,0:0:0:0:
256,216,36692,1,0,0:0:0:0:
256,216,36868,1,8,0:0:0:0:
272,128,36956,1,0,0:0:0:0:
272,128,37133,1,8,0:0:0:0:
272,136,37221,1,0,0:0:0:0:
256,64,37397,1,0,0:0:0:0:
320,112,37456,1,0,0:0:0:0:
320,112,37515,1,0,0:0:0:0:
320,112,37574,1,0,0:0:0:0:
368,168,37662,1,0,0:0:0:0:
368,168,37750,1,0,0:0:0:0:
360,168,37839,1,0,0:0:0:0:
288,200,37927,1,8,0:0:0:0:
288,200,38015,1,8,0:0:0:0:
288,200,38103,1,0,0:0:0:0:
288,200,38280,1,8,0:0:0:0:
288,200,38456,1,8,0:0:0:0:
312,144,38633,1,8,0:0:0:0:
344,168,38721,1,8,0:0:0:0:
312,144,38809,1,0,0:0:0:0:
312,144,38986,1,8,0:0:0:0:
312,144,39162,1,8,0:0:0:0:
344,168,39339,1,0,0:0:0:0:
344,168,39515,1,0,0:0:0:0:
344,168,39692,1,8,0:0:0:0:
344,168,39868,1,8,0:0:0:0:
344,168,40045,1,8,0:0:0:0:
344,168,40133,1,8,0:0:0:0:
344,168,40221,1,0,0:0:0:0:
288,168,40486,1,0,0:0:0:0:
288,168,40574,1,8,0:0:0:0:
288,168,40662,1,8,0:0:0:0:
288,168,40750,1,8,0:0:0:0:
288,168,40839,1,8,0:0:0:0:
288,168,40927,1,0,0:0:0:0:
232,176,41103,1,8,0:0:0:0:
232,176,41192,1,0,0:0:0:0:
232,176,41368,1,8,0:0:0:0:
232,176,41456,1,0,0:0:0:0:
232,176,41545,1,0,0:0:0:0:
232,176,41633,1,8,0:0:0:0:
232,176,41809,1,0,0:0:0:0:
232,176,41897,1,8,0:0:0:0:
232,176,42074,1,0,0:0:0:0:
232,176,42162,1,8,0:0:0:0:
232,176,42250,1,8,0:0:0:0:
232,176,42339,1,0,0:0:0:0:
232,168,42515,1,8,0:0:0:0:
232,168,42603,1,0,0:0:0:0:
232,168,42780,1,8,0:0:0:0:
232,168,42868,1,0,0:0:0:0:
232,168,42956,1,0,0:0:0:0:
232,168,43045,1,8,0:0:0:0:
232,168,43221,1,0,0:0:0:0:
232,168,43309,1,8,0:0:0:0:
232,168,43486,1,0,0:0:0:0:
232,168,43574,1,8,0:0:0:0:
232,168,43662,1,8,0:0:0:0:
232,168,43750,1,0,0:0:0:0:
232,168,43927,1,8,0:0:0:0:
232,168,44015,1,0,0:0:0:0:
232,168,44192,1,8,0:0:0:0:
232,168,44280,1,0,0:0:0:0:
232,168,44368,1,0,0:0:0:0:
232,168,44456,1,8,0:0:0:0:
232,168,44633,1,0,0:0:0:0:
232,168,44721,1,8,0:0:0:0:
232,168,44897,1,0,0:0:0:0:
232,168,44986,1,8,0:0:0:0:
232,168,45074,1,8,0:0:0:0:
232,168,45162,1,0,0:0:0:0:
232,168,45250,1,8,0:0:0:0:
232,168,45339,1,8,0:0:0:0:
232,168,45427,1,0,0:0:0:0:
232,168,45515,1,8,0:0:0:0:
232,168,45603,1,8,0:0:0:0:
232,168,45692,1,0,0:0:0:0:
232,160,45780,1,0,0:0:0:0:
232,168,45868,1,8,0:0:0:0:
232,168,45956,1,0,0:0:0:0:
232,168,46045,1,0,0:0:0:0:
232,168,46133,1,8,0:0:0:0:
232,168,46221,1,0,0:0:0:0:
232,168,46309,1,0,0:0:0:0:
232,168,46397,1,8,0:0:0:0:
232,168,46486,1,8,0:0:0:0:
232,168,46574,1,0,0:0:0:0:
232,160,46750,1,8,0:0:0:0:
232,160,46839,1,0,0:0:0:0:
232,160,47015,1,8,0:0:0:0:
232,160,47103,1,0,0:0:0:0:
232,160,47192,1,0,0:0:0:0:
232,160,47280,1,8,0:0:0:0:
232,160,47456,1,0,0:0:0:0:
232,160,47545,1,8,0:0:0:0:
232,160,47721,1,0,0:0:0:0:
232,160,47809,1,8,0:0:0:0:
216,168,47897,1,8,0:0:0:0:
216,168,47986,1,0,0:0:0:0:
216,168,48162,1,8,0:0:0:0:
216,168,48250,1,0,0:0:0:0:
216,168,48427,1,8,0:0:0:0:
216,168,48515,1,0,0:0:0:0:
216,168,48603,1,0,0:0:0:0:
216,168,48692,1,8,0:0:0:0:
216,168,48868,1,0,0:0:0:0:
216,168,48956,1,8,0:0:0:0:
216,168,49133,1,0,0:0:0:0:
216,168,49221,1,8,0:0:0:0:
216,168,49309,1,8,0:0:0:0:
216,168,49397,1,0,0:0:0:0:
176,168,49486,1,8,0:0:0:0:
176,176,49574,1,8,0:0:0:0:
176,176,49662,1,0,0:0:0:0:
176,176,49750,1,8,0:0:0:0:
176,176,49839,1,8,0:0:0:0:
176,176,49927,1,0,0:0:0:0:
176,176,50103,1,0,0:0:0:0:
176,176,50192,1,8,0:0:0:0:
176,176,50280,1,8,0:0:0:0:
176,176,50368,1,0,0:0:0:0:
176,176,50456,1,8,0:0:0:0:
176,176,50545,1,8,0:0:0:0:
176,176,50633,1,0,0:0:0:0:
296,104,50809,1,8,0:0:0:0:
296,104,50897,1,0,0:0:0:0:
296,104,50986,1,0,0:0:0:0:
296,104,51074,1,8,0:0:0:0:
296,104,51162,1,8,0:0:0:0:
296,104,51250,1,0,0:0:0:0:
296,104,51339,1,0,0:0:0:0:
296,104,51427,1,8,0:0:0:0:
296,104,51515,1,8,0:0:0:0:
296,104,51603,1,0,0:0:0:0:
296,104,51692,1,0,0:0:0:0:
296,104,51780,1,8,0:0:0:0:
296,104,51868,1,8,0:0:0:0:
296,104,51956,1,0,0:0:0:0:
296,104,52045,1,0,0:0:0:0:
296,104,52133,1,8,0:0:0:0:
296,104,52221,1,8,0:0:0:0:
384,160,52309,1,0,0:0:0:0:
384,160,52397,1,8,0:0:0:0:
384,160,52486,1,8,0:0:0:0:
384,160,52574,1,0,0:0:0:0:
384,160,52662,1,8,0:0:0:0:
384,160,52750,1,8,0:0:0:0:
384,160,52839,1,0,0:0:0:0:
384,160,52927,1,8,0:0:0:0:
384,160,53015,1,8,0:0:0:0:
384,160,53103,1,0,0:0:0:0:
384,160,53192,1,8,0:0:0:0:
384,160,53280,1,8,0:0:0:0:
384,160,53368,1,0,0:0:0:0:
384,160,53456,1,8,0:0:0:0:
384,160,53545,1,8,0:0:0:0:
384,160,53633,1,0,0:0:0:0:
224,160,53809,1,8,0:0:0:0:
224,160,53897,1,0,0:0:0:0:
224,160,54074,1,0,0:0:0:0:
224,160,54162,1,8,0:0:0:0:
224,160,54250,1,8,0:0:0:0:
224,160,54339,1,0,0:0:0:0:
328,144,54397,1,8,0:0:0:0:
328,144,54456,1,8,0:0:0:0:
256,144,54515,1,0,0:0:0:0:
280,224,54603,1,0,0:0:0:0:
288,160,54692,1,8,0:0:0:0:
288,160,54780,1,8,0:0:0:0:
288,160,54868,1,8,0:0:0:0:
288,160,54956,1,8,0:0:0:0:
288,160,55045,1,4,0:0:0:0:
392,200,55221,1,8,0:0:0:0:
392,200,55309,1,0,0:0:0:0:
392,200,55397,1,8,0:0:0:0:
392,200,55574,1,0,0:0:0:0:
392,200,55662,1,8,0:0:0:0:
392,200,55750,1,0,0:0:0:0:
392,200,55839,1,8,0:0:0:0:
392,200,55927,1,8,0:0:0:0:
392,200,56015,1,0,0:0:0:0:
392,200,56192,1,0,0:0:0:0:
392,200,56280,1,8,0:0:0:0:
392,200,56368,1,8,0:0:0:0:
392,200,56456,1,0,0:0:0:0:
392,200,56633,1,8,0:0:0:0:
392,200,56721,1,0,0:0:0:0:
392,200,56897,1,8,0:0:0:0:
392,200,56986,1,0,0:0:0:0:
392,200,57162,1,0,0:0:0:0:
392,200,57250,1,8,0:0:0:0:
392,200,57339,1,0,0:0:0:0:
392,200,57515,1,8,0:0:0:0:
392,200,57603,1,8,0:0:0:0:
392,200,57692,1,8,0:0:0:0:
392,200,57780,1,8,0:0:0:0:
392,200,57868,1,0,0:0:0:0:
392,200,58045,1,8,0:0:0:0:
392,200,58133,1,0,0:0:0:0:
392,200,58221,1,8,0:0:0:0:
392,200,58397,1,0,0:0:0:0:
392,200,58486,1,8,0:0:0:0:
392,200,58574,1,0,0:0:0:0:
392,200,58662,1,8,0:0:0:0:
392,200,58750,1,8,0:0:0:0:
392,200,58839,1,0,0:0:0:0:
392,200,59015,1,0,0:0:0:0:
392,200,59103,1,8,0:0:0:0:
392,200,59192,1,8,0:0:0:0:
392,200,59280,1,0,0:0:0:0:
392,200,59368,1,8,0:0:0:0:
392,200,59456,1,8,0:0:0:0:
392,200,59545,1,0,0:0:0:0:
392,200,59633,1,8,0:0:0:0:
392,200,59721,1,8,0:0:0:0:
392,200,59809,1,0,0:0:0:0:
392,200,59897,1,0,0:0:0:0:
392,200,59986,1,8,0:0:0:0:
344,128,60045,1,8,0:0:0:0:
344,128,60103,1,8,0:0:0:0:
344,128,60162,1,0,0:0:0:0:
312,216,60250,1,0,0:0:0:0:
320,192,60339,1,8,0:0:0:0:
320,192,60427,1,8,0:0:0:0:
320,192,60515,1,8,0:0:0:0:
320,192,60603,1,8,0:0:0:0:
320,192,60692,1,0,0:0:0:0:
320,136,60868,1,8,0:0:0:0:
320,136,60956,1,0,0:0:0:0:
320,136,61045,1,8,0:0:0:0:
320,136,61221,1,0,0:0:0:0:
320,136,61309,1,8,0:0:0:0:
320,136,61397,1,0,0:0:0:0:
320,136,61486,1,8,0:0:0:0:
320,136,61574,1,8,0:0:0:0:
320,136,61662,1,0,0:0:0:0:
320,136,61750,1,8,0:0:0:0:
320,136,61839,1,0,0:0:0:0:
320,136,61927,1,8,0:0:0:0:
320,136,62015,1,8,0:0:0:0:
320,136,62103,1,0,0:0:0:0:
320,136,62280,1,8,0:0:0:0:
320,136,62368,1,0,0:0:0:0:
320,136,62545,1,8,0:0:0:0:
320,136,62633,1,0,0:0:0:0:
320,168,62721,1,0,0:0:0:0:
320,168,62809,1,8,0:0:0:0:
320,168,62897,1,8,0:0:0:0:
320,168,62986,1,0,0:0:0:0:
320,168,63074,1,0,0:0:0:0:
320,168,63162,1,8,0:0:0:0:
320,168,63250,1,8,0:0:0:0:
320,168,63339,1,8,0:0:0:0:
320,168,63427,1,8,0:0:0:0:
320,168,63515,1,0,0:0:0:0:
288,152,63692,1,8,0:0:0:0:
288,152,63780,1,0,0:0:0:0:
288,152,63868,1,8,0:0:0:0:
272,144,64045,1,0,0:0:0:0:
272,144,64133,1,8,0:0:0:0:
272,144,64221,1,0,0:0:0:0:
272,144,64309,1,8,0:0:0:0:
272,144,64397,1,8,0:0:0:0:
272,144,64486,1,0,0:0:0:0:
272,144,64662,1,0,0:0:0:0:
272,144,64750,1,8,0:0:0:0:
272,144,64839,1,8,0:0:0:0:
272,144,64927,1,0,0:0:0:0:
272,144,65103,1,8,0:0:0:0:
256,128,65192,1,0,0:0:0:0:
256,128,65280,1,8,0:0:0:0:
256,128,65368,1,8,0:0:0:0:
256,128,65456,1,0,0:0:0:0:
360,160,65633,1,0,0:0:0:0:
360,160,65692,1,0,0:0:0:0:
360,160,65750,1,0,0:0:0:0:
360,160,65809,1,0,0:0:0:0:
400,184,65897,1,0,0:0:0:0:
400,184,65986,1,8,0:0:0:0:
400,184,66074,1,8,0:0:0:0:
400,184,66162,1,8,0:0:0:0:
400,184,66250,1,8,0:0:0:0:
400,184,66339,1,4,0:0:0:0:
400,184,66515,1,8,0:0:0:0:
400,184,66603,1,0,0:0:0:0:
400,184,66692,1,8,0:0:0:0:
272,128,66868,1,0,0:0:0:0:
272,128,66956,1,8,0:0:0:0:
272,128,67045,1,0,0:0:0:0:
272,128,67133,1,8,0:0:0:0:
272,128,67221,1,8,0:0:0:0:
192,80,67309,1,0,0:0:0:0:
272,168,67486,1,0,0:0:0:0:
272,168,67574,1,8,0:0:0:0:
272,168,67662,1,8,0:0:0:0:
272,168,67750,1,0,0:0:0:0:
328,96,67927,1,8,0:0:0:0:
336,104,68015,1,0,0:0:0:0:
320,96,68192,1,8,0:0:0:0:
320,96,68280,1,0,0:0:0:0:
320,96,68456,1,0,0:0:0:0:
320,96,68545,1,8,0:0:0:0:
320,96,68633,1,8,0:0:0:0:
320,96,68721,1,0,0:0:0:0:
320,96,68809,1,8,0:0:0:0:
320,96,68897,1,8,0:0:0:0:
320,96,68986,1,0,0:0:0:0:
320,96,69074,1,8,0:0:0:0:
320,96,69162,1,0,0:0:0:0:
320,96,69339,1,8,0:0:0:0:
320,96,69427,1,0,0:0:0:0:
320,96,69515,1,8,0:0:0:0:
320,96,69692,1,0,0:0:0:0:
320,96,69780,1,8,0:0:0:0:
320,96,69868,1,0,0:0:0:0:
320,96,69956,1,8,0:0:0:0:
320,96,70045,1,8,0:0:0:0:
320,96,70133,1,0,0:0:0:0:
272,136,70309,1,8,0:0:0:0:
272,136,70397,1,0,0:0:0:0:
272,136,70574,1,0,0:0:0:0:
272,136,70750,1,8,0:0:0:0:
272,136,70839,1,0,0:0:0:0:
272,136,71015,1,8,0:0:0:0:
272,136,71103,1,0,0:0:0:0:
272,136,71192,1,0,0:0:0:0:
232,144,71280,1,8,0:0:0:0:
232,144,71368,1,8,0:0:0:0:
232,144,71456,1,0,0:0:0:0:
232,144,71545,1,8,0:0:0:0:
232,144,71633,1,0,0:0:0:0:
232,144,71721,1,0,0:0:0:0:
232,144,71809,1,8,0:0:0:0:
232,144,71897,1,8,0:0:0:0:
232,144,71986,1,0,0:0:0:0:
232,144,72162,1,8,0:0:0:0:
232,144,72250,1,0,0:0:0:0:
232,144,72339,1,8,0:0:0:0:
232,144,72515,1,0,0:0:0:0:
232,144,72603,1,8,0:0:0:0:
232,144,72692,1,0,0:0:0:0:
232,144,72780,1,8,0:0:0:0:
232,144,72868,1,8,0:0:0:0:
232,144,72956,1,0,0:0:0:0:
232,144,73133,1,8,0:0:0:0:
232,144,73221,1,0,0:0:0:0:
232,144,73397,1,0,0:0:0:0:
248,144,73486,1,8,0:0:0:0:
248,144,73662,1,0,0:0:0:0:
248,144,73839,1,8,0:0:0:0:
248,144,73927,1,0,0:0:0:0:
248,144,74103,1,0,0:0:0:0:
248,144,74192,1,8,0:0:0:0:
248,144,74280,1,8,0:0:0:0:
248,144,74368,1,0,0:0:0:0:
248,144,74456,1,8,0:0:0:0:
280,112,74633,1,0,0:0:0:0:
280,112,74721,1,8,0:0:0:0:
280,112,74809,1,0,0:0:0:0:
288,144,74986,1,8,0:0:0:0:
288,144,75074,1,0,0:0:0:0:
288,144,75162,1,8,0:0:0:0:
232,112,75339,1,0,0:0:0:0:
232,112,75427,1,8,0:0:0:0:
232,112,75515,1,0,0:0:0:0:
232,112,75603,1,8,0:0:0:0:
232,112,75692,1,8,0:0:0:0:
232,112,75780,1,0,0:0:0:0:
272,128,75868,1,8,0:0:0:0:
272,128,75956,1,8,0:0:0:0:
272,128,76045,1,0,0:0:0:0:
272,128,76133,1,0,0:0:0:0:
264,224,76221,1,8,0:0:0:0:
264,216,76280,1,8,0:0:0:0:
264,200,76339,1,8,0:0:0:0:
264,200,76397,1,0,0:0:0:0:
296,184,76486,1,0,0:0:0:0:
352,128,76574,1,0,0:0:0:0:
352,128,76662,1,0,0:0:0:0:
352,128,76750,1,0,0:0:0:0:
352,128,76839,1,0,0:0:0:0:
312,176,76927,1,8,0:0:0:0:
312,176,76986,1,8,0:0:0:0:
312,176,77045,1,8,0:0:0:0:
312,176,77103,1,0,0:0:0:0:
280,144,77192,1,0,0:0:0:0:
248,208,77280,1,8,0:0:0:0:
248,200,77339,1,8,0:0:0:0:
248,208,77397,1,8,0:0:0:0:
248,200,77456,1,8,0:0:0:0:
248,200,77515,1,8,0:0:0:0:
248,200,77574,1,8,0:0:0:0:
248,192,77633,1,0,0:0:0:0:
288,192,77809,1,8,0:0:0:0:
200,168,77897,1,0,0:0:0:0:
200,168,77986,1,8,0:0:0:0:
280,120,78162,1,0,0:0:0:0:
280,120,78250,1,8,0:0:0:0:
272,128,78339,1,0,0:0:0:0:
272,128,78515,1,8,0:0:0:0:
272,128,78603,1,0,0:0:0:0:
232,144,78780,1,8,0:0:0:0:
296,104,78868,1,0,0:0:0:0:
296,104,78956,1,8,0:0:0:0:
296,104,79045,1,0,0:0:0:0:
232,144,79221,1,8,0:0:0:0:
232,144,79309,1,0,0:0:0:0:
232,144,79486,1,8,0:0:0:0:
232,144,79574,1,0,0:0:0:0:
232,144,79750,1,0,0:0:0:0:
232,144,79839,1,8,0:0:0:0:
232,144,79927,1,0,0:0:0:0:
232,144,80103,1,8,0:0:0:0:
232,144,80192,1,0,0:0:0:0:
232,144,80368,1,8,0:0:0:0:
232,144,80456,1,0,0:0:0:0:
232,144,80633,1,8,0:0:0:0:
232,144,80721,1,0,0:0:0:0:
232,144,80809,1,8,0:0:0:0:
232,144,80986,1,0,0:0:0:0:
232,144,81074,1,8,0:0:0:0:
232,144,81162,1,0,0:0:0:0:
232,144,81250,1,8,0:0:0:0:
232,144,81427,1,0,0:0:0:0:
232,144,81603,1,8,0:0:0:0:
232,144,81692,1,0,0:0:0:0:
232,144,81780,1,0,0:0:0:0:
232,144,81868,1,8,0:0:0:0:
232,144,81956,1,0,0:0:0:0:
232,144,82045,1,0,0:0:0:0:
232,144,82133,1,8,0:0:0:0:
232,144,82221,1,0,0:0:0:0:
232,144,82309,1,0,0:0:0:0:
232,144,82397,1,8,0:0:0:0:
232,144,82486,1,0,0:0:0:0:
232,144,82574,1,8,0:0:0:0:
232,144,82662,1,8,0:0:0:0:
232,144,82750,1,0,0:0:0:0:
232,144,82839,1,8,0:0:0:0:
336,152,82927,1,0,0:0:0:0:
336,152,82986,1,0,0:0:0:0:
336,152,83045,1,0,0:0:0:0:
336,152,83103,1,8,0:0:0:0:
368,168,83192,1,8,0:0:0:0:
368,168,83280,1,0,0:0:0:0:
368,168,83456,1,8,0:0:0:0:
368,168,83545,1,0,0:0:0:0:
368,168,83633,1,8,0:0:0:0:
320,112,83809,1,0,0:0:0:0:
320,112,83897,1,8,0:0:0:0:
320,112,83986,1,0,0:0:0:0:
320,112,84074,1,8,0:0:0:0:
320,112,84162,1,8,0:0:0:0:
320,112,84250,1,0,0:0:0:0:
320,112,84427,1,8,0:0:0:0:
320,112,84515,1,0,0:0:0:0:
320,112,84603,1,8,0:0:0:0:
320,112,84692,1,0,0:0:0:0:
320,112,84868,1,8,0:0:0:0:
320,112,84956,1,0,0:0:0:0:
320,112,85133,1,8,0:0:0:0:
320,112,85221,1,0,0:0:0:0:
320,112,85397,1,8,0:0:0:0:
320,112,85486,1,0,0:0:0:0:
320,112,85662,1,8,0:0:0:0:
432,128,85750,1,0,0:0:0:0:
400,144,85809,1,8,0:0:0:0:
400,144,85868,1,8,0:0:0:0:
400,144,85927,1,0,0:0:0:0:
432,128,86015,1,8,0:0:0:0:
432,128,86103,1,0,0:0:0:0:
432,128,86280,1,8,0:0:0:0:
432,128,86368,1,0,0:0:0:0:
352,128,86456,1,8,0:0:0:0:
416,176,86633,1,0,0:0:0:0:
416,176,86721,1,8,0:0:0:0:
416,176,86809,1,0,0:0:0:0:
416,176,86897,1,8,0:0:0:0:
416,176,86986,1,8,0:0:0:0:
416,176,87074,1,0,0:0:0:0:
416,176,87250,1,8,0:0:0:0:
416,176,87339,1,0,0:0:0:0:
312,200,87427,1,8,0:0:0:0:
320,200,87515,1,0,0:0:0:0:
320,200,87603,1,8,0:0:0:0:
320,200,87692,1,8,0:0:0:0:
320,200,87780,1,0,0:0:0:0:
320,200,87868,1,8,0:0:0:0:
320,200,87956,1,8,0:0:0:0:
320,200,88045,1,0,0:0:0:0:
320,200,88133,1,0,0:0:0:0:
320,200,88221,1,8,0:0:0:0:
320,200,88309,1,0,0:0:0:0:
320,200,88397,1,0,0:0:0:0:
320,200,88486,1,8,0:0:0:0:
320,200,88574,1,0,0:0:0:0:
320,200,88662,1,0,0:0:0:0:
320,200,88750,1,8,0:0:0:0:
320,200,88839,1,8,0:0:0:0:
320,200,88927,1,0,0:0:0:0:
312,200,89103,1,8,0:0:0:0:
312,200,89192,1,0,0:0:0:0:
312,200,89280,1,8,0:0:0:0:
312,200,89456,1,0,0:0:0:0:
312,200,89545,1,8,0:0:0:0:
312,200,89633,1,0,0:0:0:0:
312,200,89721,1,8,0:0:0:0:
312,200,89809,1,8,0:0:0:0:
312,200,89897,1,0,0:0:0:0:
312,200,89986,1,8,0:0:0:0:
312,200,90074,1,8,0:0:0:0:
312,200,90162,1,0,0:0:0:0:
312,200,90250,1,8,0:0:0:0:
312,200,90339,1,0,0:0:0:0:
312,208,90515,1,8,0:0:0:0:
312,208,90603,1,0,0:0:0:0:
312,208,90692,1,8,0:0:0:0:
312,208,90780,1,8,0:0:0:0:
312,208,90868,1,0,0:0:0:0:
312,208,90956,1,8,0:0:0:0:
312,208,91045,1,0,0:0:0:0:
312,208,91133,1,8,0:0:0:0:
312,208,91221,1,8,0:0:0:0:
312,208,91309,1,0,0:0:0:0:
360,160,91397,1,8,0:0:0:0:
344,176,91456,1,8,0:0:0:0:
344,176,91515,1,8,0:0:0:0:
344,176,91574,1,0,0:0:0:0:
304,160,91662,1,8,0:0:0:0:
304,160,91750,1,0,0:0:0:0:
304,160,91927,1,8,0:0:0:0:
304,160,92015,1,0,0:0:0:0:
304,160,92103,1,8,0:0:0:0:
304,160,92280,1,0,0:0:0:0:
304,160,92368,1,8,0:0:0:0:
304,160,92456,1,0,0:0:0:0:
304,160,92545,1,8,0:0:0:0:
304,160,92721,1,0,0:0:0:0:
384,128,92897,1,8,0:0:0:0:
384,128,92986,1,0,0:0:0:0:
384,104,93074,1,8,0:0:0:0:
384,104,93162,1,0,0:0:0:0:
384,104,93250,1,0,0:0:0:0:
384,104,93339,1,8,0:0:0:0:
384,104,93427,1,0,0:0:0:0:
384,104,93515,1,0,0:0:0:0:
384,104,93603,1,8,0:0:0:0:
384,104,93692,1,0,0:0:0:0:
384,104,93780,1,0,0:0:0:0:
208,88,93868,1,8,0:0:0:0:
384,104,93956,1,0,0:0:0:0:
384,104,94045,1,0,0:0:0:0:
208,88,94133,1,8,0:0:0:0:
208,88,94221,1,0,0:0:0:0:
208,88,94309,1,8,0:0:0:0:
208,88,94397,1,8,0:0:0:0:
208,88,94486,1,8,0:0:0:0:
208,88,94574,1,0,0:0:0:0:
208,88,94750,1,8,0:0:0:0:
208,88,94839,1,0,0:0:0:0:
208,88,94927,1,8,0:0:0:0:
208,88,95103,1,0,0:0:0:0:
208,88,95192,1,8,0:0:0:0:
208,88,95280,1,0,0:0:0:0:
208,88,95368,1,8,0:0:0:0:
208,88,95456,1,8,0:0:0:0:
208,88,95545,1,0,0:0:0:0:
208,88,95721,1,8,0:0:0:0:
208,88,95809,1,0,0:0:0:0:
208,88,95897,1,8,0:0:0:0:
208,88,95986,1,0,0:0:0:0:
208,88,96074,1,8,0:0:0:0:
208,88,96162,1,8,0:0:0:0:
208,88,96250,1,0,0:0:0:0:
208,88,96339,1,8,0:0:0:0:
208,88,96427,1,8,0:0:0:0:
208,88,96515,1,0,0:0:0:0:
208,88,96603,1,8,0:0:0:0:
208,88,96692,1,0,0:0:0:0:
208,88,96780,1,8,0:0:0:0:
208,88,96868,1,8,0:0:0:0:
208,88,96956,1,0,0:0:0:0:
208,88,97045,1,8,0:0:0:0:
208,88,97133,1,8,0:0:0:0:
208,88,97221,1,8,0:0:0:0:
208,88,97309,1,8,0:0:0:0:
208,88,97397,1,0,0:0:0:0:
208,88,97486,1,8,0:0:0:0:
208,88,97574,1,8,0:0:0:0:
208,88,97662,1,8,0:0:0:0:
208,88,97750,1,0,0:0:0:0:
208,88,97839,1,0,0:0:0:0:
208,88,97927,1,8,0:0:0:0:
208,88,98015,1,8,0:0:0:0:
208,88,98103,1,0,0:0:0:0:
208,88,98192,1,8,0:0:0:0:
208,88,98280,1,8,0:0:0:0:
208,88,98368,1,8,0:0:0:0:
208,88,98456,1,0,0:0:0:0:
208,88,98545,1,0,0:0:0:0:
208,88,98633,1,8,0:0:0:0:
208,88,98721,1,8,0:0:0:0:
312,136,98809,1,0,0:0:0:0:
312,136,98868,1,0,0:0:0:0:
312,136,98927,1,0,0:0:0:0:
312,136,98986,1,0,0:0:0:0:
320,128,99074,1,0,0:0:0:0:
320,128,99162,1,8,0:0:0:0:
320,128,99250,1,8,0:0:0:0:
368,96,99339,1,0,0:0:0:0:
368,96,99397,1,0,0:0:0:0:
368,96,99456,1,0,0:0:0:0:
368,96,99515,1,0,0:0:0:0:
320,88,99603,1,0,0:0:0:0:
288,120,99692,1,8,0:0:0:0:
224,152,99780,1,0,0:0:0:0:
408,128,99868,1,8,0:0:0:0:
400,152,99927,1,8,0:0:0:0:
400,152,99986,1,8,0:0:0:0:
400,104,100045,1,8,0:0:0:0:
400,104,100089,1,8,0:0:0:0:
400,104,100133,1,8,0:0:0:0:
400,104,100177,1,8,0:0:0:0:
