osu file format v14

[General]
AudioFilename: dr0p.mp3
AudioLeadIn: 1004
PreviewTime: 47303
Countdown: 0
SampleSet: Normal
StackLeniency: 0.7
Mode: 1
LetterboxInBreaks: 0
WidescreenStoryboard: 0

[Editor]
DistanceSpacing: 0.8
BeatDivisor: 4
GridSize: 32
TimelineZoom: 2.4

[Metadata]
Title:dr0p
TitleUnicode:dr0p
Artist:ukeru
ArtistUnicode:ukeru
Creator:HashishKabob
Version:Ura Oni
Source:
Tags:traditional
BeatmapID:762160
BeatmapSetID:57234

[Difficulty]
HPDrainRate:7
CircleSize:5
OverallDifficulty:6
ApproachRate:5
SliderMultiplier:1.4
SliderTickRate:1

[Events]
//Background and Video events
0,0,"taiko.jpg",0,0
//Break Periods
//Storyboard Layer 0 (Background)
//Storyboard Layer 1 (Fail)
//Storyboard Layer 2 (Pass)
//Storyboard Layer 3 (Foreground)
//Storyboard Sound Samples

[TimingPoints]
1056,361.44578313253,4,1,0,100,1,0
96477,-100,4,1,0,100,0,1
108043,-100,4,1,0,100,0,0

[HitObjects]
256,192,1056,5,0,0:0:0:0:
256,192,1598,1,0,0:0:0:0:
256,192,1778,1,8,0:0:0:0:
256,192,2501,1,0,0:0:0:0:
256,192,3043,1,0,0:0:0:0:
256,192,3224,1,0,0:0:0:0:
256,192,3947,1,0,0:0:0:0:
256,192,4489,1,0,0:0:0:0:
256,192,4670,1,8,0:0:0:0:
256,192,5393,1,0,0:0:0:0:
256,192,5935,1,0,0:0:0:0:
256,192,6116,1,0,0:0:0:0:
256,192,6477,1,0,0:0:0:0:
256,192,6568,1,0,0:0:0:0:
256,192,6658,1,0,0:0:0:0:
256,192,6748,1,0,0:0:0:0:
256,192,6839,1,0,0:0:0:0:
256,192,7019,1,0,0:0:0:0:
256,192,7110,1,0,0:0:0:0:
256,192,7200,1,8,0:0:0:0:
256,192,7381,1,0,0:0:0:0:
256,192,7562,1,0,0:0:0:0:
256,192,7742,1,0,0:0:0:0:
256,192,7833,1,0,0:0:0:0:
256,192,7923,1,8,0:0:0:0:
256,192,8104,1,8,0:0:0:0:
256,192,8284,1,0,0:0:0:0:
256,192,8465,1,8,0:0:0:0:
256,192,8555,1,8,0:0:0:0:
256,192,8646,1,8,0:0:0:0:
256,192,8827,1,0,0:0:0:0:
256,192,9007,1,0,0:0:0:0:
256,192,9188,1,8,0:0:0:0:
256,192,9369,1,0,0:0:0:0:
256,192,9549,1,0,0:0:0:0:
256,192,9640,1,0,0:0:0:0:
256,192,9730,1,8,0:0:0:0:
256,192,9911,1,8,0:0:0:0:
256,192,10001,1,8,0:0:0:0:
256,192,10092,1,0,0:0:0:0:
256,192,10272,1,0,0:0:0:0:
256,192,10453,1,8,0:0:0:0:
256,192,10634,1,8,0:0:0:0:
256,192,10815,1,0,0:0:0:0:
256,192,10995,1,0,0:0:0:0:
256,192,11176,1,8,0:0:0:0:
256,192,11357,1,8,0:0:0:0:
256,192,11447,1,8,0:0:0:0:
256,192,11537,1,0,0:0:0:0:
256,192,11718,1,8,0:0:0:0:
256,192,11809,1,8,0:0:0:0:
256,192,11899,1,0,0:0:0:0:
256,192,12080,1,0,0:0:0:0:
256,192,12170,1,0,0:0:0:0:
256,192,12260,1,8,0:0:0:0:
256,192,12351,1,0,0:0:0:0:
256,192,12441,1,0,0:0:0:0:
256,192,12622,1,0,0:0:0:0:
256,192,12802,1,0,0:0:0:0:
256,192,12893,1,0,0:0:0:0:
256,192,12983,1,8,0:0:0:0:
256,192,13164,1,0,0:0:0:0:
256,192,13345,1,0,0:0:0:0:
256,192,13525,1,0,0:0:0:0:
256,192,13616,1,0,0:0:0:0:
256,192,13706,1,8,0:0:0:0:
256,192,13887,1,8,0:0:0:0:
256,192,14068,1,0,0:0:0:0:
256,192,14248,1,8,0:0:0:0:
256,192,14339,1,8,0:0:0:0:
256,192,14429,1,8,0:0:0:0:
256,192,14610,1,0,0:0:0:0:
256,192,14790,1,0,0:0:0:0:
256,192,14971,1,8,0:0:0:0:
256,192,15152,1,0,0:0:0:0:
256,192,15333,1,0,0:0:0:0:
256,192,15423,1,0,0:0:0:0:
256,192,15513,1,8,0:0:0:0:
256,192,15694,1,8,0:0:0:0:
256,192,15784,1,8,0:0:0:0:
256,192,15875,1,0,0:0:0:0:
256,192,16055,1,0,0:0:0:0:
256,192,16236,1,8,0:0:0:0:
256,192,16417,1,8,0:0:0:0:
256,192,16598,1,0,0:0:0:0:
256,192,16778,1,0,0:0:0:0:
256,192,16959,1,8,0:0:0:0:
256,192,17140,1,8,0:0:0:0:
256,192,17230,1,8,0:0:0:0:
256,192,17321,1,0,0:0:0:0:
256,192,17501,1,8,0:0:0:0:
256,192,17592,1,8,0:0:0:0:
256,192,17682,1,0,0:0:0:0:
256,192,17863,1,0,0:0:0:0:
256,192,17953,1,0,0:0:0:0:
256,192,18043,1,8,0:0:0:0:
256,192,18134,1,0,0:0:0:0:
256,192,18224,1,0,0:0:0:0:
256,192,18405,1,0,0:0:0:0:
256,192,18766,1,8,0:0:0:0:
256,192,18947,1,0,0:0:0:0:
256,192,19037,1,0,0:0:0:0:
256,192,19128,1,0,0:0:0:0:
256,192,19309,1,0,0:0:0:0:
256,192,19489,1,8,0:0:0:0:
256,192,19670,1,8,0:0:0:0:
256,192,19851,1,0,0:0:0:0:
256,192,20031,1,8,0:0:0:0:
256,192,20122,1,8,0:0:0:0:
256,192,20212,1,8,0:0:0:0:
256,192,20393,1,0,0:0:0:0:
256,192,20483,1,0,0:0:0:0:
256,192,20574,1,0,0:0:0:0:
256,192,20754,1,0,0:0:0:0:
256,192,20935,1,8,0:0:0:0:
256,192,21116,1,8,0:0:0:0:
256,192,21206,1,8,0:0:0:0:
256,192,21296,1,0,0:0:0:0:
256,192,21477,1,8,0:0:0:0:
256,192,21568,1,0,0:0:0:0:
256,192,21658,1,8,0:0:0:0:
256,192,21839,1,8,0:0:0:0:
256,192,22019,1,0,0:0:0:0:
256,192,22200,1,8,0:0:0:0:
256,192,22290,1,0,0:0:0:0:
256,192,22381,1,8,0:0:0:0:
256,192,22562,1,8,0:0:0:0:
256,192,22742,1,0,0:0:0:0:
256,192,22923,1,8,0:0:0:0:
256,192,23013,1,8,0:0:0:0:
256,192,23104,1,0,0:0:0:0:
256,192,23284,1,8,0:0:0:0:
256,192,23375,1,8,0:0:0:0:
256,192,23465,1,0,0:0:0:0:
256,192,23646,1,0,0:0:0:0:
256,192,23736,1,0,0:0:0:0:
256,192,23827,1,8,0:0:0:0:
256,192,23917,1,0,0:0:0:0:
256,192,24007,1,0,0:0:0:0:
256,192,24188,1,0,0:0:0:0:
256,192,24369,1,0,0:0:0:0:
256,192,24549,1,8,0:0:0:0:
256,192,24730,1,0,0:0:0:0:
256,192,24821,1,0,0:0:0:0:
256,192,24911,1,0,0:0:0:0:
256,192,25092,1,0,0:0:0:0:
256,192,25272,1,8,0:0:0:0:
256,192,25453,1,8,0:0:0:0:
256,192,25634,1,0,0:0:0:0:
256,192,25815,1,8,0:0:0:0:
256,192,25905,1,8,0:0:0:0:
256,192,25995,1,8,0:0:0:0:
256,192,26176,1,0,0:0:0:0:
256,192,26266,1,0,0:0:0:0:
256,192,26357,1,0,0:0:0:0:
256,192,26537,1,0,0:0:0:0:
256,192,26718,1,8,0:0:0:0:
256,192,26899,1,8,0:0:0:0:
256,192,26989,1,8,0:0:0:0:
256,192,27080,1,0,0:0:0:0:
256,192,27260,1,8,0:0:0:0:
256,192,27351,1,0,0:0:0:0:
256,192,27441,1,8,0:0:0:0:
256,192,27622,1,8,0:0:0:0:
256,192,27802,1,0,0:0:0:0:
256,192,27983,1,8,0:0:0:0:
256,192,28074,1,0,0:0:0:0:
256,192,28164,1,8,0:0:0:0:
256,192,28345,1,8,0:0:0:0:
256,192,28525,1,0,0:0:0:0:
256,192,28706,1,8,0:0:0:0:
256,192,28796,1,8,0:0:0:0:
256,192,28887,1,0,0:0:0:0:
256,192,29068,1,8,0:0:0:0:
256,192,29158,1,8,0:0:0:0:
256,192,29248,1,0,0:0:0:0:
256,192,29339,1,8,0:0:0:0:
256,192,29429,1,8,0:0:0:0:
256,192,29519,1,0,0:0:0:0:
256,192,29610,1,8,0:0:0:0:
256,192,29700,1,8,0:0:0:0:
256,192,29790,1,0,0:0:0:0:
256,192,29971,1,4,0:0:0:0:
256,192,30694,1,8,0:0:0:0:
256,192,31236,1,0,0:0:0:0:
256,192,31417,1,0,0:0:0:0:
256,192,32140,1,8,0:0:0:0:
256,192,32321,1,0,0:0:0:0:
256,192,32501,1,0,0:0:0:0:
256,192,32863,1,0,0:0:0:0:
256,192,33586,1,8,0:0:0:0:
256,192,34309,1,0,0:0:0:0:
256,192,34851,1,0,0:0:0:0:
256,192,35031,1,8,0:0:0:0:
256,192,35302,1,0,0:0:0:0:
256,192,35393,1,0,0:0:0:0:
256,192,35574,1,0,0:0:0:0:
256,192,35754,1,0,0:0:0:0:
256,192,35935,1,8,0:0:0:0:
256,192,36116,1,0,0:0:0:0:
256,192,36296,1,8,0:0:0:0:
256,192,36387,1,0,0:0:0:0:
256,192,36477,1,0,0:0:0:0:
256,192,36658,1,0,0:0:0:0:
256,192,36839,1,0,0:0:0:0:
256,192,37019,1,8,0:0:0:0:
256,192,37200,1,0,0:0:0:0:
256,192,37381,1,8,0:0:0:0:
256,192,37471,1,8,0:0:0:0:
256,192,37562,1,0,0:0:0:0:
256,192,37742,1,0,0:0:0:0:
256,192,37833,1,0,0:0:0:0:
256,192,37923,1,0,0:0:0:0:
256,192,38104,1,0,0:0:0:0:
256,192,38284,1,0,0:0:0:0:
256,192,38465,1,8,0:0:0:0:
256,192,38646,1,0,0:0:0:0:
256,192,38827,1,8,0:0:0:0:
256,192,39007,1,0,0:0:0:0:
256,192,39188,1,0,0:0:0:0:
256,192,39278,1,0,0:0:0:0:
256,192,39369,1,0,0:0:0:0:
256,192,39549,1,0,0:0:0:0:
256,192,39730,1,0,0:0:0:0:
256,192,39911,1,8,0:0:0:0:
256,192,40092,1,0,0:0:0:0:
256,192,40272,1,8,0:0:0:0:
256,192,40453,1,0,0:0:0:0:
256,192,40634,1,8,0:0:0:0:
256,192,40724,1,0,0:0:0:0:
256,192,40815,1,0,0:0:0:0:
256,192,40995,1,8,0:0:0:0:
256,192,41086,1,8,0:0:0:0:
256,192,41176,1,0,0:0:0:0:
256,192,41266,1,0,0:0:0:0:
256,192,41357,1,8,0:0:0:0:
256,192,41447,1,0,0:0:0:0:
256,192,41537,1,0,0:0:0:0:
256,192,41718,1,8,0:0:0:0:
256,192,41899,1,0,0:0:0:0:
256,192,42080,1,8,0:0:0:0:
256,192,42170,1,0,0:0:0:0:
256,192,42260,1,0,0:0:0:0:
256,192,42441,1,0,0:0:0:0:
256,192,42622,1,0,0:0:0:0:
256,192,42802,1,8,0:0:0:0:
256,192,42983,1,0,0:0:0:0:
256,192,43164,1,8,0:0:0:0:
256,192,43254,1,8,0:0:0:0:
256,192,43345,1,0,0:0:0:0:
256,192,43525,1,0,0:0:0:0:
256,192,43616,1,0,0:0:0:0:
256,192,43706,1,0,0:0:0:0:
256,192,43887,1,0,0:0:0:0:
256,192,44068,1,0,0:0:0:0:
256,192,44248,1,8,0:0:0:0:
256,192,44429,1,0,0:0:0:0:
256,192,44610,1,8,0:0:0:0:
256,192,44790,1,0,0:0:0:0:
256,192,44971,1,0,0:0:0:0:
256,192,45062,1,0,0:0:0:0:
256,192,45152,1,0,0:0:0:0:
256,192,45333,1,0,0:0:0:0:
256,192,45513,1,0,0:0:0:0:
256,192,45694,1,8,0:0:0:0:
256,192,45875,1,0,0:0:0:0:
256,192,46055,1,8,0:0:0:0:
256,192,46236,1,0,0:0:0:0:
256,192,46417,1,8,0:0:0:0:
256,192,46507,1,0,0:0:0:0:
256,192,46598,1,0,0:0:0:0:
256,192,46688,1,0,0:0:0:0:
256,192,46778,1,8,0:0:0:0:
256,192,46869,1,8,0:0:0:0:
256,192,46959,1,0,0:0:0:0:
256,192,47049,1,0,0:0:0:0:
256,192,47140,1,8,0:0:0:0:
256,192,47321,1,4,0:0:0:0:
256,192,47682,1,0,0:0:0:0:
256,192,47863,1,8,0:0:0:0:
256,192,48043,1,0,0:0:0:0:
256,192,48586,1,0,0:0:0:0:
256,192,48646,1,0,0:0:0:0:
256,192,48706,1,0,0:0:0:0:
256,192,48766,1,8,0:0:0:0:
256,192,49128,1,0,0:0:0:0:
256,192,49309,1,8,0:0:0:0:
256,192,49489,1,0,0:0:0:0:
256,192,49851,1,8,0:0:0:0:
256,192,50031,1,0,0:0:0:0:
256,192,50092,1,0,0:0:0:0:
256,192,50152,1,0,0:0:0:0:
256,192,50212,1,8,0:0:0:0:
256,192,50574,1,0,0:0:0:0:
256,192,50754,1,8,0:0:0:0:
256,192,50935,1,0,0:0:0:0:
256,192,51296,1,8,0:0:0:0:
256,192,51658,1,0,0:0:0:0:
256,192,51839,1,8,0:0:0:0:
256,192,52019,1,0,0:0:0:0:
256,192,52200,1,8,0:0:0:0:
256,192,52381,1,0,0:0:0:0:
256,192,52562,1,0,0:0:0:0:
256,192,52742,1,8,0:0:0:0:
256,192,52833,1,0,0:0:0:0:
256,192,52923,1,8,0:0:0:0:
256,192,53013,1,0,0:0:0:0:
256,192,53104,1,0,0:0:0:0:
256,192,53465,1,0,0:0:0:0:
256,192,53646,1,8,0:0:0:0:
256,192,53827,1,0,0:0:0:0:
256,192,54369,1,0,0:0:0:0:
256,192,54429,1,0,0:0:0:0:
256,192,54489,1,0,0:0:0:0:
256,192,54549,1,8,0:0:0:0:
256,192,54911,1,0,0:0:0:0:
256,192,55092,1,8,0:0:0:0:
256,192,55272,1,0,0:0:0:0:
256,192,55634,1,8,0:0:0:0:
256,192,55815,1,0,0:0:0:0:
256,192,55875,1,0,0:0:0:0:
256,192,55935,1,0,0:0:0:0:
256,192,55995,1,8,0:0:0:0:
256,192,56357,1,0,0:0:0:0:
256,192,56718,1,8,0:0:0:0:
256,192,57080,1,0,0:0:0:0:
256,192,57441,1,0,0:0:0:0:
256,192,57622,1,8,0:0:0:0:
256,192,57802,1,0,0:0:0:0:
256,192,57983,1,8,0:0:0:0:
256,192,58164,1,0,0:0:0:0:
256,192,58345,1,0,0:0:0:0:
256,192,58525,1,8,0:0:0:0:
256,192,58616,1,0,0:0:0:0:
256,192,58706,1,8,0:0:0:0:
256,192,58796,1,0,0:0:0:0:
256,192,58887,1,0,0:0:0:0:
256,192,59068,1,8,0:0:0:0:
256,192,59158,1,0,0:0:0:0:
256,192,59248,1,8,0:0:0:0:
256,192,59339,1,8,0:0:0:0:
256,192,59429,1,0,0:0:0:0:
256,192,59519,1,0,0:0:0:0:
256,192,59610,1,8,0:0:0:0:
256,192,59790,1,0,0:0:0:0:
256,192,59881,1,8,0:0:0:0:
256,192,59971,1,8,0:0:0:0:
256,192,60062,1,8,0:0:0:0:
256,192,60152,1,0,0:0:0:0:
256,192,60242,1,0,0:0:0:0:
256,192,60333,1,8,0:0:0:0:
256,192,60513,1,0,0:0:0:0:
256,192,60604,1,8,0:0:0:0:
256,192,60694,1,8,0:0:0:0:
256,192,60784,1,8,0:0:0:0:
256,192,60875,1,0,0:0:0:0:
256,192,60965,1,0,0:0:0:0:
256,192,61055,1,8,0:0:0:0:
256,192,61146,1,8,0:0:0:0:
256,192,61236,1,0,0:0:0:0:
256,192,61327,1,8,0:0:0:0:
256,192,61417,1,0,0:0:0:0:
256,192,61507,1,0,0:0:0:0:
256,160,61598,1,8,0:0:0:0:
256,192,61688,1,0,0:0:0:0:
256,192,61778,1,8,0:0:0:0:
256,192,61959,1,0,0:0:0:0:
256,192,62049,1,8,0:0:0:0:
256,192,62140,1,0,0:0:0:0:
256,192,62230,1,0,0:0:0:0:
256,192,62321,1,0,0:0:0:0:
256,192,62411,1,8,0:0:0:0:
256,192,62501,1,8,0:0:0:0:
256,192,62682,1,0,0:0:0:0:
256,192,62772,1,8,0:0:0:0:
256,192,62863,1,0,0:0:0:0:
256,192,62953,1,0,0:0:0:0:
256,192,63043,1,0,0:0:0:0:
256,192,63134,1,8,0:0:0:0:
256,192,63224,1,0,0:0:0:0:
256,192,63405,1,0,0:0:0:0:
256,192,63495,1,0,0:0:0:0:
256,192,63586,1,0,0:0:0:0:
256,192,63676,1,8,0:0:0:0:
256,192,63766,1,0,0:0:0:0:
256,192,63857,1,8,0:0:0:0:
256,192,63947,1,0,0:0:0:0:
256,192,64128,1,8,0:0:0:0:
256,192,64218,1,0,0:0:0:0:
256,192,64309,1,8,0:0:0:0:
256,192,64399,1,0,0:0:0:0:
256,192,64489,1,0,0:0:0:0:
256,192,64580,1,8,0:0:0:0:
256,192,64670,1,0,0:0:0:0:
256,192,64851,1,8,0:0:0:0:
256,192,64941,1,0,0:0:0:0:
256,192,65031,1,8,0:0:0:0:
256,192,65122,1,8,0:0:0:0:
256,192,65212,1,0,0:0:0:0:
256,192,65302,1,0,0:0:0:0:
256,192,65393,1,8,0:0:0:0:
256,192,65574,1,0,0:0:0:0:
256,192,65664,1,8,0:0:0:0:
256,192,65754,1,8,0:0:0:0:
256,192,65845,1,8,0:0:0:0:
256,192,65935,1,0,0:0:0:0:
256,192,66025,1,0,0:0:0:0:
256,192,66116,1,8,0:0:0:0:
256,192,66296,1,0,0:0:0:0:
256,192,66387,1,8,0:0:0:0:
256,192,66477,1,8,0:0:0:0:
256,192,66568,1,8,0:0:0:0:
256,192,66658,1,0,0:0:0:0:
256,192,66748,1,0,0:0:0:0:
256,192,66839,1,8,0:0:0:0:
256,192,66929,1,8,0:0:0:0:
256,192,67019,1,0,0:0:0:0:
256,192,67110,1,8,0:0:0:0:
256,192,67200,1,0,0:0:0:0:
256,192,67290,1,0,0:0:0:0:
256,192,67381,1,8,0:0:0:0:
256,192,67471,1,0,0:0:0:0:
256,192,67562,1,8,0:0:0:0:
256,192,67742,1,0,0:0:0:0:
256,192,67833,1,8,0:0:0:0:
256,192,67923,1,0,0:0:0:0:
256,192,68013,1,0,0:0:0:0:
256,192,68104,1,0,0:0:0:0:
256,192,68194,1,8,0:0:0:0:
256,192,68284,1,8,0:0:0:0:
256,192,68465,1,0,0:0:0:0:
256,192,68555,1,8,0:0:0:0:
256,192,68646,1,0,0:0:0:0:
256,192,68736,1,0,0:0:0:0:
256,192,68827,1,0,0:0:0:0:
256,192,68917,1,8,0:0:0:0:
256,192,69007,1,0,0:0:0:0:
256,192,69188,1,0,0:0:0:0:
256,192,69278,1,0,0:0:0:0:
256,192,69369,1,0,0:0:0:0:
256,192,69459,1,8,0:0:0:0:
256,192,69549,1,0,0:0:0:0:
256,192,69640,1,8,0:0:0:0:
256,192,69730,1,0,0:0:0:0:
256,192,69911,1,8,0:0:0:0:
256,192,70001,1,0,0:0:0:0:
256,192,70092,1,8,0:0:0:0:
256,192,70182,1,0,0:0:0:0:
256,192,70272,1,0,0:0:0:0:
256,192,70363,1,8,0:0:0:0:
256,192,70453,1,0,0:0:0:0:
256,192,70634,1,8,0:0:0:0:
256,192,70724,1,8,0:0:0:0:
256,192,70815,1,0,0:0:0:0:
256,192,70905,1,8,0:0:0:0:
256,192,70995,1,8,0:0:0:0:
256,192,71086,1,0,0:0:0:0:
256,192,71176,1,0,0:0:0:0:
256,192,71357,1,8,0:0:0:0:
256,192,71447,1,8,0:0:0:0:
256,192,71537,1,0,0:0:0:0:
256,192,71628,1,8,0:0:0:0:
256,192,71718,1,0,0:0:0:0:
256,192,71809,1,0,0:0:0:0:
256,192,71899,1,8,0:0:0:0:
256,192,72080,1,0,0:0:0:0:
256,192,72170,1,0,0:0:0:0:
256,192,72260,1,8,0:0:0:0:
256,192,72351,1,0,0:0:0:0:
256,192,72441,1,8,0:0:0:0:
256,192,72531,1,8,0:0:0:0:
256,192,72622,1,0,0:0:0:0:
256,192,72712,1,8,0:0:0:0:
256,192,72802,1,0,0:0:0:0:
256,192,72893,1,8,0:0:0:0:
256,192,72983,1,0,0:0:0:0:
256,192,73074,1,0,0:0:0:0:
256,192,73164,1,8,0:0:0:0:
256,192,73254,1,0,0:0:0:0:
256,192,73345,1,0,0:0:0:0:
256,192,73525,1,8,0:0:0:0:
256,192,73616,1,0,0:0:0:0:
256,192,73706,1,8,0:0:0:0:
256,192,73796,1,8,0:0:0:0:
256,192,73887,1,0,0:0:0:0:
256,192,73977,1,8,0:0:0:0:
256,192,74068,1,0,0:0:0:0:
256,192,74248,1,8,0:0:0:0:
256,192,74339,1,0,0:0:0:0:
256,192,74429,1,8,0:0:0:0:
256,192,74519,1,8,0:0:0:0:
256,192,74610,1,0,0:0:0:0:
256,192,74700,1,8,0:0:0:0:
256,192,74790,1,0,0:0:0:0:
256,192,74971,1,0,0:0:0:0:
256,192,75062,1,0,0:0:0:0:
256,192,75152,1,8,0:0:0:0:
256,192,75242,1,8,0:0:0:0:
256,192,75333,1,0,0:0:0:0:
256,192,75423,1,8,0:0:0:0:
256,192,75513,1,0,0:0:0:0:
256,192,75694,1,0,0:0:0:0:
256,192,75784,1,0,0:0:0:0:
256,192,75875,1,8,0:0:0:0:
256,192,75965,1,0,0:0:0:0:
256,192,76055,1,0,0:0:0:0:
256,192,76146,1,8,0:0:0:0:
256,192,76236,1,0,0:0:0:0:
256,192,76417,1,8,0:0:0:0:
256,192,76507,1,8,0:0:0:0:
256,192,76598,1,0,0:0:0:0:
256,192,76688,1,8,0:0:0:0:
256,192,76778,1,8,0:0:0:0:
256,192,76869,1,0,0:0:0:0:
256,192,76959,1,0,0:0:0:0:
256,192,77140,1,8,0:0:0:0:
256,192,77230,1,8,0:0:0:0:
256,192,77321,1,0,0:0:0:0:
256,192,77411,1,8,0:0:0:0:
256,192,77501,1,0,0:0:0:0:
256,192,77592,1,0,0:0:0:0:
256,192,77682,1,8,0:0:0:0:
256,192,77863,1,0,0:0:0:0:
256,192,77953,1,0,0:0:0:0:
256,192,78043,1,8,0:0:0:0:
256,192,78134,1,0,0:0:0:0:
256,192,78224,1,8,0:0:0:0:
256,192,78315,1,8,0:0:0:0:
256,192,78405,1,0,0:0:0:0:
256,192,78495,1,8,0:0:0:0:
256,192,78586,1,0,0:0:0:0:
256,192,78676,1,8,0:0:0:0:
256,192,78766,1,0,0:0:0:0:
256,192,78857,1,0,0:0:0:0:
256,192,78947,1,8,0:0:0:0:
256,192,79037,1,0,0:0:0:0:
256,192,79128,1,0,0:0:0:0:
256,192,79309,1,8,0:0:0:0:
256,192,79399,1,0,0:0:0:0:
256,192,79489,1,8,0:0:0:0:
256,192,79580,1,8,0:0:0:0:
256,192,79670,1,0,0:0:0:0:
256,192,79760,1,8,0:0:0:0:
256,192,79851,1,0,0:0:0:0:
256,192,80031,1,8,0:0:0:0:
256,192,80122,1,0,0:0:0:0:
256,192,80212,1,8,0:0:0:0:
256,192,80302,1,8,0:0:0:0:
256,192,80393,1,0,0:0:0:0:
256,192,80483,1,8,0:0:0:0:
256,192,80574,1,0,0:0:0:0:
256,192,80754,1,0,0:0:0:0:
256,192,80845,1,0,0:0:0:0:
256,192,80935,1,8,0:0:0:0:
256,192,81025,1,8,0:0:0:0:
256,192,81116,1,0,0:0:0:0:
256,192,81206,1,8,0:0:0:0:
256,192,81296,1,0,0:0:0:0:
256,192,81477,1,0,0:0:0:0:
256,192,81568,1,0,0:0:0:0:
256,192,81658,1,8,0:0:0:0:
256,192,81748,1,0,0:0:0:0:
256,192,81839,1,0,0:0:0:0:
256,192,81929,1,8,0:0:0:0:
256,192,82019,1,0,0:0:0:0:
256,192,82290,1,0,0:0:0:0:
256,192,82562,1,0,0:0:0:0:
256,192,82742,1,8,0:0:0:0:
256,192,83465,1,8,0:0:0:0:
256,192,83646,1,8,0:0:0:0:
256,192,83827,1,8,0:0:0:0:
256,192,84007,1,8,0:0:0:0:
256,192,84188,1,0,0:0:0:0:
256,192,84278,1,8,0:0:0:0:
256,192,84369,1,8,0:0:0:0:
256,192,84459,1,0,0:0:0:0:
256,192,84549,1,0,0:0:0:0:
256,192,84640,1,8,0:0:0:0:
256,192,84730,1,0,0:0:0:0:
256,192,84911,1,4,0:0:0:0:
256,192,85182,1,0,0:0:0:0:
256,192,85272,1,8,0:0:0:0:
256,192,85453,1,4,0:0:0:0:
256,192,85634,1,8,0:0:0:0:
256,192,85905,1,0,0:0:0:0:
256,192,85995,1,8,0:0:0:0:
256,192,86176,1,0,0:0:0:0:
256,192,86357,1,12,0:0:0:0:
256,192,86628,1,8,0:0:0:0:
256,192,86718,1,0,0:0:0:0:
256,192,86899,1,12,0:0:0:0:
256,192,87080,1,0,0:0:0:0:
256,192,87351,1,8,0:0:0:0:
256,192,87441,1,0,0:0:0:0:
256,192,87622,1,8,0:0:0:0:
256,192,87802,1,4,0:0:0:0:
256,192,88074,1,0,0:0:0:0:
256,192,88164,1,8,0:0:0:0:
256,192,88345,1,4,0:0:0:0:
256,192,88525,1,0,0:0:0:0:
256,192,88796,1,0,0:0:0:0:
256,192,88887,1,8,0:0:0:0:
256,192,89068,1,0,0:0:0:0:
256,192,89248,1,4,0:0:0:0:
256,192,89519,1,8,0:0:0:0:
256,192,89610,1,8,0:0:0:0:
256,192,89790,1,4,0:0:0:0:
256,192,89971,1,4,0:0:0:0:
256,192,90333,1,8,0:0:0:0:
256,192,90423,1,8,0:0:0:0:
256,192,90513,1,8,0:0:0:0:
256,192,90694,1,4,0:0:0:0:
256,192,90965,1,0,0:0:0:0:
256,192,91055,1,8,0:0:0:0:
256,192,91236,1,4,0:0:0:0:
256,192,91417,1,8,0:0:0:0:
256,192,91688,1,0,0:0:0:0:
256,192,91778,1,8,0:0:0:0:
256,192,91959,1,0,0:0:0:0:
256,192,92140,1,12,0:0:0:0:
256,192,92411,1,8,0:0:0:0:
256,192,92501,1,0,0:0:0:0:
256,192,92682,1,12,0:0:0:0:
256,192,92863,1,0,0:0:0:0:
256,192,93134,1,8,0:0:0:0:
256,192,93224,1,0,0:0:0:0:
256,192,93405,1,8,0:0:0:0:
256,192,93586,1,4,0:0:0:0:
256,192,93857,1,0,0:0:0:0:
256,192,93947,1,8,0:0:0:0:
256,192,94128,1,4,0:0:0:0:
256,192,94309,1,0,0:0:0:0:
256,192,94580,1,0,0:0:0:0:
256,192,94670,1,8,0:0:0:0:
256,192,94851,1,0,0:0:0:0:
256,192,95031,1,4,0:0:0:0:
256,192,95302,1,8,0:0:0:0:
256,192,95393,1,8,0:0:0:0:
256,192,95574,1,4,0:0:0:0:
256,192,95754,1,4,0:0:0:0:
256,192,95935,1,8,0:0:0:0:
256,192,96025,1,0,0:0:0:0:
256,192,96116,1,0,0:0:0:0:
256,192,96206,1,0,0:0:0:0:
256,192,96296,1,8,0:0:0:0:
256,192,96477,1,4,0:0:0:0:
256,192,96658,1,8,0:0:0:0:
256,192,96748,1,8,0:0:0:0:
256,192,96839,1,0,0:0:0:0:
256,192,97019,1,8,0:0:0:0:
256,192,97200,1,4,0:0:0:0:
256,192,97381,1,8,0:0:0:0:
256,192,97471,1,8,0:0:0:0:
256,192,97562,1,0,0:0:0:0:
256,192,97742,1,8,0:0:0:0:
256,192,97923,1,4,0:0:0:0:
256,192,98104,1,8,0:0:0:0:
256,192,98194,1,8,0:0:0:0:
256,192,98284,1,0,0:0:0:0:
256,192,98375,1,8,0:0:0:0:
256,192,98465,1,8,0:0:0:0:
256,192,98646,1,4,0:0:0:0:
256,192,98827,1,8,0:0:0:0:
256,192,98917,1,8,0:0:0:0:
256,192,99007,1,0,0:0:0:0:
256,192,99098,1,8,0:0:0:0:
256,192,99188,1,8,0:0:0:0:
256,192,99369,1,4,0:0:0:0:
256,192,99549,1,8,0:0:0:0:
256,192,99640,1,0,0:0:0:0:
256,192,99821,1,0,0:0:0:0:
256,192,99911,1,8,0:0:0:0:
256,192,100092,1,4,0:0:0:0:
256,192,100272,1,8,0:0:0:0:
256,192,100363,1,0,0:0:0:0:
256,192,100543,1,0,0:0:0:0:
256,192,100634,1,8,0:0:0:0:
256,192,100815,1,4,0:0:0:0:
256,192,100995,1,8,0:0:0:0:
256,192,101176,1,0,0:0:0:0:
256,192,101266,1,0,0:0:0:0:
256,192,101357,1,8,0:0:0:0:
256,192,101537,1,4,0:0:0:0:
256,192,101718,1,0,0:0:0:0:
256,192,101809,1,8,0:0:0:0:
256,192,101899,1,0,0:0:0:0:
256,192,101989,1,0,0:0:0:0:
256,192,102080,1,0,0:0:0:0:
256,192,102260,1,4,0:0:0:0:
256,192,102441,1,8,0:0:0:0:
256,192,102622,1,4,0:0:0:0:
256,192,102802,1,8,0:0:0:0:
256,192,102983,1,4,0:0:0:0:
256,192,103164,1,8,0:0:0:0:
256,192,103345,1,4,0:0:0:0:
256,192,103525,1,0,0:0:0:0:
256,192,103706,1,12,0:0:0:0:
256,192,103887,1,0,0:0:0:0:
256,192,104068,1,12,0:0:0:0:
256,192,104248,1,0,0:0:0:0:
256,192,104429,1,12,0:0:0:0:
256,192,104610,1,0,0:0:0:0:
256,192,104790,1,12,0:0:0:0:
256,192,104971,1,8,0:0:0:0:
256,192,105152,1,4,0:0:0:0:
256,192,105513,1,12,0:0:0:0:
256,192,105875,1,4,0:0:0:0:
256,192,106236,1,12,0:0:0:0:
256,192,106598,1,4,0:0:0:0:
256,192,106778,1,4,0:0:0:0:
256,192,106959,1,12,0:0:0:0:
256,192,107140,1,12,0:0:0:0:
256,192,107321,1,0,0:0:0:0:
256,192,107411,1,0,0:0:0:0:
256,192,107501,1,0,0:0:0:0:
256,192,107592,1,0,0:0:0:0:
256,192,107682,1,8,0:0:0:0:
256,192,107772,1,8,0:0:0:0:
256,192,107863,1,8,0:0:0:0:
256,192,107953,1,8,0:0:0:0:
256,192,108043,1,0,0:0:0:0:
256,192,108224,1,0,0:0:0:0:
256,192,108405,1,8,0:0:0:0:
256,192,108586,1,0,0:0:0:0:
256,192,108676,1,0,0:0:0:0:
256,192,108766,1,8,0:0:0:0:
256,192,108947,1,8,0:0:0:0:
256,192,109128,1,0,0:0:0:0:
256,192,109309,1,8,0:0:0:0:
256,192,109399,1,8,0:0:0:0:
256,192,109489,1,0,0:0:0:0:
256,192,109670,1,0,0:0:0:0:
256,192,109851,1,8,0:0:0:0:
256,192,110031,1,0,0:0:0:0:
256,192,110122,1,0,0:0:0:0:
256,192,110212,1,8,0:0:0:0:
256,192,110393,1,8,0:0:0:0:
256,192,110483,1,8,0:0:0:0:
256,192,110574,1,0,0:0:0:0:
256,192,110664,1,8,0:0:0:0:
256,192,110754,1,0,0:0:0:0:
256,192,110935,1,4,0:0:0:0:
256,192,111477,1,8,0:0:0:0:
256,192,112019,1,8,0:0:0:0:
