osu file format v12

[General]
AudioFilename: Mario Paint (Time Regression Mix).mp3
AudioLeadIn: 500
PreviewTime: 1520
Countdown: 0
SampleSet: None
StackLeniency: 0.7
Mode: 0
LetterboxInBreaks: 0

[Editor]
Bookmarks: 13907,84769,134702
DistanceSpacing: 1
BeatDivisor: 4
GridSize: 4

[Metadata]
Title:Mario Paint (Time Regression Mix)
TitleUnicode:Mario Paint (Time Regression Mix)
Artist:ueotan
ArtistUnicode:ueotan
Creator:Kanda Kaname
Version:AR10
Source:mario
Tags:mario paint time mix arrenge jump
BeatmapID:280515
BeatmapSetID:106702

[Difficulty]
HPDrainRate:7
CircleSize:2
OverallDifficulty:8
ApproachRate:10
SliderMultiplier:2.2
SliderTickRate:1

[Events]
//Background and Video events
0,0,"img_1183623_27755136_0.jpg",0,0
//Break Periods
2,55712,59908
//Storyboard Layer 0 (Background)
//Storyboard Layer 1 (Fail)
//Storyboard Layer 2 (Pass)
//Storyboard Layer 3 (Foreground)
//Storyboard Sound Samples
//Background Colour Transformations
3,100,0,0,0

[TimingPoints]
1519,387.096774193548,4,1,1,100,1,0
7518,-100,4,1,1,30,0,0
7567,-100,4,1,1,100,0,0
12357,-100,4,1,1,60,0,0
13906,-100,4,2,1,100,0,1
13954,-100,4,2,1,100,0,0
25712,-100,4,1,1,100,0,0
26293,-100,4,2,1,100,0,1
26341,-100,4,1,1,100,0,0
32486,-100,4,2,1,100,0,0
32535,-100,4,1,1,100,0,0
48744,-100,4,1,1,30,0,0
50293,-100,4,2,1,100,0,0
50341,-100,4,1,1,100,0,0
54164,-100,4,2,1,100,0,0
60358,387.096774193548,4,1,1,100,1,0
60358,-100,4,1,1,100,0,0
72769,387.096774193548,4,1,1,100,1,0
72769,-100,4,2,1,100,0,1
72817,-100,4,1,1,100,0,0
84744,387.096774193548,4,1,1,100,1,0
100616,-100,4,2,1,100,0,0
100665,-100,4,1,1,100,0,0
106423,-100,4,2,1,100,0,0
106471,-100,4,1,1,100,0,0
106832,387.096774193548,4,1,1,100,1,0
111477,-100,4,1,1,30,0,0
112638,-100,4,1,1,100,0,0
118831,-100,4,2,1,100,0,0
118880,-100,4,1,1,100,0,0
118928,-100,4,1,1,10,0,0
118977,-100,4,1,1,100,0,0
127057,-100,4,1,1,30,0,0
128509,-100,4,1,1,100,0,0
129767,-100,4,1,1,30,0,0
131219,-100,4,1,1,100,0,0
132380,-100,4,1,1,30,0,0
134702,-100,4,2,1,100,0,0

[HitObjects]
284,72,1519,2,0,P|392:88|448:176,1,220,0|8,0:0|0:0,0:0:0:0:
280,176,2293,2,0,P|200:240|184:352,1,220,0|8,0:0|0:0,0:0:0:0:
280,276,3067,5,0,0:0:0:0:
152,148,3454,1,8,0:0:0:0:
344,116,3841,1,0,0:0:0:0:
224,336,4228,1,8,0:0:0:0:
228,68,4615,6,0,P|260:144|328:188,1,165,0|0,0:0|0:0,0:0:0:0:
352,192,5002,1,8,0:0:0:0:
288,248,5196,1,0,0:0:0:0:
216,184,5389,2,0,L|164:164,2,55,0|0|0,0:0|0:0|0:0,0:0:0:0:
216,184,5777,1,8,0:0:0:0:
140,52,6164,6,0,P|92:84|60:124,1,110,4|0,0:0|0:0,0:0:0:0:
59,124,6551,1,4,0:0:0:0:
132,192,6938,1,4,0:0:0:0:
104,312,7131,1,4,0:0:0:0:
104,312,7228,1,4,0:0:0:0:
104,312,7325,2,0,P|156:296|160:336,1,110,12|0,0:0|0:0,0:0:0:0:
216,220,7712,5,0,0:0:0:0:
216,220,8099,2,0,L|320:184,2,110,8|0|0,0:0|0:0|0:0,0:0:0:0:
340,264,8873,1,8,0:0:0:0:
340,264,9067,2,0,P|392:240|444:240,1,110
388,168,9454,2,0,P|336:144|284:144,1,110,0|8,0:0|0:0,0:0:0:0:
256,112,9744,1,0,0:0:0:0:
256,112,9841,2,0,L|236:60,2,55
152,104,10228,6,0,P|164:160|156:212,1,110,0|8,0:0|0:0,0:0:0:0:
64,232,10615,2,0,P|120:232|168:256,2,110,0|0|0,0:0|0:0|0:0,0:0:0:0:
64,264,11099,1,0,0:0:0:0:
64,264,11196,2,0,L|40:316,2,55,8|0|0,0:0|0:0|0:0,0:0:0:0:
152,304,11583,6,0,P|232:336|300:304,1,165
299,304,11970,2,0,L|304:192,1,110,8|0,0:0|0:0,0:0:0:0:
236,88,12357,1,4,0:0:0:0:
236,88,12744,1,4,0:0:0:0:
360,44,12938,1,4,0:0:0:0:
360,44,13035,1,4,0:0:0:0:
360,44,13131,1,4,0:0:0:0:
456,244,13325,1,4,0:0:0:0:
480,260,13906,6,0,P|384:308|280:280,1,220,0|2,0:0|0:0,0:0:0:0:
216,216,14486,1,0,0:0:0:0:
256,92,14680,2,0,L|160:144,1,110
120,268,15067,2,0,L|216:216,1,110,2|0,0:0|0:0,0:0:0:0:
264,300,15454,5,0,0:0:0:0:
304,300,15551,1,0,0:0:0:0:
340,284,15648,1,0,0:0:0:0:
364,256,15744,1,0,0:0:0:0:
376,216,15841,2,0,P|392:164|432:128,1,110,2|0,0:0|0:0,0:0:0:0:
336,204,16228,2,0,P|284:216|228:208,2,110,0|0|2,0:0|0:0|0:0,0:0:0:0:
408,132,16809,1,0,0:0:0:0:
336,204,17002,5,0,0:0:0:0:
408,132,17196,2,0,P|424:80|460:40,1,110,0|2,0:0|0:0,0:0:0:0:
376,112,17583,2,0,P|332:80|276:72,1,110
196,100,17970,1,0,0:0:0:0:
268,184,18164,1,2,0:0:0:0:
304,72,18357,1,0,0:0:0:0:
184,200,18551,5,0,0:0:0:0:
336,272,18744,1,0,0:0:0:0:
324,152,18938,1,2,0:0:0:0:
244,332,19131,1,0,0:0:0:0:
156,284,19325,6,0,L|112:316,1,55
116,208,19518,2,0,L|72:176,1,55
152,128,19712,2,0,L|108:160,1,55,2|0,0:0|0:0,0:0:0:0:
112,52,19906,2,0,L|68:20,1,55
152,128,20099,6,0,P|236:132|288:188,1,165
292,216,20486,1,2,0:0:0:0:
320,120,20680,1,0,0:0:0:0:
416,92,20873,1,0,0:0:0:0:
444,120,20970,1,0,0:0:0:0:
460,160,21067,1,0,0:0:0:0:
440,256,21260,2,0,L|396:296,2,55,2|0|0,0:0|0:0|0:0,0:0:0:0:
364,192,21648,5,0,0:0:0:0:
240,168,21841,1,0,0:0:0:0:
324,72,22035,1,2,0:0:0:0:
364,192,22228,1,0,0:0:0:0:
304,272,22422,2,0,P|252:296|200:304,1,110
168,192,22809,2,0,P|220:168|272:160,1,110,2|0,0:0|0:0,0:0:0:0:
304,272,23196,6,0,P|376:232|400:156,1,165
368,136,23583,1,2,0:0:0:0:
368,136,23680,1,0,0:0:0:0:
368,136,23777,2,0,L|276:76,2,110
288,168,24357,2,0,P|260:224|248:272,1,110,2|0,0:0|0:0,0:0:0:0:
368,136,24744,5,0,0:0:0:0:
339,176,24841,1,0,0:0:0:0:
298,203,24938,1,0,0:0:0:0:
250,214,25035,1,0,0:0:0:0:
208,204,25131,2,0,P|168:172|112:164,1,110,2|0,0:0|0:0,0:0:0:0:
172,232,25518,2,0,P|132:272|104:320,1,110,0|4,0:0|0:0,0:0:0:0:
92,344,25809,1,4,0:0:0:0:
92,343,25906,1,4,0:0:0:0:
244,352,26099,1,4,0:0:0:0:
320,264,26293,6,0,P|328:212|320:156,1,110,4|0,0:0|0:0,0:0:0:0:
192,264,26680,2,0,P|184:212|192:156,1,110,8|0,0:0|0:0,0:0:0:0:
179,3,27067,2,0,P|149:46|131:100,1,110
294,59,27454,2,0,P|278:109|246:156,1,110,8|0,0:0|0:0,0:0:0:0:
116,176,27841,5,0,0:0:0:0:
116,176,27938,1,0,0:0:0:0:
116,176,28035,2,0,L|164:208,2,55,0|0|8,0:0|0:0|0:0,0:0:0:0:
40,232,28422,1,0,0:0:0:0:
36,108,28615,2,0,P|100:60|184:48,1,165
216,52,29002,1,8,0:0:0:0:
216,52,29196,1,0,0:0:0:0:
256,140,29389,6,0,P|240:200|232:248,1,110
352,212,29777,1,8,0:0:0:0:
256,140,29970,1,0,0:0:0:0:
352,212,30164,6,0,P|412:228|460:236,1,110
468,124,30551,1,8,0:0:0:0:
352,212,30744,1,0,0:0:0:0:
340,76,30938,6,0,P|280:60|232:52,1,110,4|0,0:0|0:0,0:0:0:0:
148,60,31325,1,4,0:0:0:0:
148,60,31712,1,4,0:0:0:0:
88,180,31906,1,0,0:0:0:0:
88,180,32002,1,0,0:0:0:0:
88,180,32099,2,0,P|56:264|148:252,1,220,8|4,0:0|0:0,0:0:0:0:
252,232,32680,5,4,0:0:0:0:
332,160,32873,2,0,P|372:204|392:252,1,110,8|0,0:0|0:0,0:0:0:0:
312,296,33260,1,0,0:0:0:0:
236,216,33454,1,0,0:0:0:0:
232,96,33648,2,0,P|288:80|340:84,1,110,8|0,0:0|0:0,0:0:0:0:
308,188,34035,5,0,0:0:0:0:
236,256,34228,1,0,0:0:0:0:
140,264,34422,1,8,0:0:0:0:
64,208,34615,1,0,0:0:0:0:
148,128,34809,2,0,L|108:88,3,55
208,100,35196,2,0,L|236:52,3,55,8|0|0|0,0:0|0:0|0:0|0:0,0:0:0:0:
268,124,35583,5,0,0:0:0:0:
268,124,35970,1,8,0:0:0:0:
280,224,36164,1,0,0:0:0:0:
372,272,36357,2,0,L|404:316,1,55
280,224,36551,2,0,L|248:180,1,55
256,324,36744,2,0,L|288:368,1,55,8|0,0:0|0:0,0:0:0:0:
164,276,36938,2,0,L|132:232,1,55
116,204,37131,5,4,0:0:0:0:
256,168,37518,1,4,0:0:0:0:
256,168,37615,1,4,0:0:0:0:
256,168,37712,1,4,0:0:0:0:
312,28,37906,1,4,0:0:0:0:
32,96,38099,1,4,0:0:0:0:
172,120,38293,5,8,0:0:0:0:
172,208,38486,1,0,0:0:0:0:
172,296,38680,1,0,0:0:0:0:
380,189,39067,5,8,0:0:0:0:
305,142,39260,1,0,0:0:0:0:
230,96,39454,1,0,0:0:0:0:
360,292,39841,6,0,P|280:312|204:288,1,165,8|0,0:0|0:0,0:0:0:0:
188,252,40228,2,0,P|128:248|88:276,2,110,0|0|8,0:0|0:0|0:0,0:0:0:0:
188,152,40809,1,0,0:0:0:0:
192,48,41002,6,0,P|272:72|328:132,1,165
296,160,41389,2,0,P|352:168|404:160,1,110,8|0,0:0|0:0,0:0:0:0:
472,104,41777,1,0,0:0:0:0:
468,228,41970,1,0,0:0:0:0:
440,260,42067,1,0,0:0:0:0:
408,280,42164,1,8,0:0:0:0:
316,320,42357,6,0,L|320:376,2,55
320,216,42744,2,0,P|264:216|220:244,1,110,0|8,0:0|0:0,0:0:0:0:
208,336,43131,2,0,P|156:316|120:276,1,110,0|4,0:0|0:0,0:0:0:0:
120,276,43712,5,4,0:0:0:0:
264,136,44099,1,4,0:0:0:0:
148,80,44293,1,4,0:0:0:0:
148,80,44389,1,4,0:0:0:0:
148,80,44486,1,4,0:0:0:0:
148,80,44873,6,0,P|216:40|300:48,1,165
328,60,45260,1,8,0:0:0:0:
368,160,45454,1,0,0:0:0:0:
268,264,45648,2,0,P|256:212|252:156,1,110
352,252,46035,2,0,P|364:304|368:360,1,110,8|0,0:0|0:0,0:0:0:0:
240,232,46422,6,0,P|192:256|136:264,2,110,0|0|8,0:0|0:0|0:0,0:0:0:0:
244,192,46906,2,0,P|304:140|388:128,1,165
386,127,47293,1,0,0:0:0:0:
386,127,47389,1,0,0:0:0:0:
386,127,47486,1,0,0:0:0:0:
386,127,47583,2,0,L|308:52,1,110,8|0,0:0|0:0,0:0:0:0:
188,40,47970,6,0,L|220:84,1,55
152,136,48164,2,0,L|184:180,1,55
108,232,48357,2,0,L|140:276,1,55,8|0,0:0|0:0,0:0:0:0:
68,332,48551,2,0,L|100:376,1,55
256,192,48744,12,0,49906,0:0:0:0:
256,192,50293,5,4,0:0:0:0:
256,192,50680,1,4,0:0:0:0:
376,100,50873,5,4,0:0:0:0:
108,152,51067,2,0,P|72:196|28:224,1,110,4|0,0:0|0:0,0:0:0:0:
136,268,51454,1,8,0:0:0:0:
136,268,51551,1,0,0:0:0:0:
136,268,51648,1,0,0:0:0:0:
276,296,51841,6,0,P|356:284|428:324,1,165
424,288,52228,2,0,P|448:216|432:128,1,165,8|0,0:0|0:0,0:0:0:0:
416,100,52615,1,4,0:0:0:0:
416,100,53002,1,12,0:0:0:0:
260,56,53389,1,4,0:0:0:0:
124,192,53583,1,4,0:0:0:0:
124,192,53680,1,4,0:0:0:0:
124,192,53777,1,4,0:0:0:0:
124,192,54164,5,4,0:0:0:0:
220,72,60358,6,0,P|276:72|328:88,1,110
312,132,60649,2,0,P|296:160|292:184,3,55,0|8|0|0,0:0|0:0|0:0|0:0,0:0:0:0:
392,212,61132,5,0,0:0:0:0:
320,276,61326,1,0,0:0:0:0:
424,328,61519,1,8,0:0:0:0:
424,328,61906,6,0,P|336:328|268:360,1,165
276,320,62293,2,0,P|236:248|168:200,1,165,8|0,0:0|0:0,0:0:0:0:
144,188,62680,1,0,0:0:0:0:
196,104,62873,1,0,0:0:0:0:
80,92,63067,1,8,0:0:0:0:
264,204,63260,1,0,0:0:0:0:
280,44,63454,5,0,0:0:0:0:
280,44,63551,1,0,0:0:0:0:
280,44,63648,2,0,P|328:20|384:16,2,110,0|8|0,0:0|0:0|0:0,0:0:0:0:
308,80,64131,1,0,0:0:0:0:
308,80,64228,2,0,P|276:120|264:176,1,110
224,180,64519,2,0,P|200:192|172:200,1,55,0|8,0:0|0:0,0:0:0:0:
252,216,64712,2,0,P|232:232|208:248,1,55
296,228,64906,2,0,P|284:256|268:276,3,55
340,228,65293,5,0,0:0:0:0:
440,312,65389,1,8,0:0:0:0:
460,188,65583,1,0,0:0:0:0:
460,176,65970,5,4,0:0:0:0:
438,309,66164,1,12,0:0:0:0:
331,218,66357,1,4,0:0:0:0:
376,100,66551,6,0,P|296:88|220:120,1,165
192,104,66938,2,0,L|140:84,2,55,8|0|0,0:0|0:0|0:0,0:0:0:0:
208,200,67325,2,0,P|160:236|112:248,1,110
264,260,67712,2,0,P|312:224|360:212,1,110,8|0,0:0|0:0,0:0:0:0:
208,188,68099,6,0,P|164:120|92:80,1,165
64,72,68486,1,8,0:0:0:0:
100,172,68680,1,0,0:0:0:0:
100,172,69067,5,4,0:0:0:0:
240,232,69260,1,12,0:0:0:0:
148,296,69454,1,4,0:0:0:0:
148,296,69648,6,0,L|244:348,1,110
344,328,70035,2,0,P|340:224|268:136,2,220,8|0|8,0:0|0:0|0:0,0:0:0:0:
384,300,70906,1,0,0:0:0:0:
384,300,71002,1,0,0:0:0:0:
384,300,71099,1,0,0:0:0:0:
384,300,71196,2,0,P|416:256|460:224,1,110
440,188,71486,1,0,0:0:0:0:
420,152,71583,2,0,P|464:120|496:76,1,110,8|0,0:0|0:0,0:0:0:0:
420,152,72164,5,4,0:0:0:0:
268,64,72357,1,12,0:0:0:0:
268,232,72551,1,4,0:0:0:0:
268,232,72768,6,0,L|160:216,1,110,4|0,0:0|0:0,0:0:0:0:
196,172,73155,2,0,L|88:188,1,110,8|0,0:0|0:0,0:0:0:0:
268,280,73542,2,0,L|376:296,1,110
340,340,73930,2,0,L|448:324,1,110,8|0,0:0|0:0,0:0:0:0:
348,212,74317,6,0,P|288:120|184:96,1,220,0|8,0:0|0:0,0:0:0:0:
152,112,74801,1,0,0:0:0:0:
124,88,74897,2,0,P|84:124|80:180,1,110
156,212,75284,5,4,0:0:0:0:
176,228,75478,1,12,0:0:0:0:
196,244,75672,1,4,0:0:0:0:
284,260,75865,6,0,P|228:348|124:340,2,220,0|8|0,0:0|0:0|0:0,0:0:0:0:
276,256,76736,1,0,0:0:0:0:
268,252,76833,1,0,0:0:0:0:
260,248,76930,1,0,0:0:0:0:
252,244,77026,2,0,P|276:200|320:160,1,110,8|0,0:0|0:0,0:0:0:0:
272,100,77413,5,4,0:0:0:0:
416,228,77801,1,12,0:0:0:0:
272,100,78188,1,4,0:0:0:0:
360,68,78381,2,0,L|372:124,1,55
312,176,78575,2,0,L|300:232,2,55,8|0|0,0:0|0:0|0:0,0:0:0:0:
272,100,78962,6,0,P|192:92|124:44,1,165
124,44,79349,2,0,L|84:148,1,110,8|0,0:0|0:0,0:0:0:0:
72,236,79736,1,0,0:0:0:0:
192,276,79930,1,0,0:0:0:0:
120,192,80123,1,8,0:0:0:0:
192,320,80317,1,0,0:0:0:0:
168,164,80510,6,0,P|224:172|268:200,1,110
304,224,80801,1,0,0:0:0:0:
336,256,80897,2,0,P|392:168|360:64,1,220,8|0,0:0|0:0,0:0:0:0:
359,63,81478,1,0,0:0:0:0:
359,63,81672,2,0,L|252:40,1,110,8|0,0:0|0:0,0:0:0:0:
160,56,82059,5,0,0:0:0:0:
160,56,82446,2,0,P|184:164|172:272,2,220,8|0|8,0:0|0:0|0:0,0:0:0:0:
156,52,83317,1,0,0:0:0:0:
152,48,83413,1,0,0:0:0:0:
148,44,83510,1,0,0:0:0:0:
140,36,83607,6,0,L|88:60,3,55,4|0|0|0,0:0|0:0|0:0|0:0,0:0:0:0:
88,104,83994,2,0,L|32:88,3,55,12|0|0|0,0:0|0:0|0:0|0:0,0:0:0:0:
16,132,84381,1,4,0:0:0:0:
136,192,84575,1,4,0:0:0:0:
64,280,84744,5,8,0:0:0:0:
64,280,84938,1,0,0:0:0:0:
204,344,85131,1,0,0:0:0:0:
204,344,85518,6,0,P|236:304|288:280,2,110,8|0|0,0:0|0:0|0:0,0:0:0:0:
308,152,86293,6,0,P|276:192|224:216,2,110,8|0|0,0:0|0:0|0:0,0:0:0:0:
324,308,87067,6,0,P|412:248|428:140,1,220,8|0,0:0|0:0,0:0:0:0:
392,160,87551,1,0,0:0:0:0:
392,160,87648,1,0,0:0:0:0:
392,160,87744,1,0,0:0:0:0:
392,160,87841,2,0,L|296:104,1,110,8|0,0:0|0:0,0:0:0:0:
280,208,88228,6,0,P|204:224|136:176,1,165
172,168,88615,2,0,P|248:92|356:80,1,220,8|0,0:0|0:0,0:0:0:0:
355,79,89389,1,8,0:0:0:0:
464,232,89777,5,4,0:0:0:0:
408,316,90164,1,4,0:0:0:0:
464,232,90551,1,4,0:0:0:0:
268,268,90744,1,4,0:0:0:0:
268,268,90841,1,4,0:0:0:0:
268,268,90938,1,4,0:0:0:0:
212,164,91131,6,0,L|160:180,1,55,0|0,0:0|0:0,0:0:0:0:
200,120,91325,2,0,P|268:68|344:60,1,165
376,64,91712,1,8,0:0:0:0:
372,200,91906,1,0,0:0:0:0:
372,200,92099,2,0,P|424:184|468:148,2,110,0|0|8,0:0|0:0|0:0,0:0:0:0:
372,236,92680,1,0,0:0:0:0:
372,236,92873,2,0,P|320:252|276:288,2,110,0|0|8,0:0|0:0|0:0,0:0:0:0:
316,208,93357,5,0,0:0:0:0:
316,208,93454,1,0,0:0:0:0:
316,208,93551,1,0,0:0:0:0:
316,208,93648,2,0,L|224:148,1,110
224,148,94035,2,0,L|188:252,1,110,8|0,0:0|0:0,0:0:0:0:
256,192,94325,12,0,95583,0:0:0:0:
240,128,95970,6,0,P|144:160|168:256,2,220,0|8|0,0:0|0:0|0:0,0:0:0:0:
276,232,97131,1,8,0:0:0:0:
408,200,97325,1,0,0:0:0:0:
256,192,97422,12,0,98680,0:0:0:0:
296,64,99067,5,0,0:0:0:0:
330,81,99164,1,0,0:0:0:0:
360,104,99260,1,0,0:0:0:0:
386,133,99357,1,0,0:0:0:0:
405,166,99454,1,8,0:0:0:0:
418,203,99551,1,0,0:0:0:0:
423,241,99648,1,0,0:0:0:0:
421,279,99744,1,0,0:0:0:0:
380,304,99841,6,0,P|328:316|272:316,1,110
156,248,100228,2,0,P|208:236|264:236,1,110,8|0,0:0|0:0,0:0:0:0:
360,240,100614,6,0,P|356:160|292:112,1,165,4|0,0:0|0:0,0:0:0:0:
252,104,101001,2,0,L|180:188,1,110,8|0,0:0|0:0,0:0:0:0:
84,144,101388,2,0,P|52:216|72:296,1,165
72,296,101776,2,0,L|176:256,1,110,8|0,0:0|0:0,0:0:0:0:
276,216,102164,5,0,0:0:0:0:
302,235,102260,1,0,0:0:0:0:
323,260,102357,1,0,0:0:0:0:
338,290,102454,1,0,0:0:0:0:
352,320,102551,2,0,P|396:248|460:200,1,165,8|0,0:0|0:0,0:0:0:0:
488,184,102938,1,0,0:0:0:0:
388,124,103131,5,4,0:0:0:0:
368,104,103325,1,12,0:0:0:0:
348,84,103518,1,4,0:0:0:0:
280,144,103712,6,0,P|228:152|172:144,1,110
88,116,104099,1,8,0:0:0:0:
280,144,104293,2,0,P|228:228|116:248,1,220
200,324,104873,1,8,0:0:0:0:
112,240,105067,1,0,0:0:0:0:
208,136,105260,5,4,0:0:0:0:
404,140,105648,1,4,0:0:0:0:
208,136,106035,1,4,0:0:0:0:
304,232,106228,2,4,L|324:284,2,55
144,36,106832,6,0,P|92:68|64:108,1,110
152,172,107219,2,0,P|120:224|80:252,1,110,8|0,0:0|0:0,0:0:0:0:
152,164,107606,2,0,P|236:180|284:240,1,165
296,268,107993,1,8,0:0:0:0:
296,268,108187,1,0,0:0:0:0:
328,160,108381,5,0,0:0:0:0:
336,120,108478,1,0,0:0:0:0:
360,88,108573,1,0,0:0:0:0:
432,220,108767,1,8,0:0:0:0:
424,260,108864,1,0,0:0:0:0:
400,292,108961,1,0,0:0:0:0:
316,352,109155,6,0,P|264:356|212:332,1,110
116,244,109542,2,0,P|168:248|220:224,1,110,8|0,0:0|0:0,0:0:0:0:
116,128,109928,1,0,0:0:0:0:
116,128,110315,6,0,P|148:84|196:56,1,110,8|0,0:0|0:0,0:0:0:0:
220,88,110606,1,0,0:0:0:0:
220,88,110702,2,0,L|272:108,1,55
236,188,110896,2,0,L|184:208,1,55
304,232,111091,2,0,L|356:252,1,55,8|0,0:0|0:0,0:0:0:0:
320,332,111284,2,0,L|268:352,1,55
256,192,111477,12,0,112445,0:0:0:0:
256,104,112638,5,8,0:0:0:0:
216,312,112832,1,0,0:0:0:0:
376,192,113025,1,0,0:0:0:0:
216,312,113413,5,8,0:0:0:0:
64,184,113607,1,0,0:0:0:0:
256,160,113799,1,0,0:0:0:0:
256,160,114186,2,0,P|316:68|416:76,2,220,8|0|8,0:0|0:0|0:0,0:0:0:0:
256,160,115057,1,0,0:0:0:0:
256,160,115154,1,0,0:0:0:0:
256,160,115251,1,0,0:0:0:0:
256,160,115348,6,0,L|332:240,1,110
168,264,115736,2,0,L|280:264,1,110,8|0,0:0|0:0,0:0:0:0:
288,132,116123,2,0,P|392:100|452:180,1,220,0|8,0:0|0:0,0:0:0:0:
356,220,116702,1,0,0:0:0:0:
288,132,116897,2,0,P|244:160|192:184,1,110
40,160,117284,2,0,P|84:132|136:108,1,110,8|0,0:0|0:0,0:0:0:0:
136,107,117671,5,4,0:0:0:0:
260,276,118058,1,4,0:0:0:0:
428,156,118445,1,4,0:0:0:0:
428,156,118639,2,0,L|384:124,1,55,4|0,0:0|0:0,0:0:0:0:
428,256,118832,2,0,L|472:224,1,55,4|0,0:0|0:0,0:0:0:0:
284,200,119219,6,0,P|184:220|76:180,1,220,0|8,0:0|0:0,0:0:0:0:
72,136,119703,1,0,0:0:0:0:
96,96,119800,2,0,P|148:72|200:76,1,110
304,124,120187,1,0,0:0:0:0:
384,216,120380,6,0,P|352:264|308:292,1,110,8|0,0:0|0:0,0:0:0:0:
280,260,120671,1,0,0:0:0:0:
256,224,120768,2,0,P|208:256|180:300,2,110,0|0|8,0:0|0:0|0:0,0:0:0:0:
304,124,121348,2,0,P|246:124|198:146,2,110
400,176,121929,5,8,0:0:0:0:
304,124,122122,1,0,0:0:0:0:
224,236,122316,5,0,0:0:0:0:
176,46,122510,1,0,0:0:0:0:
326,171,122703,1,8,0:0:0:0:
131,158,122897,1,0,0:0:0:0:
297,54,123090,1,0,0:0:0:0:
326,171,123284,6,0,P|272:180|220:164,2,110,0|8|0,0:0|0:0|0:0,0:0:0:0:
324,268,123864,2,0,P|378:259|430:275,1,110
188,268,124251,2,0,P|134:259|82:275,1,110,8|0,0:0|0:0,0:0:0:0:
144,360,124639,5,0,0:0:0:0:
256,336,124832,1,0,0:0:0:0:
344,260,125025,1,8,0:0:0:0:
368,148,125219,1,0,0:0:0:0:
256,184,125412,6,0,P|200:176|148:160,1,110
244,72,125800,1,8,0:0:0:0:
244,72,125897,1,0,0:0:0:0:
244,72,125993,1,0,0:0:0:0:
356,36,126186,5,0,0:0:0:0:
392,60,126283,1,0,0:0:0:0:
421,93,126380,1,0,0:0:0:0:
443,131,126477,1,0,0:0:0:0:
454,173,126574,1,8,0:0:0:0:
456,217,126670,1,0,0:0:0:0:
447,260,126767,2,0,P|424:316|388:348,1,110
256,192,127057,12,0,128315,0:0:0:0:
384,184,128509,6,0,L|280:148,1,110
284,248,128896,2,0,L|180:284,1,110,8|0,0:0|0:0,0:0:0:0:
240,104,129283,2,0,P|144:100|148:200,1,220,0|8,0:0|0:0,0:0:0:0:
256,192,129767,12,0,131025,0:0:0:0:
240,104,131219,5,0,0:0:0:0:
360,188,131412,1,0,0:0:0:0:
304,268,131606,2,0,L|248:256,1,55,0|0,0:0|0:0,0:0:0:0:
244,336,131799,2,0,L|188:348,1,55
164,268,131993,2,0,L|108:256,1,55
104,336,132186,2,0,L|48:348,1,55
256,192,132380,12,0,133928,0:0:0:0:
256,192,134702,5,4,0:0:0:0:
