osu file format v14

[General]
AudioFilename: #0D_D-NORMAL.mp3
AudioLeadIn: 1500
PreviewTime: 38321
Countdown: 0
SampleSet: Normal
StackLeniency: 0.7
Mode: 3
LetterboxInBreaks: 0
SpecialStyle: 0
WidescreenStoryboard: 0

[Editor]
DistanceSpacing: 1
BeatDivisor: 4
GridSize: 16
TimelineZoom: 1

[Metadata]
Title:Mario Paint (Time Regression Mix for BMS)
TitleUnicode:Mario Paint (Time Regression Mix for BMS)
Artist:ueotan
ArtistUnicode:ueotan
Creator:Fullerene-
Version:D-NORMAL
Source:BMS
Tags:stepmania delay ice cream sandwich ics drace
BeatmapID:659239
BeatmapSetID:292994

[Difficulty]
HPDrainRate:8
CircleSize:4
OverallDifficulty:5.5
ApproachRate:9
SliderMultiplier:1.4
SliderTickRate:1

[Events]
//Background and Video events
0,0,"#bga.png",0,0
//Break Periods
//Storyboard Layer 0 (Background)
//Storyboard Layer 1 (Fail)
//Storyboard Layer 2 (Pass)
//Storyboard Layer 3 (Foreground)
//Storyboard Sound Samples

[TimingPoints]
1543,387.0968,4,1,0,15,1,0
1543,-100,4,1,0,15,0,0

[HitObjects]
64,192,1543,5,0,0:0:0:0:
320,192,1543,1,0,0:0:0:0:
448,192,1543,1,0,0:0:0:0:
192,192,1736,1,0,0:0:0:0:
64,192,1930,1,0,0:0:0:0:
320,192,1930,1,0,0:0:0:0:
192,192,2123,1,0,0:0:0:0:
64,192,2317,1,0,0:0:0:0:
320,192,2317,1,0,0:0:0:0:
448,192,2317,1,0,0:0:0:0:
192,192,2511,1,0,0:0:0:0:
64,192,2704,1,0,0:0:0:0:
448,192,2704,1,0,0:0:0:0:
192,192,2898,1,0,0:0:0:0:
64,192,3091,1,0,0:0:0:0:
320,192,3091,1,0,0:0:0:0:
448,192,3091,1,0,0:0:0:0:
192,192,3285,1,0,0:0:0:0:
64,192,3478,1,0,0:0:0:0:
320,192,3478,1,0,0:0:0:0:
192,192,3672,1,0,0:0:0:0:
64,192,3865,1,0,0:0:0:0:
320,192,3865,1,0,0:0:0:0:
448,192,3865,1,0,0:0:0:0:
192,192,4059,1,0,0:0:0:0:
64,192,4253,1,0,0:0:0:0:
448,192,4253,1,0,0:0:0:0:
192,192,4446,1,0,0:0:0:0:
64,192,4640,1,0,0:0:0:0:
320,192,4640,1,0,0:0:0:0:
448,192,4640,1,0,0:0:0:0:
192,192,4833,1,0,0:0:0:0:
64,192,5027,1,0,0:0:0:0:
320,192,5027,1,0,0:0:0:0:
192,192,5220,1,0,0:0:0:0:
448,192,5220,1,0,0:0:0:0:
64,192,5414,1,0,0:0:0:0:
192,192,5414,1,0,0:0:0:0:
320,192,5414,1,0,0:0:0:0:
192,192,5607,1,0,0:0:0:0:
448,192,5607,1,0,0:0:0:0:
64,192,5801,1,0,0:0:0:0:
320,192,5801,1,0,0:0:0:0:
192,192,5994,1,0,0:0:0:0:
448,192,5994,1,0,0:0:0:0:
64,192,6188,1,0,0:0:0:0:
320,192,6188,1,0,0:0:0:0:
448,192,6188,1,0,0:0:0:0:
192,192,6382,1,0,0:0:0:0:
320,192,6382,1,0,0:0:0:0:
64,192,6575,1,0,0:0:0:0:
448,192,6575,1,0,0:0:0:0:
192,192,6769,1,0,0:0:0:0:
64,192,6962,1,0,0:0:0:0:
192,192,6962,1,0,0:0:0:0:
320,192,6962,1,0,0:0:0:0:
448,192,6962,1,0,0:0:0:0:
320,192,7156,1,0,0:0:0:0:
448,192,7156,1,0,0:0:0:0:
320,192,7253,1,0,0:0:0:0:
448,192,7253,1,0,0:0:0:0:
64,192,7349,1,0,0:0:0:0:
192,192,7349,1,0,0:0:0:0:
320,192,7349,1,0,0:0:0:0:
448,192,7349,1,0,0:0:0:0:
64,192,7543,1,0,0:0:0:0:
192,192,7543,1,0,0:0:0:0:
320,192,7591,1,0,0:0:0:0:
448,192,7591,1,0,0:0:0:0:
64,192,7640,1,0,0:0:0:0:
192,192,7640,1,0,0:0:0:0:
320,192,7688,1,0,0:0:0:0:
448,192,7688,1,0,0:0:0:0:
64,192,7736,1,0,0:0:0:0:
192,192,7736,1,0,0:0:0:0:
320,192,8123,1,0,0:0:0:0:
448,192,8123,1,0,0:0:0:0:
64,192,8511,1,0,0:0:0:0:
192,192,8511,1,0,0:0:0:0:
320,192,8898,1,0,0:0:0:0:
448,192,8898,1,0,0:0:0:0:
64,192,9285,1,0,0:0:0:0:
192,192,9285,1,0,0:0:0:0:
320,192,9672,1,0,0:0:0:0:
448,192,9672,1,0,0:0:0:0:
64,192,10059,1,0,0:0:0:0:
192,192,10059,1,0,0:0:0:0:
320,192,10446,1,0,0:0:0:0:
448,192,10446,1,0,0:0:0:0:
64,192,10640,1,0,0:0:0:0:
192,192,10640,1,0,0:0:0:0:
64,192,10833,1,0,0:0:0:0:
192,192,10833,1,0,0:0:0:0:
320,192,11220,1,0,0:0:0:0:
448,192,11220,1,0,0:0:0:0:
64,192,11607,1,0,0:0:0:0:
192,192,11607,1,0,0:0:0:0:
320,192,11994,1,0,0:0:0:0:
448,192,11994,1,0,0:0:0:0:
64,192,12382,1,0,0:0:0:0:
192,192,12382,1,0,0:0:0:0:
320,192,12382,1,0,0:0:0:0:
448,192,12382,1,0,0:0:0:0:
64,192,12769,1,0,0:0:0:0:
192,192,12769,1,0,0:0:0:0:
320,192,12769,1,0,0:0:0:0:
448,192,12769,1,0,0:0:0:0:
64,192,13059,1,0,0:0:0:0:
192,192,13059,1,0,0:0:0:0:
320,192,13059,1,0,0:0:0:0:
448,192,13059,1,0,0:0:0:0:
64,192,13156,1,0,0:0:0:0:
192,192,13156,1,0,0:0:0:0:
320,192,13156,1,0,0:0:0:0:
448,192,13156,1,0,0:0:0:0:
64,192,13349,1,0,0:0:0:0:
192,192,13349,1,0,0:0:0:0:
320,192,13349,1,0,0:0:0:0:
448,192,13349,1,0,0:0:0:0:
64,192,13930,1,0,0:0:0:0:
320,192,13930,1,0,0:0:0:0:
448,192,13930,1,0,0:0:0:0:
192,192,13994,1,0,0:0:0:0:
448,192,14059,1,0,0:0:0:0:
320,192,14123,1,0,0:0:0:0:
64,192,14188,1,0,0:0:0:0:
192,192,14253,1,0,0:0:0:0:
320,192,14317,1,0,0:0:0:0:
448,192,14317,1,0,0:0:0:0:
192,192,14382,1,0,0:0:0:0:
320,192,14446,1,0,0:0:0:0:
448,192,14511,1,0,0:0:0:0:
64,192,14575,1,0,0:0:0:0:
192,192,14640,1,0,0:0:0:0:
320,192,14704,1,0,0:0:0:0:
448,192,14704,1,0,0:0:0:0:
192,192,14769,1,0,0:0:0:0:
64,192,14833,1,0,0:0:0:0:
320,192,14898,1,0,0:0:0:0:
192,192,14962,1,0,0:0:0:0:
448,192,15027,1,0,0:0:0:0:
64,192,15091,1,0,0:0:0:0:
320,192,15091,1,0,0:0:0:0:
192,192,15156,1,0,0:0:0:0:
320,192,15220,1,0,0:0:0:0:
192,192,15285,1,0,0:0:0:0:
64,192,15349,1,0,0:0:0:0:
320,192,15414,1,0,0:0:0:0:
192,192,15478,1,0,0:0:0:0:
448,192,15478,1,0,0:0:0:0:
64,192,15543,1,0,0:0:0:0:
320,192,15607,1,0,0:0:0:0:
64,192,15672,1,0,0:0:0:0:
448,192,15672,1,0,0:0:0:0:
192,192,15736,1,0,0:0:0:0:
448,192,15801,1,0,0:0:0:0:
64,192,15865,1,0,0:0:0:0:
320,192,15865,1,0,0:0:0:0:
192,192,15930,1,0,0:0:0:0:
448,192,15994,1,0,0:0:0:0:
192,192,16059,1,0,0:0:0:0:
320,192,16059,1,0,0:0:0:0:
64,192,16123,1,0,0:0:0:0:
448,192,16188,1,0,0:0:0:0:
320,192,16253,1,0,0:0:0:0:
192,192,16317,1,0,0:0:0:0:
64,192,16382,1,0,0:0:0:0:
320,192,16446,1,0,0:0:0:0:
448,192,16446,1,0,0:0:0:0:
64,192,16511,1,0,0:0:0:0:
192,192,16575,1,0,0:0:0:0:
320,192,16640,1,0,0:0:0:0:
448,192,16640,1,0,0:0:0:0:
64,192,16704,1,0,0:0:0:0:
192,192,16769,1,0,0:0:0:0:
320,192,16833,1,0,0:0:0:0:
448,192,16833,1,0,0:0:0:0:
192,192,16898,1,0,0:0:0:0:
64,192,16962,1,0,0:0:0:0:
320,192,17027,1,0,0:0:0:0:
448,192,17027,1,0,0:0:0:0:
192,192,17091,1,0,0:0:0:0:
64,192,17156,1,0,0:0:0:0:
192,192,17220,1,0,0:0:0:0:
320,192,17220,1,0,0:0:0:0:
448,192,17285,1,0,0:0:0:0:
320,192,17349,1,0,0:0:0:0:
64,192,17414,1,0,0:0:0:0:
192,192,17414,1,0,0:0:0:0:
448,192,17478,1,0,0:0:0:0:
320,192,17543,1,0,0:0:0:0:
64,192,17607,1,0,0:0:0:0:
192,192,17607,1,0,0:0:0:0:
320,192,17672,1,0,0:0:0:0:
192,192,17736,1,0,0:0:0:0:
64,192,17801,1,0,0:0:0:0:
320,192,17865,1,0,0:0:0:0:
192,192,17930,1,0,0:0:0:0:
64,192,17994,1,0,0:0:0:0:
448,192,17994,1,0,0:0:0:0:
192,192,18059,1,0,0:0:0:0:
320,192,18123,1,0,0:0:0:0:
64,192,18188,1,0,0:0:0:0:
448,192,18188,1,0,0:0:0:0:
192,192,18253,1,0,0:0:0:0:
320,192,18317,1,0,0:0:0:0:
64,192,18382,1,0,0:0:0:0:
192,192,18382,1,0,0:0:0:0:
320,192,18446,1,0,0:0:0:0:
448,192,18511,1,0,0:0:0:0:
64,192,18575,1,0,0:0:0:0:
192,192,18575,1,0,0:0:0:0:
320,192,18640,1,0,0:0:0:0:
64,192,18704,1,0,0:0:0:0:
192,192,18769,1,0,0:0:0:0:
448,192,18769,1,0,0:0:0:0:
320,192,18833,1,0,0:0:0:0:
192,192,18898,1,0,0:0:0:0:
320,192,18962,1,0,0:0:0:0:
448,192,18962,1,0,0:0:0:0:
64,192,19027,1,0,0:0:0:0:
448,192,19091,1,0,0:0:0:0:
192,192,19156,1,0,0:0:0:0:
320,192,19156,1,0,0:0:0:0:
64,192,19220,1,0,0:0:0:0:
192,192,19285,1,0,0:0:0:0:
320,192,19349,1,0,0:0:0:0:
448,192,19414,1,0,0:0:0:0:
64,192,19478,1,0,0:0:0:0:
192,192,19543,1,0,0:0:0:0:
320,192,19543,1,0,0:0:0:0:
448,192,19607,1,0,0:0:0:0:
64,192,19672,1,0,0:0:0:0:
192,192,19736,1,0,0:0:0:0:
320,192,19736,1,0,0:0:0:0:
448,192,19801,1,0,0:0:0:0:
64,192,19865,1,0,0:0:0:0:
320,192,19930,1,0,0:0:0:0:
448,192,19930,1,0,0:0:0:0:
64,192,19978,1,0,0:0:0:0:
192,192,19978,1,0,0:0:0:0:
320,192,20027,1,0,0:0:0:0:
448,192,20027,1,0,0:0:0:0:
64,192,20075,1,0,0:0:0:0:
192,192,20075,1,0,0:0:0:0:
320,192,20123,1,0,0:0:0:0:
448,192,20123,1,0,0:0:0:0:
64,192,20188,1,0,0:0:0:0:
192,192,20253,1,0,0:0:0:0:
320,192,20317,1,0,0:0:0:0:
192,192,20382,1,0,0:0:0:0:
64,192,20446,1,0,0:0:0:0:
320,192,20511,1,0,0:0:0:0:
448,192,20511,1,0,0:0:0:0:
64,192,20575,1,0,0:0:0:0:
448,192,20640,1,0,0:0:0:0:
320,192,20704,1,0,0:0:0:0:
192,192,20769,1,0,0:0:0:0:
64,192,20833,1,0,0:0:0:0:
320,192,20898,1,0,0:0:0:0:
448,192,20898,1,0,0:0:0:0:
64,192,20962,1,0,0:0:0:0:
192,192,21027,1,0,0:0:0:0:
448,192,21091,1,0,0:0:0:0:
64,192,21156,1,0,0:0:0:0:
320,192,21220,1,0,0:0:0:0:
192,192,21285,1,0,0:0:0:0:
448,192,21285,1,0,0:0:0:0:
64,192,21349,1,0,0:0:0:0:
448,192,21414,1,0,0:0:0:0:
320,192,21478,1,0,0:0:0:0:
192,192,21543,1,0,0:0:0:0:
448,192,21607,1,0,0:0:0:0:
64,192,21672,1,0,0:0:0:0:
320,192,21672,1,0,0:0:0:0:
192,192,21736,1,0,0:0:0:0:
448,192,21801,1,0,0:0:0:0:
192,192,21865,1,0,0:0:0:0:
320,192,21865,1,0,0:0:0:0:
64,192,21930,1,0,0:0:0:0:
320,192,21994,1,0,0:0:0:0:
192,192,22059,1,0,0:0:0:0:
448,192,22059,1,0,0:0:0:0:
64,192,22123,1,0,0:0:0:0:
320,192,22188,1,0,0:0:0:0:
64,192,22253,1,0,0:0:0:0:
448,192,22253,1,0,0:0:0:0:
192,192,22317,1,0,0:0:0:0:
320,192,22382,1,0,0:0:0:0:
448,192,22446,1,0,0:0:0:0:
64,192,22511,1,0,0:0:0:0:
192,192,22575,1,0,0:0:0:0:
320,192,22640,1,0,0:0:0:0:
448,192,22640,1,0,0:0:0:0:
192,192,22704,1,0,0:0:0:0:
64,192,22769,1,0,0:0:0:0:
320,192,22833,1,0,0:0:0:0:
448,192,22833,1,0,0:0:0:0:
192,192,22898,1,0,0:0:0:0:
64,192,22962,1,0,0:0:0:0:
320,192,23027,1,0,0:0:0:0:
448,192,23027,1,0,0:0:0:0:
64,192,23091,1,0,0:0:0:0:
192,192,23156,1,0,0:0:0:0:
320,192,23220,1,0,0:0:0:0:
448,192,23220,1,0,0:0:0:0:
64,192,23285,1,0,0:0:0:0:
192,192,23349,1,0,0:0:0:0:
64,192,23414,1,0,0:0:0:0:
448,192,23414,1,0,0:0:0:0:
320,192,23478,1,0,0:0:0:0:
448,192,23543,1,0,0:0:0:0:
64,192,23607,1,0,0:0:0:0:
192,192,23607,1,0,0:0:0:0:
320,192,23672,1,0,0:0:0:0:
448,192,23736,1,0,0:0:0:0:
64,192,23801,1,0,0:0:0:0:
192,192,23801,1,0,0:0:0:0:
448,192,23865,1,0,0:0:0:0:
320,192,23930,1,0,0:0:0:0:
192,192,23994,1,0,0:0:0:0:
448,192,24059,1,0,0:0:0:0:
64,192,24123,1,0,0:0:0:0:
192,192,24188,1,0,0:0:0:0:
320,192,24188,1,0,0:0:0:0:
64,192,24253,1,0,0:0:0:0:
448,192,24317,1,0,0:0:0:0:
192,192,24382,1,0,0:0:0:0:
320,192,24382,1,0,0:0:0:0:
64,192,24446,1,0,0:0:0:0:
320,192,24511,1,0,0:0:0:0:
64,192,24575,1,0,0:0:0:0:
192,192,24575,1,0,0:0:0:0:
448,192,24640,1,0,0:0:0:0:
320,192,24704,1,0,0:0:0:0:
64,192,24769,1,0,0:0:0:0:
192,192,24769,1,0,0:0:0:0:
448,192,24833,1,0,0:0:0:0:
192,192,24898,1,0,0:0:0:0:
64,192,24962,1,0,0:0:0:0:
320,192,24962,1,0,0:0:0:0:
448,192,25027,1,0,0:0:0:0:
64,192,25091,1,0,0:0:0:0:
320,192,25156,1,0,0:0:0:0:
448,192,25156,1,0,0:0:0:0:
192,192,25220,1,0,0:0:0:0:
320,192,25285,1,0,0:0:0:0:
64,192,25349,1,0,0:0:0:0:
448,192,25349,1,0,0:0:0:0:
192,192,25414,1,0,0:0:0:0:
64,192,25478,1,0,0:0:0:0:
448,192,25543,1,0,0:0:0:0:
192,192,25607,1,0,0:0:0:0:
320,192,25672,1,0,0:0:0:0:
64,192,25736,1,0,0:0:0:0:
448,192,25736,1,0,0:0:0:0:
192,192,25801,1,0,0:0:0:0:
320,192,25833,1,0,0:0:0:0:
448,192,25865,1,0,0:0:0:0:
64,192,25930,1,0,0:0:0:0:
192,192,25930,1,0,0:0:0:0:
320,192,25994,1,0,0:0:0:0:
448,192,26059,1,0,0:0:0:0:
64,192,26123,1,0,0:0:0:0:
192,192,26123,1,0,0:0:0:0:
320,192,26172,1,0,0:0:0:0:
448,192,26172,1,0,0:0:0:0:
64,192,26220,1,0,0:0:0:0:
192,192,26220,1,0,0:0:0:0:
320,192,26269,1,0,0:0:0:0:
448,192,26269,1,0,0:0:0:0:
64,192,26317,1,0,0:0:0:0:
192,192,26317,1,0,0:0:0:0:
320,192,26382,1,0,0:0:0:0:
448,192,26446,1,0,0:0:0:0:
320,192,26511,1,0,0:0:0:0:
192,192,26575,1,0,0:0:0:0:
64,192,26640,1,0,0:0:0:0:
320,192,26704,1,0,0:0:0:0:
448,192,26704,1,0,0:0:0:0:
64,192,26769,1,0,0:0:0:0:
192,192,26833,1,0,0:0:0:0:
320,192,26898,1,0,0:0:0:0:
448,192,26962,1,0,0:0:0:0:
64,192,27027,1,0,0:0:0:0:
320,192,27091,1,0,0:0:0:0:
448,192,27091,1,0,0:0:0:0:
192,192,27156,1,0,0:0:0:0:
320,192,27220,1,0,0:0:0:0:
64,192,27285,1,0,0:0:0:0:
192,192,27349,1,0,0:0:0:0:
64,192,27414,1,0,0:0:0:0:
320,192,27478,1,0,0:0:0:0:
448,192,27478,1,0,0:0:0:0:
192,192,27543,1,0,0:0:0:0:
320,192,27607,1,0,0:0:0:0:
64,192,27672,1,0,0:0:0:0:
192,192,27736,1,0,0:0:0:0:
320,192,27801,1,0,0:0:0:0:
64,192,27865,1,0,0:0:0:0:
448,192,27865,1,0,0:0:0:0:
320,192,27930,1,0,0:0:0:0:
192,192,27994,1,0,0:0:0:0:
64,192,28059,1,0,0:0:0:0:
448,192,28123,1,0,0:0:0:0:
320,192,28188,1,0,0:0:0:0:
64,192,28253,1,0,0:0:0:0:
192,192,28253,1,0,0:0:0:0:
320,192,28317,1,0,0:0:0:0:
192,192,28382,1,0,0:0:0:0:
64,192,28446,1,0,0:0:0:0:
448,192,28446,1,0,0:0:0:0:
320,192,28511,1,0,0:0:0:0:
192,192,28575,1,0,0:0:0:0:
320,192,28640,1,0,0:0:0:0:
192,192,28704,1,0,0:0:0:0:
64,192,28769,1,0,0:0:0:0:
192,192,28833,1,0,0:0:0:0:
448,192,28833,1,0,0:0:0:0:
320,192,28898,1,0,0:0:0:0:
192,192,28962,1,0,0:0:0:0:
64,192,29027,1,0,0:0:0:0:
320,192,29027,1,0,0:0:0:0:
448,192,29091,1,0,0:0:0:0:
320,192,29156,1,0,0:0:0:0:
64,192,29220,1,0,0:0:0:0:
192,192,29220,1,0,0:0:0:0:
320,192,29285,1,0,0:0:0:0:
192,192,29349,1,0,0:0:0:0:
64,192,29414,1,0,0:0:0:0:
448,192,29414,1,0,0:0:0:0:
320,192,29478,1,0,0:0:0:0:
192,192,29543,1,0,0:0:0:0:
320,192,29607,1,0,0:0:0:0:
192,192,29672,1,0,0:0:0:0:
320,192,29736,1,0,0:0:0:0:
64,192,29801,1,0,0:0:0:0:
192,192,29801,1,0,0:0:0:0:
320,192,29865,1,0,0:0:0:0:
192,192,29930,1,0,0:0:0:0:
64,192,29994,1,0,0:0:0:0:
448,192,29994,1,0,0:0:0:0:
320,192,30059,1,0,0:0:0:0:
192,192,30123,1,0,0:0:0:0:
320,192,30188,1,0,0:0:0:0:
448,192,30253,1,0,0:0:0:0:
64,192,30317,1,0,0:0:0:0:
192,192,30382,1,0,0:0:0:0:
448,192,30382,1,0,0:0:0:0:
320,192,30446,1,0,0:0:0:0:
192,192,30511,1,0,0:0:0:0:
64,192,30575,1,0,0:0:0:0:
320,192,30575,1,0,0:0:0:0:
448,192,30640,1,0,0:0:0:0:
64,192,30704,1,0,0:0:0:0:
192,192,30769,1,0,0:0:0:0:
320,192,30769,1,0,0:0:0:0:
448,192,30833,1,0,0:0:0:0:
192,192,30898,1,0,0:0:0:0:
320,192,30962,1,0,0:0:0:0:
448,192,30962,1,0,0:0:0:0:
64,192,31027,1,0,0:0:0:0:
320,192,31091,1,0,0:0:0:0:
64,192,31156,1,0,0:0:0:0:
320,192,31220,1,0,0:0:0:0:
64,192,31285,1,0,0:0:0:0:
192,192,31349,1,0,0:0:0:0:
320,192,31349,1,0,0:0:0:0:
64,192,31414,1,0,0:0:0:0:
320,192,31478,1,0,0:0:0:0:
192,192,31543,1,0,0:0:0:0:
448,192,31543,1,0,0:0:0:0:
64,192,31607,1,0,0:0:0:0:
448,192,31672,1,0,0:0:0:0:
64,192,31736,1,0,0:0:0:0:
448,192,31801,1,0,0:0:0:0:
64,192,31865,1,0,0:0:0:0:
320,192,31930,1,0,0:0:0:0:
448,192,31930,1,0,0:0:0:0:
192,192,31994,1,0,0:0:0:0:
64,192,32027,1,0,0:0:0:0:
320,192,32059,1,0,0:0:0:0:
64,192,32123,1,0,0:0:0:0:
192,192,32123,1,0,0:0:0:0:
448,192,32188,1,0,0:0:0:0:
320,192,32253,1,0,0:0:0:0:
64,192,32317,1,0,0:0:0:0:
192,192,32317,1,0,0:0:0:0:
320,192,32382,1,0,0:0:0:0:
448,192,32446,1,0,0:0:0:0:
64,192,32511,1,0,0:0:0:0:
192,192,32511,1,0,0:0:0:0:
320,192,32575,1,0,0:0:0:0:
192,192,32640,1,0,0:0:0:0:
64,192,32704,1,0,0:0:0:0:
448,192,32704,1,0,0:0:0:0:
320,192,32769,1,0,0:0:0:0:
192,192,32833,1,0,0:0:0:0:
320,192,32898,1,0,0:0:0:0:
448,192,32898,1,0,0:0:0:0:
64,192,32962,1,0,0:0:0:0:
192,192,33027,1,0,0:0:0:0:
64,192,33091,1,0,0:0:0:0:
320,192,33091,1,0,0:0:0:0:
448,192,33156,1,0,0:0:0:0:
192,192,33220,1,0,0:0:0:0:
64,192,33285,1,0,0:0:0:0:
448,192,33285,1,0,0:0:0:0:
320,192,33349,1,0,0:0:0:0:
192,192,33414,1,0,0:0:0:0:
64,192,33478,1,0,0:0:0:0:
448,192,33543,1,0,0:0:0:0:
64,192,33607,1,0,0:0:0:0:
192,192,33672,1,0,0:0:0:0:
320,192,33672,1,0,0:0:0:0:
448,192,33736,1,0,0:0:0:0:
64,192,33801,1,0,0:0:0:0:
448,192,33865,1,0,0:0:0:0:
320,192,33930,1,0,0:0:0:0:
192,192,33994,1,0,0:0:0:0:
64,192,34059,1,0,0:0:0:0:
448,192,34059,1,0,0:0:0:0:
192,192,34123,1,0,0:0:0:0:
320,192,34188,1,0,0:0:0:0:
64,192,34253,1,0,0:0:0:0:
448,192,34317,1,0,0:0:0:0:
192,192,34382,1,0,0:0:0:0:
320,192,34446,1,0,0:0:0:0:
448,192,34446,1,0,0:0:0:0:
64,192,34511,1,0,0:0:0:0:
320,192,34575,1,0,0:0:0:0:
192,192,34640,1,0,0:0:0:0:
448,192,34704,1,0,0:0:0:0:
192,192,34769,1,0,0:0:0:0:
64,192,34833,1,0,0:0:0:0:
320,192,34833,1,0,0:0:0:0:
448,192,34898,1,0,0:0:0:0:
192,192,34962,1,0,0:0:0:0:
320,192,35027,1,0,0:0:0:0:
448,192,35027,1,0,0:0:0:0:
64,192,35091,1,0,0:0:0:0:
320,192,35156,1,0,0:0:0:0:
64,192,35220,1,0,0:0:0:0:
192,192,35220,1,0,0:0:0:0:
448,192,35285,1,0,0:0:0:0:
192,192,35349,1,0,0:0:0:0:
64,192,35414,1,0,0:0:0:0:
320,192,35414,1,0,0:0:0:0:
448,192,35478,1,0,0:0:0:0:
64,192,35543,1,0,0:0:0:0:
192,192,35607,1,0,0:0:0:0:
320,192,35607,1,0,0:0:0:0:
448,192,35672,1,0,0:0:0:0:
64,192,35736,1,0,0:0:0:0:
448,192,35801,1,0,0:0:0:0:
320,192,35865,1,0,0:0:0:0:
192,192,35930,1,0,0:0:0:0:
64,192,35994,1,0,0:0:0:0:
448,192,35994,1,0,0:0:0:0:
320,192,36059,1,0,0:0:0:0:
192,192,36123,1,0,0:0:0:0:
64,192,36188,1,0,0:0:0:0:
448,192,36188,1,0,0:0:0:0:
320,192,36253,1,0,0:0:0:0:
192,192,36317,1,0,0:0:0:0:
320,192,36382,1,0,0:0:0:0:
448,192,36446,1,0,0:0:0:0:
64,192,36511,1,0,0:0:0:0:
192,192,36575,1,0,0:0:0:0:
320,192,36575,1,0,0:0:0:0:
448,192,36640,1,0,0:0:0:0:
64,192,36704,1,0,0:0:0:0:
192,192,36769,1,0,0:0:0:0:
320,192,36769,1,0,0:0:0:0:
448,192,36833,1,0,0:0:0:0:
320,192,36898,1,0,0:0:0:0:
64,192,36962,1,0,0:0:0:0:
192,192,36962,1,0,0:0:0:0:
320,192,37027,1,0,0:0:0:0:
192,192,37091,1,0,0:0:0:0:
64,192,37156,1,0,0:0:0:0:
448,192,37156,1,0,0:0:0:0:
320,192,37220,1,0,0:0:0:0:
448,192,37285,1,0,0:0:0:0:
320,192,37349,1,0,0:0:0:0:
448,192,37414,1,0,0:0:0:0:
320,192,37478,1,0,0:0:0:0:
64,192,37543,1,0,0:0:0:0:
448,192,37543,1,0,0:0:0:0:
320,192,37607,1,0,0:0:0:0:
448,192,37672,1,0,0:0:0:0:
320,192,37736,1,0,0:0:0:0:
448,192,37801,1,0,0:0:0:0:
64,192,37833,1,0,0:0:0:0:
320,192,37865,1,0,0:0:0:0:
64,192,37930,1,0,0:0:0:0:
448,192,37930,1,0,0:0:0:0:
320,192,37994,1,0,0:0:0:0:
448,192,38059,1,0,0:0:0:0:
64,192,38123,1,0,0:0:0:0:
320,192,38123,1,0,0:0:0:0:
448,192,38188,1,0,0:0:0:0:
320,192,38253,1,0,0:0:0:0:
64,192,38317,1,0,0:0:0:0:
448,192,38317,1,0,0:0:0:0:
192,192,38382,1,0,0:0:0:0:
64,192,38446,1,0,0:0:0:0:
192,192,38511,1,0,0:0:0:0:
448,192,38511,1,0,0:0:0:0:
320,192,38575,1,0,0:0:0:0:
192,192,38640,1,0,0:0:0:0:
64,192,38704,1,0,0:0:0:0:
320,192,38704,1,0,0:0:0:0:
448,192,38769,1,0,0:0:0:0:
320,192,38833,1,0,0:0:0:0:
64,192,39091,1,0,0:0:0:0:
320,192,39091,1,0,0:0:0:0:
192,192,39156,1,0,0:0:0:0:
64,192,39220,1,0,0:0:0:0:
192,192,39285,1,0,0:0:0:0:
448,192,39285,1,0,0:0:0:0:
320,192,39349,1,0,0:0:0:0:
192,192,39414,1,0,0:0:0:0:
64,192,39478,1,0,0:0:0:0:
320,192,39478,1,0,0:0:0:0:
448,192,39543,1,0,0:0:0:0:
320,192,39607,1,0,0:0:0:0:
64,192,39865,1,0,0:0:0:0:
320,192,39865,1,0,0:0:0:0:
192,192,39930,1,0,0:0:0:0:
64,192,39994,1,0,0:0:0:0:
192,192,40059,1,0,0:0:0:0:
448,192,40059,1,0,0:0:0:0:
320,192,40123,1,0,0:0:0:0:
192,192,40188,1,0,0:0:0:0:
64,192,40253,1,0,0:0:0:0:
320,192,40253,1,0,0:0:0:0:
448,192,40317,1,0,0:0:0:0:
320,192,40382,1,0,0:0:0:0:
64,192,40640,1,0,0:0:0:0:
320,192,40640,1,0,0:0:0:0:
192,192,40704,1,0,0:0:0:0:
64,192,40769,1,0,0:0:0:0:
192,192,40833,1,0,0:0:0:0:
448,192,40833,1,0,0:0:0:0:
320,192,40898,1,0,0:0:0:0:
192,192,40962,1,0,0:0:0:0:
64,192,41027,1,0,0:0:0:0:
320,192,41027,1,0,0:0:0:0:
448,192,41091,1,0,0:0:0:0:
320,192,41156,1,0,0:0:0:0:
192,192,41220,1,0,0:0:0:0:
448,192,41220,1,0,0:0:0:0:
320,192,41285,1,0,0:0:0:0:
192,192,41349,1,0,0:0:0:0:
64,192,41414,1,0,0:0:0:0:
320,192,41414,1,0,0:0:0:0:
192,192,41478,1,0,0:0:0:0:
64,192,41543,1,0,0:0:0:0:
192,192,41607,1,0,0:0:0:0:
448,192,41607,1,0,0:0:0:0:
320,192,41672,1,0,0:0:0:0:
192,192,41736,1,0,0:0:0:0:
320,192,41801,1,0,0:0:0:0:
448,192,41801,1,0,0:0:0:0:
64,192,41865,1,0,0:0:0:0:
448,192,41930,1,0,0:0:0:0:
64,192,41994,1,0,0:0:0:0:
448,192,42059,1,0,0:0:0:0:
64,192,42123,1,0,0:0:0:0:
192,192,42188,1,0,0:0:0:0:
448,192,42188,1,0,0:0:0:0:
320,192,42253,1,0,0:0:0:0:
192,192,42317,1,0,0:0:0:0:
64,192,42382,1,0,0:0:0:0:
320,192,42382,1,0,0:0:0:0:
192,192,42446,1,0,0:0:0:0:
320,192,42511,1,0,0:0:0:0:
192,192,42575,1,0,0:0:0:0:
448,192,42575,1,0,0:0:0:0:
64,192,42640,1,0,0:0:0:0:
448,192,42704,1,0,0:0:0:0:
64,192,42769,1,0,0:0:0:0:
448,192,42833,1,0,0:0:0:0:
64,192,42898,1,0,0:0:0:0:
192,192,42962,1,0,0:0:0:0:
448,192,42962,1,0,0:0:0:0:
320,192,43027,1,0,0:0:0:0:
192,192,43091,1,0,0:0:0:0:
64,192,43156,1,0,0:0:0:0:
320,192,43156,1,0,0:0:0:0:
192,192,43220,1,0,0:0:0:0:
320,192,43285,1,0,0:0:0:0:
192,192,43349,1,0,0:0:0:0:
448,192,43349,1,0,0:0:0:0:
64,192,43414,1,0,0:0:0:0:
448,192,43478,1,0,0:0:0:0:
64,192,43543,1,0,0:0:0:0:
448,192,43607,1,0,0:0:0:0:
64,192,43672,1,0,0:0:0:0:
192,192,43736,1,0,0:0:0:0:
448,192,43736,1,0,0:0:0:0:
320,192,43801,1,0,0:0:0:0:
192,192,43865,1,0,0:0:0:0:
64,192,43930,1,0,0:0:0:0:
320,192,43930,1,0,0:0:0:0:
192,192,43994,1,0,0:0:0:0:
320,192,44059,1,0,0:0:0:0:
192,192,44123,1,0,0:0:0:0:
448,192,44123,1,0,0:0:0:0:
64,192,44188,1,0,0:0:0:0:
448,192,44253,1,0,0:0:0:0:
64,192,44317,1,0,0:0:0:0:
320,192,44317,1,0,0:0:0:0:
192,192,44382,1,0,0:0:0:0:
448,192,44414,1,0,0:0:0:0:
320,192,44446,1,0,0:0:0:0:
64,192,44511,1,0,0:0:0:0:
192,192,44511,1,0,0:0:0:0:
448,192,44575,1,0,0:0:0:0:
320,192,44640,1,0,0:0:0:0:
64,192,44704,1,0,0:0:0:0:
192,192,44704,1,0,0:0:0:0:
320,192,44753,1,0,0:0:0:0:
448,192,44753,1,0,0:0:0:0:
64,192,44801,1,0,0:0:0:0:
192,192,44801,1,0,0:0:0:0:
320,192,44849,1,0,0:0:0:0:
448,192,44849,1,0,0:0:0:0:
64,192,44898,1,0,0:0:0:0:
192,192,44898,1,0,0:0:0:0:
320,192,44962,1,0,0:0:0:0:
448,192,45027,1,0,0:0:0:0:
64,192,45285,1,0,0:0:0:0:
320,192,45285,1,0,0:0:0:0:
192,192,45349,1,0,0:0:0:0:
64,192,45414,1,0,0:0:0:0:
192,192,45478,1,0,0:0:0:0:
448,192,45478,1,0,0:0:0:0:
320,192,45543,1,0,0:0:0:0:
192,192,45607,1,0,0:0:0:0:
64,192,45672,1,0,0:0:0:0:
320,192,45672,1,0,0:0:0:0:
448,192,45736,1,0,0:0:0:0:
320,192,45801,1,0,0:0:0:0:
64,192,46059,1,0,0:0:0:0:
320,192,46059,1,0,0:0:0:0:
192,192,46123,1,0,0:0:0:0:
64,192,46188,1,0,0:0:0:0:
192,192,46253,1,0,0:0:0:0:
448,192,46253,1,0,0:0:0:0:
320,192,46317,1,0,0:0:0:0:
192,192,46382,1,0,0:0:0:0:
64,192,46446,1,0,0:0:0:0:
320,192,46446,1,0,0:0:0:0:
448,192,46511,1,0,0:0:0:0:
320,192,46575,1,0,0:0:0:0:
64,192,46833,1,0,0:0:0:0:
320,192,46833,1,0,0:0:0:0:
192,192,46898,1,0,0:0:0:0:
64,192,46962,1,0,0:0:0:0:
192,192,47027,1,0,0:0:0:0:
448,192,47027,1,0,0:0:0:0:
320,192,47091,1,0,0:0:0:0:
192,192,47156,1,0,0:0:0:0:
64,192,47220,1,0,0:0:0:0:
320,192,47220,1,0,0:0:0:0:
448,192,47285,1,0,0:0:0:0:
320,192,47349,1,0,0:0:0:0:
448,192,47414,1,0,0:0:0:0:
64,192,47446,1,0,0:0:0:0:
192,192,47478,1,0,0:0:0:0:
320,192,47511,1,0,0:0:0:0:
448,192,47543,1,0,0:0:0:0:
64,192,47575,1,0,0:0:0:0:
64,192,47801,1,0,0:0:0:0:
320,192,47801,1,0,0:0:0:0:
192,192,47865,1,0,0:0:0:0:
320,192,47930,1,0,0:0:0:0:
64,192,47994,1,0,0:0:0:0:
448,192,47994,1,0,0:0:0:0:
192,192,48059,1,0,0:0:0:0:
320,192,48123,1,0,0:0:0:0:
64,192,48188,1,0,0:0:0:0:
448,192,48188,1,0,0:0:0:0:
320,192,48253,1,0,0:0:0:0:
192,192,48317,1,0,0:0:0:0:
320,192,48382,1,0,0:0:0:0:
448,192,48382,1,0,0:0:0:0:
192,192,48446,1,0,0:0:0:0:
64,192,48511,1,0,0:0:0:0:
320,192,48575,1,0,0:0:0:0:
448,192,48575,1,0,0:0:0:0:
192,192,48640,1,0,0:0:0:0:
448,192,48704,1,0,0:0:0:0:
64,192,48769,1,0,0:0:0:0:
320,192,48769,1,0,0:0:0:0:
192,192,48833,1,0,0:0:0:0:
448,192,48898,1,0,0:0:0:0:
64,192,48962,1,0,0:0:0:0:
320,192,48962,1,0,0:0:0:0:
192,192,49027,1,0,0:0:0:0:
320,192,49091,1,0,0:0:0:0:
64,192,49156,1,0,0:0:0:0:
448,192,49156,1,0,0:0:0:0:
192,192,49220,1,0,0:0:0:0:
320,192,49285,1,0,0:0:0:0:
64,192,49349,1,0,0:0:0:0:
192,192,49349,1,0,0:0:0:0:
448,192,49349,1,0,0:0:0:0:
192,192,49543,1,0,0:0:0:0:
320,192,49543,1,0,0:0:0:0:
448,192,49736,1,0,0:0:0:0:
192,192,49930,1,0,0:0:0:0:
320,192,49930,1,0,0:0:0:0:
64,192,50123,1,0,0:0:0:0:
192,192,50317,1,0,0:0:0:0:
320,192,50317,1,0,0:0:0:0:
448,192,50511,1,0,0:0:0:0:
192,192,50704,1,0,0:0:0:0:
320,192,50704,1,0,0:0:0:0:
448,192,50769,1,0,0:0:0:0:
64,192,50833,1,0,0:0:0:0:
192,192,50898,1,0,0:0:0:0:
320,192,50898,1,0,0:0:0:0:
448,192,50962,1,0,0:0:0:0:
192,192,51027,1,0,0:0:0:0:
64,192,51091,1,0,0:0:0:0:
448,192,51091,1,0,0:0:0:0:
320,192,51156,1,0,0:0:0:0:
192,192,51220,1,0,0:0:0:0:
64,192,51285,1,0,0:0:0:0:
448,192,51285,1,0,0:0:0:0:
192,192,51349,1,0,0:0:0:0:
320,192,51414,1,0,0:0:0:0:
64,192,51478,1,0,0:0:0:0:
192,192,51478,1,0,0:0:0:0:
320,192,51543,1,0,0:0:0:0:
448,192,51607,1,0,0:0:0:0:
64,192,51672,1,0,0:0:0:0:
192,192,51672,1,0,0:0:0:0:
320,192,51736,1,0,0:0:0:0:
64,192,51801,1,0,0:0:0:0:
192,192,51865,1,0,0:0:0:0:
448,192,51865,1,0,0:0:0:0:
320,192,51930,1,0,0:0:0:0:
64,192,51994,1,0,0:0:0:0:
192,192,52059,1,0,0:0:0:0:
448,192,52059,1,0,0:0:0:0:
320,192,52124,1,0,0:0:0:0:
192,192,52188,1,0,0:0:0:0:
64,192,52253,1,0,0:0:0:0:
448,192,52253,1,0,0:0:0:0:
320,192,52317,1,0,0:0:0:0:
192,192,52382,1,0,0:0:0:0:
64,192,52446,1,0,0:0:0:0:
320,192,52446,1,0,0:0:0:0:
448,192,52446,1,0,0:0:0:0:
192,192,52640,1,0,0:0:0:0:
320,192,52640,1,0,0:0:0:0:
448,192,52640,1,0,0:0:0:0:
64,192,53027,1,0,0:0:0:0:
192,192,53027,1,0,0:0:0:0:
320,192,53027,1,0,0:0:0:0:
448,192,53123,1,0,0:0:0:0:
448,192,53220,1,0,0:0:0:0:
448,192,53317,1,0,0:0:0:0:
64,192,53414,1,0,0:0:0:0:
192,192,53414,1,0,0:0:0:0:
320,192,53414,1,0,0:0:0:0:
64,192,53607,1,0,0:0:0:0:
192,192,53607,1,0,0:0:0:0:
64,192,53704,1,0,0:0:0:0:
192,192,53704,1,0,0:0:0:0:
64,192,53801,1,0,0:0:0:0:
192,192,53801,1,0,0:0:0:0:
320,192,53801,1,0,0:0:0:0:
448,192,53801,1,0,0:0:0:0:
320,192,53994,1,0,0:0:0:0:
448,192,53994,1,0,0:0:0:0:
64,192,54043,1,0,0:0:0:0:
192,192,54043,1,0,0:0:0:0:
320,192,54091,1,0,0:0:0:0:
448,192,54091,1,0,0:0:0:0:
64,192,54140,1,0,0:0:0:0:
192,192,54140,1,0,0:0:0:0:
320,192,54188,1,0,0:0:0:0:
448,192,54188,1,0,0:0:0:0:
64,192,54253,1,0,0:0:0:0:
192,192,54317,1,0,0:0:0:0:
64,192,54382,1,0,0:0:0:0:
448,192,54446,1,0,0:0:0:0:
320,192,54511,1,0,0:0:0:0:
64,192,54575,1,0,0:0:0:0:
192,192,54575,1,0,0:0:0:0:
320,192,54640,1,0,0:0:0:0:
448,192,54704,1,0,0:0:0:0:
64,192,54769,1,0,0:0:0:0:
192,192,54833,1,0,0:0:0:0:
320,192,54898,1,0,0:0:0:0:
64,192,54962,1,0,0:0:0:0:
192,192,54962,1,0,0:0:0:0:
448,192,55027,1,0,0:0:0:0:
64,192,55091,1,0,0:0:0:0:
192,192,55156,1,0,0:0:0:0:
448,192,55220,1,0,0:0:0:0:
320,192,55285,1,0,0:0:0:0:
64,192,55349,1,0,0:0:0:0:
192,192,55349,1,0,0:0:0:0:
448,192,55414,1,0,0:0:0:0:
192,192,55478,1,0,0:0:0:0:
320,192,55543,1,0,0:0:0:0:
448,192,55607,1,0,0:0:0:0:
64,192,55672,1,0,0:0:0:0:
192,192,55736,1,0,0:0:0:0:
320,192,55736,1,0,0:0:0:0:
64,192,55801,1,0,0:0:0:0:
448,192,55865,1,0,0:0:0:0:
320,192,55930,1,0,0:0:0:0:
192,192,55994,1,0,0:0:0:0:
64,192,56059,1,0,0:0:0:0:
320,192,56123,1,0,0:0:0:0:
448,192,56123,1,0,0:0:0:0:
64,192,56188,1,0,0:0:0:0:
448,192,56253,1,0,0:0:0:0:
192,192,56317,1,0,0:0:0:0:
320,192,56317,1,0,0:0:0:0:
64,192,56382,1,0,0:0:0:0:
448,192,56446,1,0,0:0:0:0:
64,192,56511,1,0,0:0:0:0:
448,192,56575,1,0,0:0:0:0:
192,192,56640,1,0,0:0:0:0:
320,192,56704,1,0,0:0:0:0:
448,192,56704,1,0,0:0:0:0:
192,192,56769,1,0,0:0:0:0:
448,192,56833,1,0,0:0:0:0:
64,192,56898,1,0,0:0:0:0:
320,192,56898,1,0,0:0:0:0:
192,192,56962,1,0,0:0:0:0:
64,192,57027,1,0,0:0:0:0:
320,192,57091,1,0,0:0:0:0:
448,192,57091,1,0,0:0:0:0:
64,192,57156,1,0,0:0:0:0:
448,192,57220,1,0,0:0:0:0:
192,192,57285,1,0,0:0:0:0:
320,192,57285,1,0,0:0:0:0:
64,192,57349,1,0,0:0:0:0:
448,192,57414,1,0,0:0:0:0:
64,192,57478,1,0,0:0:0:0:
448,192,57543,1,0,0:0:0:0:
64,192,57607,1,0,0:0:0:0:
320,192,57672,1,0,0:0:0:0:
448,192,57672,1,0,0:0:0:0:
64,192,57736,1,0,0:0:0:0:
448,192,57801,1,0,0:0:0:0:
192,192,57865,1,0,0:0:0:0:
320,192,57865,1,0,0:0:0:0:
64,192,57930,1,0,0:0:0:0:
448,192,57994,1,0,0:0:0:0:
64,192,58059,1,0,0:0:0:0:
192,192,58124,1,0,0:0:0:0:
320,192,58188,1,0,0:0:0:0:
192,192,58253,1,0,0:0:0:0:
448,192,58253,1,0,0:0:0:0:
64,192,58317,1,0,0:0:0:0:
448,192,58382,1,0,0:0:0:0:
64,192,58446,1,0,0:0:0:0:
320,192,58446,1,0,0:0:0:0:
192,192,58511,1,0,0:0:0:0:
320,192,58575,1,0,0:0:0:0:
64,192,58640,1,0,0:0:0:0:
448,192,58640,1,0,0:0:0:0:
192,192,58704,1,0,0:0:0:0:
448,192,58769,1,0,0:0:0:0:
64,192,58833,1,0,0:0:0:0:
192,192,58833,1,0,0:0:0:0:
320,192,58898,1,0,0:0:0:0:
64,192,58962,1,0,0:0:0:0:
320,192,59027,1,0,0:0:0:0:
64,192,59091,1,0,0:0:0:0:
320,192,59156,1,0,0:0:0:0:
64,192,59220,1,0,0:0:0:0:
448,192,59220,1,0,0:0:0:0:
320,192,59285,1,0,0:0:0:0:
64,192,59349,1,0,0:0:0:0:
192,192,59414,1,0,0:0:0:0:
448,192,59414,1,0,0:0:0:0:
320,192,59478,1,0,0:0:0:0:
192,192,59543,1,0,0:0:0:0:
320,192,59607,1,0,0:0:0:0:
192,192,59672,1,0,0:0:0:0:
320,192,59736,1,0,0:0:0:0:
64,192,59801,1,0,0:0:0:0:
192,192,59801,1,0,0:0:0:0:
448,192,59865,1,0,0:0:0:0:
320,192,59898,1,0,0:0:0:0:
192,192,59930,1,0,0:0:0:0:
320,192,59994,1,0,0:0:0:0:
448,192,59994,1,0,0:0:0:0:
64,192,60059,1,0,0:0:0:0:
192,192,60123,1,0,0:0:0:0:
320,192,60188,1,0,0:0:0:0:
448,192,60188,1,0,0:0:0:0:
64,192,60253,1,0,0:0:0:0:
192,192,60317,1,0,0:0:0:0:
320,192,60382,1,0,0:0:0:0:
448,192,60382,1,0,0:0:0:0:
64,192,60446,1,0,0:0:0:0:
448,192,60511,1,0,0:0:0:0:
192,192,60575,1,0,0:0:0:0:
320,192,60575,1,0,0:0:0:0:
64,192,60640,1,0,0:0:0:0:
448,192,60704,1,0,0:0:0:0:
64,192,60769,1,0,0:0:0:0:
192,192,60769,1,0,0:0:0:0:
320,192,60833,1,0,0:0:0:0:
448,192,60898,1,0,0:0:0:0:
64,192,60962,1,0,0:0:0:0:
320,192,60962,1,0,0:0:0:0:
192,192,61027,1,0,0:0:0:0:
448,192,61091,1,0,0:0:0:0:
192,192,61156,1,0,0:0:0:0:
320,192,61156,1,0,0:0:0:0:
64,192,61220,1,0,0:0:0:0:
448,192,61285,1,0,0:0:0:0:
320,192,61349,1,0,0:0:0:0:
192,192,61414,1,0,0:0:0:0:
320,192,61478,1,0,0:0:0:0:
64,192,61543,1,0,0:0:0:0:
448,192,61543,1,0,0:0:0:0:
192,192,61607,1,0,0:0:0:0:
320,192,61672,1,0,0:0:0:0:
192,192,61736,1,0,0:0:0:0:
64,192,61801,1,0,0:0:0:0:
448,192,61865,1,0,0:0:0:0:
192,192,61930,1,0,0:0:0:0:
320,192,61930,1,0,0:0:0:0:
448,192,61994,1,0,0:0:0:0:
64,192,62059,1,0,0:0:0:0:
320,192,62123,1,0,0:0:0:0:
192,192,62188,1,0,0:0:0:0:
448,192,62253,1,0,0:0:0:0:
64,192,62317,1,0,0:0:0:0:
192,192,62317,1,0,0:0:0:0:
320,192,62382,1,0,0:0:0:0:
64,192,62446,1,0,0:0:0:0:
448,192,62511,1,0,0:0:0:0:
192,192,62575,1,0,0:0:0:0:
448,192,62640,1,0,0:0:0:0:
64,192,62704,1,0,0:0:0:0:
320,192,62704,1,0,0:0:0:0:
192,192,62769,1,0,0:0:0:0:
448,192,62833,1,0,0:0:0:0:
64,192,62898,1,0,0:0:0:0:
192,192,62898,1,0,0:0:0:0:
320,192,62962,1,0,0:0:0:0:
64,192,63027,1,0,0:0:0:0:
320,192,63091,1,0,0:0:0:0:
448,192,63091,1,0,0:0:0:0:
192,192,63156,1,0,0:0:0:0:
448,192,63220,1,0,0:0:0:0:
64,192,63285,1,0,0:0:0:0:
320,192,63285,1,0,0:0:0:0:
192,192,63349,1,0,0:0:0:0:
320,192,63414,1,0,0:0:0:0:
64,192,63478,1,0,0:0:0:0:
448,192,63478,1,0,0:0:0:0:
192,192,63543,1,0,0:0:0:0:
320,192,63607,1,0,0:0:0:0:
192,192,63672,1,0,0:0:0:0:
64,192,63736,1,0,0:0:0:0:
448,192,63801,1,0,0:0:0:0:
192,192,63865,1,0,0:0:0:0:
320,192,63865,1,0,0:0:0:0:
64,192,63930,1,0,0:0:0:0:
448,192,63994,1,0,0:0:0:0:
192,192,64059,1,0,0:0:0:0:
320,192,64059,1,0,0:0:0:0:
64,192,64124,1,0,0:0:0:0:
448,192,64188,1,0,0:0:0:0:
64,192,64253,1,0,0:0:0:0:
192,192,64317,1,0,0:0:0:0:
320,192,64382,1,0,0:0:0:0:
64,192,64446,1,0,0:0:0:0:
448,192,64446,1,0,0:0:0:0:
192,192,64511,1,0,0:0:0:0:
320,192,64575,1,0,0:0:0:0:
64,192,64640,1,0,0:0:0:0:
448,192,64640,1,0,0:0:0:0:
192,192,64704,1,0,0:0:0:0:
64,192,64769,1,0,0:0:0:0:
320,192,64833,1,0,0:0:0:0:
448,192,64833,1,0,0:0:0:0:
64,192,64898,1,0,0:0:0:0:
320,192,64962,1,0,0:0:0:0:
192,192,65027,1,0,0:0:0:0:
448,192,65027,1,0,0:0:0:0:
64,192,65091,1,0,0:0:0:0:
192,192,65156,1,0,0:0:0:0:
64,192,65220,1,0,0:0:0:0:
192,192,65285,1,0,0:0:0:0:
64,192,65349,1,0,0:0:0:0:
192,192,65414,1,0,0:0:0:0:
448,192,65414,1,0,0:0:0:0:
64,192,65478,1,0,0:0:0:0:
192,192,65543,1,0,0:0:0:0:
64,192,65607,1,0,0:0:0:0:
192,192,65672,1,0,0:0:0:0:
448,192,65704,1,0,0:0:0:0:
64,192,65736,1,0,0:0:0:0:
192,192,65801,1,0,0:0:0:0:
448,192,65801,1,0,0:0:0:0:
64,192,65865,1,0,0:0:0:0:
192,192,65930,1,0,0:0:0:0:
64,192,65994,1,0,0:0:0:0:
448,192,65994,1,0,0:0:0:0:
192,192,66059,1,0,0:0:0:0:
64,192,66123,1,0,0:0:0:0:
192,192,66188,1,0,0:0:0:0:
320,192,66188,1,0,0:0:0:0:
448,192,66253,1,0,0:0:0:0:
320,192,66317,1,0,0:0:0:0:
192,192,66382,1,0,0:0:0:0:
448,192,66382,1,0,0:0:0:0:
64,192,66446,1,0,0:0:0:0:
448,192,66511,1,0,0:0:0:0:
64,192,66575,1,0,0:0:0:0:
320,192,66575,1,0,0:0:0:0:
192,192,66640,1,0,0:0:0:0:
64,192,66704,1,0,0:0:0:0:
64,192,66962,1,0,0:0:0:0:
320,192,66962,1,0,0:0:0:0:
448,192,67027,1,0,0:0:0:0:
320,192,67091,1,0,0:0:0:0:
192,192,67156,1,0,0:0:0:0:
448,192,67156,1,0,0:0:0:0:
64,192,67220,1,0,0:0:0:0:
448,192,67285,1,0,0:0:0:0:
64,192,67349,1,0,0:0:0:0:
320,192,67349,1,0,0:0:0:0:
192,192,67414,1,0,0:0:0:0:
64,192,67478,1,0,0:0:0:0:
64,192,67736,1,0,0:0:0:0:
320,192,67736,1,0,0:0:0:0:
448,192,67801,1,0,0:0:0:0:
320,192,67865,1,0,0:0:0:0:
192,192,67930,1,0,0:0:0:0:
448,192,67930,1,0,0:0:0:0:
64,192,67994,1,0,0:0:0:0:
448,192,68059,1,0,0:0:0:0:
64,192,68124,1,0,0:0:0:0:
320,192,68124,1,0,0:0:0:0:
192,192,68188,1,0,0:0:0:0:
64,192,68253,1,0,0:0:0:0:
64,192,68511,1,0,0:0:0:0:
320,192,68511,1,0,0:0:0:0:
448,192,68575,1,0,0:0:0:0:
320,192,68640,1,0,0:0:0:0:
192,192,68704,1,0,0:0:0:0:
448,192,68704,1,0,0:0:0:0:
64,192,68769,1,0,0:0:0:0:
448,192,68833,1,0,0:0:0:0:
64,192,68898,1,0,0:0:0:0:
320,192,68898,1,0,0:0:0:0:
192,192,68962,1,0,0:0:0:0:
64,192,69027,1,0,0:0:0:0:
192,192,69091,1,0,0:0:0:0:
448,192,69091,1,0,0:0:0:0:
64,192,69156,1,0,0:0:0:0:
448,192,69220,1,0,0:0:0:0:
64,192,69285,1,0,0:0:0:0:
320,192,69285,1,0,0:0:0:0:
448,192,69349,1,0,0:0:0:0:
320,192,69414,1,0,0:0:0:0:
192,192,69478,1,0,0:0:0:0:
448,192,69478,1,0,0:0:0:0:
64,192,69543,1,0,0:0:0:0:
448,192,69607,1,0,0:0:0:0:
64,192,69672,1,0,0:0:0:0:
192,192,69672,1,0,0:0:0:0:
320,192,69736,1,0,0:0:0:0:
192,192,69801,1,0,0:0:0:0:
320,192,69865,1,0,0:0:0:0:
192,192,69930,1,0,0:0:0:0:
320,192,69994,1,0,0:0:0:0:
192,192,70059,1,0,0:0:0:0:
448,192,70059,1,0,0:0:0:0:
64,192,70124,1,0,0:0:0:0:
448,192,70188,1,0,0:0:0:0:
64,192,70253,1,0,0:0:0:0:
320,192,70253,1,0,0:0:0:0:
448,192,70317,1,0,0:0:0:0:
64,192,70382,1,0,0:0:0:0:
192,192,70446,1,0,0:0:0:0:
448,192,70446,1,0,0:0:0:0:
320,192,70511,1,0,0:0:0:0:
192,192,70575,1,0,0:0:0:0:
320,192,70640,1,0,0:0:0:0:
192,192,70704,1,0,0:0:0:0:
320,192,70769,1,0,0:0:0:0:
192,192,70833,1,0,0:0:0:0:
448,192,70833,1,0,0:0:0:0:
64,192,70898,1,0,0:0:0:0:
448,192,70962,1,0,0:0:0:0:
64,192,71027,1,0,0:0:0:0:
320,192,71027,1,0,0:0:0:0:
448,192,71091,1,0,0:0:0:0:
64,192,71156,1,0,0:0:0:0:
192,192,71220,1,0,0:0:0:0:
448,192,71220,1,0,0:0:0:0:
320,192,71285,1,0,0:0:0:0:
192,192,71349,1,0,0:0:0:0:
320,192,71414,1,0,0:0:0:0:
192,192,71478,1,0,0:0:0:0:
320,192,71543,1,0,0:0:0:0:
192,192,71607,1,0,0:0:0:0:
448,192,71607,1,0,0:0:0:0:
64,192,71672,1,0,0:0:0:0:
448,192,71736,1,0,0:0:0:0:
64,192,71801,1,0,0:0:0:0:
320,192,71801,1,0,0:0:0:0:
448,192,71865,1,0,0:0:0:0:
64,192,71930,1,0,0:0:0:0:
192,192,71994,1,0,0:0:0:0:
448,192,71994,1,0,0:0:0:0:
320,192,72059,1,0,0:0:0:0:
192,192,72123,1,0,0:0:0:0:
64,192,72188,1,0,0:0:0:0:
320,192,72188,1,0,0:0:0:0:
448,192,72253,1,0,0:0:0:0:
192,192,72285,1,0,0:0:0:0:
64,192,72317,1,0,0:0:0:0:
320,192,72382,1,0,0:0:0:0:
448,192,72382,1,0,0:0:0:0:
192,192,72446,1,0,0:0:0:0:
64,192,72511,1,0,0:0:0:0:
320,192,72575,1,0,0:0:0:0:
448,192,72575,1,0,0:0:0:0:
64,192,72624,1,0,0:0:0:0:
192,192,72624,1,0,0:0:0:0:
320,192,72672,1,0,0:0:0:0:
448,192,72672,1,0,0:0:0:0:
64,192,72720,1,0,0:0:0:0:
192,192,72720,1,0,0:0:0:0:
320,192,72769,1,0,0:0:0:0:
448,192,72769,1,0,0:0:0:0:
64,192,72833,1,0,0:0:0:0:
192,192,72898,1,0,0:0:0:0:
64,192,73156,1,0,0:0:0:0:
320,192,73156,1,0,0:0:0:0:
448,192,73220,1,0,0:0:0:0:
320,192,73285,1,0,0:0:0:0:
192,192,73349,1,0,0:0:0:0:
448,192,73349,1,0,0:0:0:0:
64,192,73414,1,0,0:0:0:0:
448,192,73478,1,0,0:0:0:0:
64,192,73543,1,0,0:0:0:0:
320,192,73543,1,0,0:0:0:0:
192,192,73607,1,0,0:0:0:0:
64,192,73672,1,0,0:0:0:0:
64,192,73930,1,0,0:0:0:0:
320,192,73930,1,0,0:0:0:0:
448,192,73994,1,0,0:0:0:0:
320,192,74059,1,0,0:0:0:0:
192,192,74124,1,0,0:0:0:0:
448,192,74124,1,0,0:0:0:0:
64,192,74188,1,0,0:0:0:0:
448,192,74253,1,0,0:0:0:0:
64,192,74317,1,0,0:0:0:0:
320,192,74317,1,0,0:0:0:0:
192,192,74382,1,0,0:0:0:0:
64,192,74446,1,0,0:0:0:0:
64,192,74704,1,0,0:0:0:0:
320,192,74704,1,0,0:0:0:0:
448,192,74769,1,0,0:0:0:0:
320,192,74833,1,0,0:0:0:0:
192,192,74898,1,0,0:0:0:0:
448,192,74898,1,0,0:0:0:0:
64,192,74962,1,0,0:0:0:0:
448,192,75027,1,0,0:0:0:0:
64,192,75091,1,0,0:0:0:0:
320,192,75091,1,0,0:0:0:0:
192,192,75156,1,0,0:0:0:0:
64,192,75220,1,0,0:0:0:0:
192,192,75285,1,0,0:0:0:0:
320,192,75317,1,0,0:0:0:0:
448,192,75349,1,0,0:0:0:0:
64,192,75382,1,0,0:0:0:0:
192,192,75414,1,0,0:0:0:0:
320,192,75446,1,0,0:0:0:0:
64,192,75672,1,0,0:0:0:0:
320,192,75672,1,0,0:0:0:0:
448,192,75736,1,0,0:0:0:0:
64,192,75801,1,0,0:0:0:0:
192,192,75865,1,0,0:0:0:0:
320,192,75865,1,0,0:0:0:0:
448,192,75930,1,0,0:0:0:0:
64,192,75994,1,0,0:0:0:0:
192,192,76059,1,0,0:0:0:0:
320,192,76059,1,0,0:0:0:0:
64,192,76124,1,0,0:0:0:0:
448,192,76188,1,0,0:0:0:0:
64,192,76253,1,0,0:0:0:0:
192,192,76253,1,0,0:0:0:0:
448,192,76317,1,0,0:0:0:0:
320,192,76382,1,0,0:0:0:0:
64,192,76446,1,0,0:0:0:0:
192,192,76446,1,0,0:0:0:0:
448,192,76511,1,0,0:0:0:0:
192,192,76575,1,0,0:0:0:0:
64,192,76640,1,0,0:0:0:0:
320,192,76640,1,0,0:0:0:0:
448,192,76704,1,0,0:0:0:0:
192,192,76769,1,0,0:0:0:0:
64,192,76833,1,0,0:0:0:0:
320,192,76833,1,0,0:0:0:0:
448,192,76898,1,0,0:0:0:0:
64,192,76962,1,0,0:0:0:0:
192,192,77027,1,0,0:0:0:0:
320,192,77027,1,0,0:0:0:0:
448,192,77091,1,0,0:0:0:0:
64,192,77156,1,0,0:0:0:0:
192,192,77220,1,0,0:0:0:0:
320,192,77220,1,0,0:0:0:0:
448,192,77220,1,0,0:0:0:0:
64,192,77414,1,0,0:0:0:0:
448,192,77414,1,0,0:0:0:0:
192,192,77607,1,0,0:0:0:0:
64,192,77801,1,0,0:0:0:0:
448,192,77801,1,0,0:0:0:0:
320,192,77994,1,0,0:0:0:0:
64,192,78188,1,0,0:0:0:0:
448,192,78188,1,0,0:0:0:0:
192,192,78382,1,0,0:0:0:0:
64,192,78575,1,0,0:0:0:0:
448,192,78575,1,0,0:0:0:0:
192,192,78640,1,0,0:0:0:0:
320,192,78704,1,0,0:0:0:0:
64,192,78769,1,0,0:0:0:0:
448,192,78769,1,0,0:0:0:0:
192,192,78833,1,0,0:0:0:0:
448,192,78898,1,0,0:0:0:0:
192,192,78962,1,0,0:0:0:0:
320,192,78962,1,0,0:0:0:0:
64,192,79027,1,0,0:0:0:0:
448,192,79091,1,0,0:0:0:0:
192,192,79156,1,0,0:0:0:0:
320,192,79156,1,0,0:0:0:0:
448,192,79220,1,0,0:0:0:0:
64,192,79285,1,0,0:0:0:0:
320,192,79349,1,0,0:0:0:0:
448,192,79349,1,0,0:0:0:0:
64,192,79414,1,0,0:0:0:0:
192,192,79478,1,0,0:0:0:0:
320,192,79543,1,0,0:0:0:0:
448,192,79543,1,0,0:0:0:0:
64,192,79607,1,0,0:0:0:0:
320,192,79672,1,0,0:0:0:0:
192,192,79736,1,0,0:0:0:0:
448,192,79736,1,0,0:0:0:0:
64,192,79801,1,0,0:0:0:0:
320,192,79865,1,0,0:0:0:0:
192,192,79930,1,0,0:0:0:0:
448,192,79930,1,0,0:0:0:0:
64,192,79994,1,0,0:0:0:0:
448,192,80059,1,0,0:0:0:0:
192,192,80124,1,0,0:0:0:0:
320,192,80124,1,0,0:0:0:0:
64,192,80188,1,0,0:0:0:0:
448,192,80253,1,0,0:0:0:0:
64,192,80317,1,0,0:0:0:0:
192,192,80317,1,0,0:0:0:0:
320,192,80317,1,0,0:0:0:0:
64,192,80511,1,0,0:0:0:0:
448,192,80511,1,0,0:0:0:0:
192,192,80865,1,0,0:0:0:0:
64,192,80898,1,0,0:0:0:0:
448,192,80898,1,0,0:0:0:0:
192,192,81091,1,0,0:0:0:0:
320,192,81091,1,0,0:0:0:0:
192,192,81188,1,0,0:0:0:0:
64,192,81285,1,0,0:0:0:0:
448,192,81285,1,0,0:0:0:0:
64,192,81478,1,0,0:0:0:0:
192,192,81478,1,0,0:0:0:0:
320,192,81511,1,0,0:0:0:0:
448,192,81543,1,0,0:0:0:0:
64,192,81575,1,0,0:0:0:0:
192,192,81607,1,0,0:0:0:0:
320,192,81640,1,0,0:0:0:0:
64,192,81865,1,0,0:0:0:0:
192,192,81865,1,0,0:0:0:0:
320,192,81930,1,0,0:0:0:0:
64,192,81994,1,0,0:0:0:0:
192,192,82059,1,0,0:0:0:0:
448,192,82059,1,0,0:0:0:0:
320,192,82124,1,0,0:0:0:0:
64,192,82188,1,0,0:0:0:0:
192,192,82253,1,0,0:0:0:0:
448,192,82253,1,0,0:0:0:0:
64,192,82317,1,0,0:0:0:0:
320,192,82382,1,0,0:0:0:0:
64,192,82446,1,0,0:0:0:0:
192,192,82446,1,0,0:0:0:0:
320,192,82511,1,0,0:0:0:0:
448,192,82575,1,0,0:0:0:0:
64,192,82640,1,0,0:0:0:0:
192,192,82640,1,0,0:0:0:0:
320,192,82704,1,0,0:0:0:0:
448,192,82769,1,0,0:0:0:0:
64,192,82833,1,0,0:0:0:0:
320,192,82833,1,0,0:0:0:0:
192,192,82898,1,0,0:0:0:0:
448,192,82962,1,0,0:0:0:0:
64,192,83027,1,0,0:0:0:0:
320,192,83027,1,0,0:0:0:0:
192,192,83091,1,0,0:0:0:0:
448,192,83156,1,0,0:0:0:0:
192,192,83220,1,0,0:0:0:0:
320,192,83220,1,0,0:0:0:0:
64,192,83285,1,0,0:0:0:0:
448,192,83349,1,0,0:0:0:0:
64,192,83414,1,0,0:0:0:0:
192,192,83414,1,0,0:0:0:0:
320,192,83414,1,0,0:0:0:0:
64,192,83607,1,0,0:0:0:0:
320,192,83607,1,0,0:0:0:0:
448,192,83607,1,0,0:0:0:0:
192,192,83801,1,0,0:0:0:0:
64,192,83994,1,0,0:0:0:0:
320,192,83994,1,0,0:0:0:0:
448,192,83994,1,0,0:0:0:0:
192,192,84188,1,0,0:0:0:0:
64,192,84382,1,0,0:0:0:0:
320,192,84382,1,0,0:0:0:0:
448,192,84382,1,0,0:0:0:0:
192,192,84478,1,0,0:0:0:0:
192,192,84575,1,0,0:0:0:0:
64,192,84769,1,0,0:0:0:0:
192,192,84769,1,0,0:0:0:0:
320,192,84769,1,0,0:0:0:0:
448,192,84833,1,0,0:0:0:0:
64,192,84898,1,0,0:0:0:0:
320,192,84962,1,0,0:0:0:0:
448,192,84962,1,0,0:0:0:0:
64,192,85027,1,0,0:0:0:0:
448,192,85091,1,0,0:0:0:0:
192,192,85156,1,0,0:0:0:0:
320,192,85156,1,0,0:0:0:0:
64,192,85220,1,0,0:0:0:0:
448,192,85285,1,0,0:0:0:0:
192,192,85349,1,0,0:0:0:0:
320,192,85349,1,0,0:0:0:0:
448,192,85414,1,0,0:0:0:0:
64,192,85478,1,0,0:0:0:0:
320,192,85543,1,0,0:0:0:0:
448,192,85543,1,0,0:0:0:0:
64,192,85607,1,0,0:0:0:0:
192,192,85672,1,0,0:0:0:0:
320,192,85736,1,0,0:0:0:0:
448,192,85736,1,0,0:0:0:0:
64,192,85801,1,0,0:0:0:0:
320,192,85865,1,0,0:0:0:0:
192,192,85930,1,0,0:0:0:0:
448,192,85930,1,0,0:0:0:0:
64,192,85994,1,0,0:0:0:0:
320,192,86059,1,0,0:0:0:0:
192,192,86124,1,0,0:0:0:0:
448,192,86124,1,0,0:0:0:0:
64,192,86188,1,0,0:0:0:0:
448,192,86253,1,0,0:0:0:0:
192,192,86317,1,0,0:0:0:0:
320,192,86317,1,0,0:0:0:0:
64,192,86382,1,0,0:0:0:0:
448,192,86446,1,0,0:0:0:0:
64,192,86511,1,0,0:0:0:0:
192,192,86511,1,0,0:0:0:0:
320,192,86511,1,0,0:0:0:0:
192,192,86704,1,0,0:0:0:0:
320,192,86704,1,0,0:0:0:0:
448,192,86704,1,0,0:0:0:0:
64,192,87091,1,0,0:0:0:0:
192,192,87091,1,0,0:0:0:0:
320,192,87091,1,0,0:0:0:0:
320,192,87285,1,0,0:0:0:0:
448,192,87285,1,0,0:0:0:0:
320,192,87382,1,0,0:0:0:0:
448,192,87382,1,0,0:0:0:0:
64,192,87478,1,0,0:0:0:0:
192,192,87478,1,0,0:0:0:0:
320,192,87478,1,0,0:0:0:0:
448,192,87478,1,0,0:0:0:0:
64,192,87865,1,0,0:0:0:0:
192,192,87865,1,0,0:0:0:0:
320,192,87865,1,0,0:0:0:0:
448,192,87865,1,0,0:0:0:0:
64,192,88059,1,0,0:0:0:0:
192,192,88059,1,0,0:0:0:0:
320,192,88107,1,0,0:0:0:0:
448,192,88107,1,0,0:0:0:0:
64,192,88156,1,0,0:0:0:0:
192,192,88156,1,0,0:0:0:0:
320,192,88204,1,0,0:0:0:0:
448,192,88204,1,0,0:0:0:0:
64,192,88253,1,0,0:0:0:0:
192,192,88253,1,0,0:0:0:0:
