osu file format v14

[General]
AudioFilename: #0D_D-ANOTHER.mp3
AudioLeadIn: 1500
PreviewTime: 38321
Countdown: 0
SampleSet: Normal
StackLeniency: 0.7
Mode: 3
LetterboxInBreaks: 0
SpecialStyle: 0
WidescreenStoryboard: 0

[Editor]
DistanceSpacing: 1
BeatDivisor: 4
GridSize: 16
TimelineZoom: 1

[Metadata]
Title:Mario Paint (Time Regression Mix for BMS)
TitleUnicode:Mario Paint (Time Regression Mix for BMS)
Artist:ueotan
ArtistUnicode:ueotan
Creator:Fullerene-
Version:D-ANOTHER
Source:BMS
Tags:stepmania delay ice cream sandwich ics drace
BeatmapID:659237
BeatmapSetID:292994

[Difficulty]
HPDrainRate:8
CircleSize:4
OverallDifficulty:5.5
ApproachRate:9
SliderMultiplier:1.4
SliderTickRate:1

[Events]
//Background and Video events
0,0,"#bga.png",0,0
//Break Periods
//Storyboard Layer 0 (Background)
//Storyboard Layer 1 (Fail)
//Storyboard Layer 2 (Pass)
//Storyboard Layer 3 (Foreground)
//Storyboard Sound Samples

[TimingPoints]
1543,387.0968,4,1,0,15,1,0
1543,-100,4,1,0,15,0,0

[HitObjects]
64,192,1543,5,0,0:0:0:0:
320,192,1543,1,0,0:0:0:0:
448,192,1543,1,0,0:0:0:0:
192,192,1736,1,0,0:0:0:0:
64,192,1930,1,0,0:0:0:0:
320,192,1930,1,0,0:0:0:0:
192,192,2124,1,0,0:0:0:0:
64,192,2317,1,0,0:0:0:0:
320,192,2317,1,0,0:0:0:0:
448,192,2317,1,0,0:0:0:0:
192,192,2511,1,0,0:0:0:0:
64,192,2704,1,0,0:0:0:0:
448,192,2704,1,0,0:0:0:0:
192,192,2898,1,0,0:0:0:0:
64,192,3091,1,0,0:0:0:0:
320,192,3091,1,0,0:0:0:0:
448,192,3091,1,0,0:0:0:0:
192,192,3285,1,0,0:0:0:0:
64,192,3478,1,0,0:0:0:0:
320,192,3478,1,0,0:0:0:0:
192,192,3672,1,0,0:0:0:0:
64,192,3866,1,0,0:0:0:0:
320,192,3866,1,0,0:0:0:0:
448,192,3866,1,0,0:0:0:0:
192,192,4059,1,0,0:0:0:0:
64,192,4253,1,0,0:0:0:0:
448,192,4253,1,0,0:0:0:0:
192,192,4446,1,0,0:0:0:0:
64,192,4640,1,0,0:0:0:0:
320,192,4640,1,0,0:0:0:0:
448,192,4640,1,0,0:0:0:0:
192,192,4833,1,0,0:0:0:0:
64,192,5027,1,0,0:0:0:0:
320,192,5027,1,0,0:0:0:0:
192,192,5220,1,0,0:0:0:0:
448,192,5220,1,0,0:0:0:0:
64,192,5414,1,0,0:0:0:0:
192,192,5414,1,0,0:0:0:0:
320,192,5414,1,0,0:0:0:0:
192,192,5607,1,0,0:0:0:0:
448,192,5607,1,0,0:0:0:0:
64,192,5801,1,0,0:0:0:0:
320,192,5801,1,0,0:0:0:0:
192,192,5995,1,0,0:0:0:0:
448,192,5995,1,0,0:0:0:0:
64,192,6188,1,0,0:0:0:0:
320,192,6188,1,0,0:0:0:0:
448,192,6188,1,0,0:0:0:0:
192,192,6382,1,0,0:0:0:0:
320,192,6382,1,0,0:0:0:0:
64,192,6575,1,0,0:0:0:0:
448,192,6575,1,0,0:0:0:0:
192,192,6769,1,0,0:0:0:0:
64,192,6962,1,0,0:0:0:0:
192,192,6962,1,0,0:0:0:0:
320,192,6962,1,0,0:0:0:0:
448,192,6962,1,0,0:0:0:0:
320,192,7156,1,0,0:0:0:0:
448,192,7156,1,0,0:0:0:0:
320,192,7253,1,0,0:0:0:0:
448,192,7253,1,0,0:0:0:0:
64,192,7349,1,0,0:0:0:0:
192,192,7349,1,0,0:0:0:0:
320,192,7349,1,0,0:0:0:0:
448,192,7349,1,0,0:0:0:0:
64,192,7543,1,0,0:0:0:0:
192,192,7543,1,0,0:0:0:0:
320,192,7591,1,0,0:0:0:0:
448,192,7591,1,0,0:0:0:0:
64,192,7640,1,0,0:0:0:0:
192,192,7640,1,0,0:0:0:0:
320,192,7688,1,0,0:0:0:0:
448,192,7688,1,0,0:0:0:0:
64,192,7736,1,0,0:0:0:0:
192,192,7736,1,0,0:0:0:0:
320,192,8124,1,0,0:0:0:0:
448,192,8124,1,0,0:0:0:0:
64,192,8511,1,0,0:0:0:0:
192,192,8511,1,0,0:0:0:0:
320,192,8898,1,0,0:0:0:0:
448,192,8898,1,0,0:0:0:0:
64,192,9285,1,0,0:0:0:0:
192,192,9285,1,0,0:0:0:0:
320,192,9672,1,0,0:0:0:0:
448,192,9672,1,0,0:0:0:0:
64,192,10059,1,0,0:0:0:0:
192,192,10059,1,0,0:0:0:0:
320,192,10446,1,0,0:0:0:0:
448,192,10446,1,0,0:0:0:0:
64,192,10640,1,0,0:0:0:0:
192,192,10640,1,0,0:0:0:0:
64,192,10833,1,0,0:0:0:0:
192,192,10833,1,0,0:0:0:0:
320,192,11220,1,0,0:0:0:0:
448,192,11220,1,0,0:0:0:0:
64,192,11607,1,0,0:0:0:0:
192,192,11607,1,0,0:0:0:0:
320,192,11995,1,0,0:0:0:0:
448,192,11995,1,0,0:0:0:0:
64,192,12382,1,0,0:0:0:0:
192,192,12382,1,0,0:0:0:0:
320,192,12382,1,0,0:0:0:0:
448,192,12382,1,0,0:0:0:0:
64,192,12769,1,0,0:0:0:0:
192,192,12769,1,0,0:0:0:0:
320,192,12769,1,0,0:0:0:0:
448,192,12769,1,0,0:0:0:0:
64,192,13059,1,0,0:0:0:0:
192,192,13059,1,0,0:0:0:0:
320,192,13059,1,0,0:0:0:0:
448,192,13059,1,0,0:0:0:0:
64,192,13156,1,0,0:0:0:0:
192,192,13156,1,0,0:0:0:0:
320,192,13156,1,0,0:0:0:0:
448,192,13156,1,0,0:0:0:0:
64,192,13349,1,0,0:0:0:0:
192,192,13349,1,0,0:0:0:0:
320,192,13349,1,0,0:0:0:0:
448,192,13349,1,0,0:0:0:0:
64,192,13930,1,0,0:0:0:0:
192,192,13930,1,0,0:0:0:0:
320,192,13962,1,0,0:0:0:0:
448,192,13995,1,0,0:0:0:0:
64,192,14027,1,0,0:0:0:0:
192,192,14059,1,0,0:0:0:0:
320,192,14091,1,0,0:0:0:0:
448,192,14124,1,0,0:0:0:0:
64,192,14156,1,0,0:0:0:0:
192,192,14188,1,0,0:0:0:0:
320,192,14220,1,0,0:0:0:0:
448,192,14253,1,0,0:0:0:0:
64,192,14285,1,0,0:0:0:0:
192,192,14317,1,0,0:0:0:0:
448,192,14349,1,0,0:0:0:0:
320,192,14382,1,0,0:0:0:0:
64,192,14414,1,0,0:0:0:0:
192,192,14446,1,0,0:0:0:0:
448,192,14478,1,0,0:0:0:0:
320,192,14511,1,0,0:0:0:0:
64,192,14543,1,0,0:0:0:0:
192,192,14575,1,0,0:0:0:0:
448,192,14607,1,0,0:0:0:0:
320,192,14640,1,0,0:0:0:0:
64,192,14672,1,0,0:0:0:0:
192,192,14704,1,0,0:0:0:0:
320,192,14736,1,0,0:0:0:0:
448,192,14769,1,0,0:0:0:0:
64,192,14801,1,0,0:0:0:0:
192,192,14833,1,0,0:0:0:0:
320,192,14866,1,0,0:0:0:0:
448,192,14898,1,0,0:0:0:0:
64,192,14930,1,0,0:0:0:0:
192,192,14962,1,0,0:0:0:0:
320,192,14995,1,0,0:0:0:0:
448,192,15027,1,0,0:0:0:0:
192,192,15059,1,0,0:0:0:0:
64,192,15091,1,0,0:0:0:0:
320,192,15124,1,0,0:0:0:0:
448,192,15156,1,0,0:0:0:0:
192,192,15188,1,0,0:0:0:0:
64,192,15220,1,0,0:0:0:0:
320,192,15253,1,0,0:0:0:0:
448,192,15285,1,0,0:0:0:0:
192,192,15317,1,0,0:0:0:0:
64,192,15349,1,0,0:0:0:0:
320,192,15382,1,0,0:0:0:0:
448,192,15414,1,0,0:0:0:0:
192,192,15446,1,0,0:0:0:0:
64,192,15478,1,0,0:0:0:0:
320,192,15511,1,0,0:0:0:0:
192,192,15543,1,0,0:0:0:0:
448,192,15575,1,0,0:0:0:0:
64,192,15607,1,0,0:0:0:0:
320,192,15640,1,0,0:0:0:0:
192,192,15672,1,0,0:0:0:0:
448,192,15704,1,0,0:0:0:0:
64,192,15736,1,0,0:0:0:0:
320,192,15769,1,0,0:0:0:0:
448,192,15801,1,0,0:0:0:0:
192,192,15833,1,0,0:0:0:0:
64,192,15866,1,0,0:0:0:0:
448,192,15898,1,0,0:0:0:0:
192,192,15930,1,0,0:0:0:0:
320,192,15962,1,0,0:0:0:0:
64,192,15995,1,0,0:0:0:0:
448,192,16027,1,0,0:0:0:0:
320,192,16059,1,0,0:0:0:0:
192,192,16091,1,0,0:0:0:0:
64,192,16124,1,0,0:0:0:0:
320,192,16156,1,0,0:0:0:0:
448,192,16188,1,0,0:0:0:0:
64,192,16220,1,0,0:0:0:0:
192,192,16253,1,0,0:0:0:0:
448,192,16285,1,0,0:0:0:0:
320,192,16317,1,0,0:0:0:0:
192,192,16349,1,0,0:0:0:0:
64,192,16382,1,0,0:0:0:0:
448,192,16414,1,0,0:0:0:0:
320,192,16446,1,0,0:0:0:0:
192,192,16478,1,0,0:0:0:0:
448,192,16511,1,0,0:0:0:0:
320,192,16543,1,0,0:0:0:0:
64,192,16575,1,0,0:0:0:0:
448,192,16607,1,0,0:0:0:0:
192,192,16640,1,0,0:0:0:0:
64,192,16672,1,0,0:0:0:0:
320,192,16704,1,0,0:0:0:0:
192,192,16736,1,0,0:0:0:0:
64,192,16769,1,0,0:0:0:0:
448,192,16801,1,0,0:0:0:0:
192,192,16833,1,0,0:0:0:0:
64,192,16866,1,0,0:0:0:0:
448,192,16898,1,0,0:0:0:0:
320,192,16930,1,0,0:0:0:0:
64,192,16962,1,0,0:0:0:0:
448,192,16995,1,0,0:0:0:0:
320,192,17027,1,0,0:0:0:0:
192,192,17059,1,0,0:0:0:0:
64,192,17091,1,0,0:0:0:0:
448,192,17124,1,0,0:0:0:0:
192,192,17156,1,0,0:0:0:0:
320,192,17188,1,0,0:0:0:0:
64,192,17220,1,0,0:0:0:0:
448,192,17253,1,0,0:0:0:0:
192,192,17285,1,0,0:0:0:0:
320,192,17317,1,0,0:0:0:0:
64,192,17349,1,0,0:0:0:0:
192,192,17382,1,0,0:0:0:0:
320,192,17414,1,0,0:0:0:0:
448,192,17446,1,0,0:0:0:0:
64,192,17478,1,0,0:0:0:0:
192,192,17511,1,0,0:0:0:0:
448,192,17543,1,0,0:0:0:0:
64,192,17575,1,0,0:0:0:0:
320,192,17607,1,0,0:0:0:0:
192,192,17640,1,0,0:0:0:0:
448,192,17672,1,0,0:0:0:0:
64,192,17704,1,0,0:0:0:0:
320,192,17736,1,0,0:0:0:0:
448,192,17769,1,0,0:0:0:0:
192,192,17801,1,0,0:0:0:0:
64,192,17833,1,0,0:0:0:0:
448,192,17866,1,0,0:0:0:0:
192,192,17898,1,0,0:0:0:0:
320,192,17930,1,0,0:0:0:0:
64,192,17962,1,0,0:0:0:0:
448,192,17995,1,0,0:0:0:0:
320,192,18027,1,0,0:0:0:0:
192,192,18059,1,0,0:0:0:0:
64,192,18091,1,0,0:0:0:0:
320,192,18124,1,0,0:0:0:0:
448,192,18156,1,0,0:0:0:0:
192,192,18188,1,0,0:0:0:0:
64,192,18220,1,0,0:0:0:0:
448,192,18253,1,0,0:0:0:0:
192,192,18285,1,0,0:0:0:0:
320,192,18317,1,0,0:0:0:0:
64,192,18349,1,0,0:0:0:0:
448,192,18382,1,0,0:0:0:0:
320,192,18414,1,0,0:0:0:0:
192,192,18446,1,0,0:0:0:0:
64,192,18478,1,0,0:0:0:0:
448,192,18511,1,0,0:0:0:0:
320,192,18543,1,0,0:0:0:0:
64,192,18575,1,0,0:0:0:0:
192,192,18607,1,0,0:0:0:0:
320,192,18640,1,0,0:0:0:0:
448,192,18672,1,0,0:0:0:0:
64,192,18704,1,0,0:0:0:0:
192,192,18736,1,0,0:0:0:0:
320,192,18769,1,0,0:0:0:0:
64,192,18801,1,0,0:0:0:0:
448,192,18833,1,0,0:0:0:0:
192,192,18866,1,0,0:0:0:0:
320,192,18898,1,0,0:0:0:0:
64,192,18930,1,0,0:0:0:0:
448,192,18962,1,0,0:0:0:0:
320,192,18995,1,0,0:0:0:0:
192,192,19027,1,0,0:0:0:0:
448,192,19059,1,0,0:0:0:0:
64,192,19091,1,0,0:0:0:0:
192,192,19124,1,0,0:0:0:0:
320,192,19156,1,0,0:0:0:0:
64,192,19188,1,0,0:0:0:0:
448,192,19220,1,0,0:0:0:0:
320,192,19253,1,0,0:0:0:0:
192,192,19285,1,0,0:0:0:0:
64,192,19317,1,0,0:0:0:0:
448,192,19349,1,0,0:0:0:0:
192,192,19382,1,0,0:0:0:0:
320,192,19414,1,0,0:0:0:0:
64,192,19446,1,0,0:0:0:0:
448,192,19478,1,0,0:0:0:0:
320,192,19511,1,0,0:0:0:0:
192,192,19543,1,0,0:0:0:0:
64,192,19575,1,0,0:0:0:0:
320,192,19607,1,0,0:0:0:0:
192,192,19640,1,0,0:0:0:0:
448,192,19672,1,0,0:0:0:0:
64,192,19704,1,0,0:0:0:0:
320,192,19736,1,0,0:0:0:0:
192,192,19769,1,0,0:0:0:0:
448,192,19801,1,0,0:0:0:0:
320,192,19833,1,0,0:0:0:0:
192,192,19866,1,0,0:0:0:0:
64,192,19898,1,0,0:0:0:0:
320,192,19930,1,0,0:0:0:0:
448,192,19930,1,0,0:0:0:0:
64,192,19978,1,0,0:0:0:0:
192,192,19978,1,0,0:0:0:0:
320,192,20027,1,0,0:0:0:0:
448,192,20027,1,0,0:0:0:0:
64,192,20075,1,0,0:0:0:0:
192,192,20075,1,0,0:0:0:0:
320,192,20124,1,0,0:0:0:0:
448,192,20124,1,0,0:0:0:0:
192,192,20156,1,0,0:0:0:0:
64,192,20188,1,0,0:0:0:0:
448,192,20220,1,0,0:0:0:0:
320,192,20253,1,0,0:0:0:0:
192,192,20285,1,0,0:0:0:0:
64,192,20317,1,0,0:0:0:0:
448,192,20349,1,0,0:0:0:0:
320,192,20382,1,0,0:0:0:0:
192,192,20414,1,0,0:0:0:0:
64,192,20446,1,0,0:0:0:0:
448,192,20478,1,0,0:0:0:0:
320,192,20511,1,0,0:0:0:0:
64,192,20543,1,0,0:0:0:0:
192,192,20575,1,0,0:0:0:0:
448,192,20607,1,0,0:0:0:0:
320,192,20640,1,0,0:0:0:0:
64,192,20672,1,0,0:0:0:0:
192,192,20704,1,0,0:0:0:0:
448,192,20736,1,0,0:0:0:0:
320,192,20769,1,0,0:0:0:0:
64,192,20801,1,0,0:0:0:0:
192,192,20833,1,0,0:0:0:0:
448,192,20866,1,0,0:0:0:0:
320,192,20898,1,0,0:0:0:0:
192,192,20930,1,0,0:0:0:0:
64,192,20962,1,0,0:0:0:0:
448,192,20995,1,0,0:0:0:0:
320,192,21027,1,0,0:0:0:0:
192,192,21059,1,0,0:0:0:0:
64,192,21091,1,0,0:0:0:0:
448,192,21124,1,0,0:0:0:0:
320,192,21156,1,0,0:0:0:0:
192,192,21188,1,0,0:0:0:0:
64,192,21220,1,0,0:0:0:0:
320,192,21253,1,0,0:0:0:0:
448,192,21285,1,0,0:0:0:0:
192,192,21317,1,0,0:0:0:0:
64,192,21349,1,0,0:0:0:0:
320,192,21382,1,0,0:0:0:0:
448,192,21414,1,0,0:0:0:0:
192,192,21446,1,0,0:0:0:0:
64,192,21478,1,0,0:0:0:0:
320,192,21511,1,0,0:0:0:0:
448,192,21543,1,0,0:0:0:0:
192,192,21575,1,0,0:0:0:0:
64,192,21607,1,0,0:0:0:0:
320,192,21640,1,0,0:0:0:0:
448,192,21672,1,0,0:0:0:0:
192,192,21704,1,0,0:0:0:0:
320,192,21736,1,0,0:0:0:0:
64,192,21769,1,0,0:0:0:0:
448,192,21801,1,0,0:0:0:0:
192,192,21833,1,0,0:0:0:0:
320,192,21866,1,0,0:0:0:0:
64,192,21898,1,0,0:0:0:0:
448,192,21930,1,0,0:0:0:0:
192,192,21962,1,0,0:0:0:0:
64,192,21995,1,0,0:0:0:0:
320,192,22027,1,0,0:0:0:0:
448,192,22059,1,0,0:0:0:0:
64,192,22091,1,0,0:0:0:0:
320,192,22124,1,0,0:0:0:0:
192,192,22156,1,0,0:0:0:0:
448,192,22188,1,0,0:0:0:0:
64,192,22220,1,0,0:0:0:0:
192,192,22253,1,0,0:0:0:0:
320,192,22285,1,0,0:0:0:0:
448,192,22317,1,0,0:0:0:0:
192,192,22349,1,0,0:0:0:0:
64,192,22382,1,0,0:0:0:0:
448,192,22414,1,0,0:0:0:0:
320,192,22446,1,0,0:0:0:0:
64,192,22478,1,0,0:0:0:0:
192,192,22511,1,0,0:0:0:0:
320,192,22543,1,0,0:0:0:0:
448,192,22575,1,0,0:0:0:0:
64,192,22607,1,0,0:0:0:0:
192,192,22640,1,0,0:0:0:0:
320,192,22672,1,0,0:0:0:0:
64,192,22704,1,0,0:0:0:0:
192,192,22736,1,0,0:0:0:0:
448,192,22769,1,0,0:0:0:0:
64,192,22801,1,0,0:0:0:0:
320,192,22833,1,0,0:0:0:0:
448,192,22866,1,0,0:0:0:0:
192,192,22898,1,0,0:0:0:0:
320,192,22930,1,0,0:0:0:0:
448,192,22962,1,0,0:0:0:0:
64,192,22995,1,0,0:0:0:0:
320,192,23027,1,0,0:0:0:0:
448,192,23059,1,0,0:0:0:0:
64,192,23091,1,0,0:0:0:0:
192,192,23124,1,0,0:0:0:0:
448,192,23156,1,0,0:0:0:0:
64,192,23188,1,0,0:0:0:0:
192,192,23220,1,0,0:0:0:0:
320,192,23253,1,0,0:0:0:0:
448,192,23285,1,0,0:0:0:0:
64,192,23317,1,0,0:0:0:0:
320,192,23349,1,0,0:0:0:0:
192,192,23382,1,0,0:0:0:0:
448,192,23414,1,0,0:0:0:0:
64,192,23446,1,0,0:0:0:0:
320,192,23478,1,0,0:0:0:0:
192,192,23511,1,0,0:0:0:0:
448,192,23543,1,0,0:0:0:0:
320,192,23575,1,0,0:0:0:0:
192,192,23607,1,0,0:0:0:0:
64,192,23640,1,0,0:0:0:0:
448,192,23672,1,0,0:0:0:0:
320,192,23704,1,0,0:0:0:0:
64,192,23736,1,0,0:0:0:0:
448,192,23769,1,0,0:0:0:0:
192,192,23801,1,0,0:0:0:0:
320,192,23833,1,0,0:0:0:0:
64,192,23866,1,0,0:0:0:0:
448,192,23898,1,0,0:0:0:0:
192,192,23930,1,0,0:0:0:0:
64,192,23962,1,0,0:0:0:0:
320,192,23995,1,0,0:0:0:0:
448,192,24027,1,0,0:0:0:0:
64,192,24059,1,0,0:0:0:0:
320,192,24091,1,0,0:0:0:0:
192,192,24124,1,0,0:0:0:0:
448,192,24156,1,0,0:0:0:0:
64,192,24188,1,0,0:0:0:0:
192,192,24220,1,0,0:0:0:0:
320,192,24253,1,0,0:0:0:0:
448,192,24285,1,0,0:0:0:0:
192,192,24317,1,0,0:0:0:0:
64,192,24349,1,0,0:0:0:0:
320,192,24382,1,0,0:0:0:0:
448,192,24414,1,0,0:0:0:0:
64,192,24446,1,0,0:0:0:0:
320,192,24478,1,0,0:0:0:0:
192,192,24511,1,0,0:0:0:0:
448,192,24543,1,0,0:0:0:0:
64,192,24575,1,0,0:0:0:0:
192,192,24607,1,0,0:0:0:0:
320,192,24640,1,0,0:0:0:0:
448,192,24672,1,0,0:0:0:0:
64,192,24704,1,0,0:0:0:0:
192,192,24736,1,0,0:0:0:0:
448,192,24769,1,0,0:0:0:0:
320,192,24801,1,0,0:0:0:0:
192,192,24833,1,0,0:0:0:0:
64,192,24866,1,0,0:0:0:0:
448,192,24898,1,0,0:0:0:0:
320,192,24930,1,0,0:0:0:0:
192,192,24962,1,0,0:0:0:0:
448,192,24995,1,0,0:0:0:0:
64,192,25027,1,0,0:0:0:0:
320,192,25059,1,0,0:0:0:0:
192,192,25091,1,0,0:0:0:0:
448,192,25124,1,0,0:0:0:0:
64,192,25156,1,0,0:0:0:0:
192,192,25188,1,0,0:0:0:0:
320,192,25220,1,0,0:0:0:0:
64,192,25253,1,0,0:0:0:0:
448,192,25285,1,0,0:0:0:0:
320,192,25317,1,0,0:0:0:0:
192,192,25349,1,0,0:0:0:0:
448,192,25382,1,0,0:0:0:0:
64,192,25414,1,0,0:0:0:0:
192,192,25446,1,0,0:0:0:0:
320,192,25478,1,0,0:0:0:0:
448,192,25511,1,0,0:0:0:0:
64,192,25543,1,0,0:0:0:0:
320,192,25575,1,0,0:0:0:0:
192,192,25607,1,0,0:0:0:0:
448,192,25640,1,0,0:0:0:0:
64,192,25672,1,0,0:0:0:0:
320,192,25704,1,0,0:0:0:0:
192,192,25736,1,0,0:0:0:0:
448,192,25769,1,0,0:0:0:0:
64,192,25801,1,0,0:0:0:0:
192,192,25833,1,0,0:0:0:0:
320,192,25866,1,0,0:0:0:0:
64,192,25898,1,0,0:0:0:0:
192,192,25930,1,0,0:0:0:0:
448,192,25930,1,0,0:0:0:0:
320,192,25962,1,0,0:0:0:0:
64,192,25995,1,0,0:0:0:0:
192,192,26027,1,0,0:0:0:0:
320,192,26059,1,0,0:0:0:0:
448,192,26091,1,0,0:0:0:0:
64,192,26124,1,0,0:0:0:0:
192,192,26124,1,0,0:0:0:0:
320,192,26172,1,0,0:0:0:0:
448,192,26172,1,0,0:0:0:0:
64,192,26220,1,0,0:0:0:0:
192,192,26220,1,0,0:0:0:0:
320,192,26269,1,0,0:0:0:0:
448,192,26269,1,0,0:0:0:0:
64,192,26317,1,0,0:0:0:0:
192,192,26317,1,0,0:0:0:0:
448,192,26349,1,0,0:0:0:0:
320,192,26382,1,0,0:0:0:0:
64,192,26414,1,0,0:0:0:0:
192,192,26446,1,0,0:0:0:0:
320,192,26478,1,0,0:0:0:0:
64,192,26511,1,0,0:0:0:0:
192,192,26543,1,0,0:0:0:0:
448,192,26575,1,0,0:0:0:0:
320,192,26607,1,0,0:0:0:0:
64,192,26640,1,0,0:0:0:0:
192,192,26672,1,0,0:0:0:0:
448,192,26704,1,0,0:0:0:0:
64,192,26736,1,0,0:0:0:0:
320,192,26769,1,0,0:0:0:0:
192,192,26801,1,0,0:0:0:0:
64,192,26833,1,0,0:0:0:0:
448,192,26866,1,0,0:0:0:0:
320,192,26898,1,0,0:0:0:0:
192,192,26930,1,0,0:0:0:0:
64,192,26962,1,0,0:0:0:0:
448,192,26995,1,0,0:0:0:0:
192,192,27027,1,0,0:0:0:0:
320,192,27059,1,0,0:0:0:0:
64,192,27091,1,0,0:0:0:0:
448,192,27124,1,0,0:0:0:0:
192,192,27156,1,0,0:0:0:0:
320,192,27188,1,0,0:0:0:0:
64,192,27220,1,0,0:0:0:0:
192,192,27253,1,0,0:0:0:0:
448,192,27285,1,0,0:0:0:0:
320,192,27317,1,0,0:0:0:0:
192,192,27349,1,0,0:0:0:0:
64,192,27382,1,0,0:0:0:0:
320,192,27414,1,0,0:0:0:0:
448,192,27446,1,0,0:0:0:0:
192,192,27478,1,0,0:0:0:0:
64,192,27511,1,0,0:0:0:0:
448,192,27543,1,0,0:0:0:0:
192,192,27575,1,0,0:0:0:0:
320,192,27607,1,0,0:0:0:0:
64,192,27640,1,0,0:0:0:0:
448,192,27672,1,0,0:0:0:0:
192,192,27704,1,0,0:0:0:0:
64,192,27736,1,0,0:0:0:0:
448,192,27769,1,0,0:0:0:0:
320,192,27801,1,0,0:0:0:0:
192,192,27833,1,0,0:0:0:0:
64,192,27866,1,0,0:0:0:0:
448,192,27898,1,0,0:0:0:0:
192,192,27930,1,0,0:0:0:0:
320,192,27962,1,0,0:0:0:0:
64,192,27995,1,0,0:0:0:0:
448,192,28027,1,0,0:0:0:0:
192,192,28059,1,0,0:0:0:0:
320,192,28091,1,0,0:0:0:0:
64,192,28124,1,0,0:0:0:0:
448,192,28156,1,0,0:0:0:0:
192,192,28188,1,0,0:0:0:0:
320,192,28220,1,0,0:0:0:0:
64,192,28253,1,0,0:0:0:0:
192,192,28285,1,0,0:0:0:0:
448,192,28317,1,0,0:0:0:0:
320,192,28349,1,0,0:0:0:0:
64,192,28382,1,0,0:0:0:0:
192,192,28414,1,0,0:0:0:0:
448,192,28446,1,0,0:0:0:0:
320,192,28478,1,0,0:0:0:0:
64,192,28511,1,0,0:0:0:0:
192,192,28543,1,0,0:0:0:0:
448,192,28575,1,0,0:0:0:0:
320,192,28607,1,0,0:0:0:0:
64,192,28640,1,0,0:0:0:0:
192,192,28672,1,0,0:0:0:0:
320,192,28704,1,0,0:0:0:0:
448,192,28736,1,0,0:0:0:0:
64,192,28769,1,0,0:0:0:0:
320,192,28801,1,0,0:0:0:0:
192,192,28833,1,0,0:0:0:0:
448,192,28866,1,0,0:0:0:0:
64,192,28898,1,0,0:0:0:0:
320,192,28930,1,0,0:0:0:0:
192,192,28962,1,0,0:0:0:0:
64,192,28995,1,0,0:0:0:0:
320,192,29027,1,0,0:0:0:0:
448,192,29059,1,0,0:0:0:0:
192,192,29091,1,0,0:0:0:0:
320,192,29124,1,0,0:0:0:0:
64,192,29156,1,0,0:0:0:0:
192,192,29188,1,0,0:0:0:0:
448,192,29220,1,0,0:0:0:0:
320,192,29253,1,0,0:0:0:0:
192,192,29285,1,0,0:0:0:0:
448,192,29317,1,0,0:0:0:0:
64,192,29349,1,0,0:0:0:0:
320,192,29382,1,0,0:0:0:0:
448,192,29414,1,0,0:0:0:0:
192,192,29446,1,0,0:0:0:0:
320,192,29478,1,0,0:0:0:0:
64,192,29511,1,0,0:0:0:0:
448,192,29543,1,0,0:0:0:0:
192,192,29575,1,0,0:0:0:0:
320,192,29607,1,0,0:0:0:0:
64,192,29640,1,0,0:0:0:0:
448,192,29672,1,0,0:0:0:0:
192,192,29704,1,0,0:0:0:0:
320,192,29736,1,0,0:0:0:0:
64,192,29769,1,0,0:0:0:0:
448,192,29801,1,0,0:0:0:0:
320,192,29833,1,0,0:0:0:0:
192,192,29866,1,0,0:0:0:0:
64,192,29898,1,0,0:0:0:0:
448,192,29930,1,0,0:0:0:0:
320,192,29962,1,0,0:0:0:0:
192,192,29995,1,0,0:0:0:0:
64,192,30027,1,0,0:0:0:0:
448,192,30059,1,0,0:0:0:0:
320,192,30091,1,0,0:0:0:0:
192,192,30124,1,0,0:0:0:0:
64,192,30156,1,0,0:0:0:0:
448,192,30188,1,0,0:0:0:0:
192,192,30220,1,0,0:0:0:0:
320,192,30253,1,0,0:0:0:0:
64,192,30285,1,0,0:0:0:0:
448,192,30317,1,0,0:0:0:0:
192,192,30349,1,0,0:0:0:0:
320,192,30382,1,0,0:0:0:0:
64,192,30414,1,0,0:0:0:0:
192,192,30446,1,0,0:0:0:0:
448,192,30478,1,0,0:0:0:0:
320,192,30511,1,0,0:0:0:0:
64,192,30543,1,0,0:0:0:0:
192,192,30575,1,0,0:0:0:0:
448,192,30607,1,0,0:0:0:0:
64,192,30640,1,0,0:0:0:0:
320,192,30672,1,0,0:0:0:0:
448,192,30704,1,0,0:0:0:0:
64,192,30736,1,0,0:0:0:0:
192,192,30769,1,0,0:0:0:0:
320,192,30801,1,0,0:0:0:0:
64,192,30833,1,0,0:0:0:0:
448,192,30866,1,0,0:0:0:0:
320,192,30898,1,0,0:0:0:0:
192,192,30930,1,0,0:0:0:0:
64,192,30962,1,0,0:0:0:0:
448,192,30995,1,0,0:0:0:0:
192,192,31027,1,0,0:0:0:0:
320,192,31059,1,0,0:0:0:0:
448,192,31091,1,0,0:0:0:0:
64,192,31124,1,0,0:0:0:0:
192,192,31156,1,0,0:0:0:0:
320,192,31188,1,0,0:0:0:0:
64,192,31220,1,0,0:0:0:0:
448,192,31253,1,0,0:0:0:0:
320,192,31285,1,0,0:0:0:0:
192,192,31317,1,0,0:0:0:0:
448,192,31349,1,0,0:0:0:0:
64,192,31382,1,0,0:0:0:0:
192,192,31414,1,0,0:0:0:0:
320,192,31446,1,0,0:0:0:0:
64,192,31478,1,0,0:0:0:0:
448,192,31511,1,0,0:0:0:0:
320,192,31543,1,0,0:0:0:0:
192,192,31575,1,0,0:0:0:0:
448,192,31607,1,0,0:0:0:0:
64,192,31640,1,0,0:0:0:0:
192,192,31672,1,0,0:0:0:0:
320,192,31704,1,0,0:0:0:0:
448,192,31736,1,0,0:0:0:0:
64,192,31769,1,0,0:0:0:0:
320,192,31801,1,0,0:0:0:0:
192,192,31833,1,0,0:0:0:0:
448,192,31866,1,0,0:0:0:0:
64,192,31898,1,0,0:0:0:0:
320,192,31930,1,0,0:0:0:0:
192,192,31962,1,0,0:0:0:0:
448,192,31995,1,0,0:0:0:0:
320,192,32027,1,0,0:0:0:0:
64,192,32059,1,0,0:0:0:0:
192,192,32091,1,0,0:0:0:0:
320,192,32124,1,0,0:0:0:0:
448,192,32156,1,0,0:0:0:0:
64,192,32188,1,0,0:0:0:0:
192,192,32220,1,0,0:0:0:0:
448,192,32253,1,0,0:0:0:0:
320,192,32285,1,0,0:0:0:0:
64,192,32317,1,0,0:0:0:0:
192,192,32349,1,0,0:0:0:0:
320,192,32382,1,0,0:0:0:0:
64,192,32414,1,0,0:0:0:0:
448,192,32446,1,0,0:0:0:0:
192,192,32478,1,0,0:0:0:0:
320,192,32511,1,0,0:0:0:0:
64,192,32543,1,0,0:0:0:0:
448,192,32575,1,0,0:0:0:0:
320,192,32607,1,0,0:0:0:0:
192,192,32640,1,0,0:0:0:0:
448,192,32672,1,0,0:0:0:0:
64,192,32704,1,0,0:0:0:0:
320,192,32736,1,0,0:0:0:0:
192,192,32769,1,0,0:0:0:0:
64,192,32801,1,0,0:0:0:0:
448,192,32833,1,0,0:0:0:0:
320,192,32866,1,0,0:0:0:0:
192,192,32898,1,0,0:0:0:0:
448,192,32930,1,0,0:0:0:0:
64,192,32962,1,0,0:0:0:0:
192,192,32995,1,0,0:0:0:0:
320,192,33027,1,0,0:0:0:0:
448,192,33059,1,0,0:0:0:0:
64,192,33091,1,0,0:0:0:0:
320,192,33124,1,0,0:0:0:0:
192,192,33156,1,0,0:0:0:0:
64,192,33188,1,0,0:0:0:0:
448,192,33220,1,0,0:0:0:0:
320,192,33253,1,0,0:0:0:0:
192,192,33285,1,0,0:0:0:0:
64,192,33317,1,0,0:0:0:0:
320,192,33349,1,0,0:0:0:0:
448,192,33382,1,0,0:0:0:0:
64,192,33414,1,0,0:0:0:0:
320,192,33446,1,0,0:0:0:0:
192,192,33478,1,0,0:0:0:0:
448,192,33511,1,0,0:0:0:0:
64,192,33543,1,0,0:0:0:0:
320,192,33575,1,0,0:0:0:0:
192,192,33607,1,0,0:0:0:0:
448,192,33640,1,0,0:0:0:0:
320,192,33672,1,0,0:0:0:0:
64,192,33704,1,0,0:0:0:0:
192,192,33736,1,0,0:0:0:0:
320,192,33769,1,0,0:0:0:0:
448,192,33801,1,0,0:0:0:0:
64,192,33833,1,0,0:0:0:0:
192,192,33866,1,0,0:0:0:0:
448,192,33898,1,0,0:0:0:0:
320,192,33930,1,0,0:0:0:0:
192,192,33962,1,0,0:0:0:0:
64,192,33995,1,0,0:0:0:0:
448,192,34027,1,0,0:0:0:0:
320,192,34059,1,0,0:0:0:0:
192,192,34091,1,0,0:0:0:0:
448,192,34124,1,0,0:0:0:0:
64,192,34156,1,0,0:0:0:0:
192,192,34188,1,0,0:0:0:0:
320,192,34220,1,0,0:0:0:0:
448,192,34253,1,0,0:0:0:0:
64,192,34285,1,0,0:0:0:0:
192,192,34317,1,0,0:0:0:0:
320,192,34349,1,0,0:0:0:0:
64,192,34382,1,0,0:0:0:0:
448,192,34414,1,0,0:0:0:0:
192,192,34446,1,0,0:0:0:0:
320,192,34478,1,0,0:0:0:0:
448,192,34511,1,0,0:0:0:0:
64,192,34543,1,0,0:0:0:0:
192,192,34575,1,0,0:0:0:0:
320,192,34607,1,0,0:0:0:0:
448,192,34640,1,0,0:0:0:0:
192,192,34672,1,0,0:0:0:0:
64,192,34704,1,0,0:0:0:0:
448,192,34736,1,0,0:0:0:0:
192,192,34769,1,0,0:0:0:0:
320,192,34801,1,0,0:0:0:0:
64,192,34833,1,0,0:0:0:0:
448,192,34866,1,0,0:0:0:0:
320,192,34898,1,0,0:0:0:0:
64,192,34930,1,0,0:0:0:0:
192,192,34962,1,0,0:0:0:0:
320,192,34995,1,0,0:0:0:0:
64,192,35027,1,0,0:0:0:0:
448,192,35059,1,0,0:0:0:0:
192,192,35091,1,0,0:0:0:0:
320,192,35124,1,0,0:0:0:0:
64,192,35156,1,0,0:0:0:0:
448,192,35188,1,0,0:0:0:0:
320,192,35220,1,0,0:0:0:0:
192,192,35253,1,0,0:0:0:0:
64,192,35285,1,0,0:0:0:0:
448,192,35317,1,0,0:0:0:0:
192,192,35349,1,0,0:0:0:0:
64,192,35382,1,0,0:0:0:0:
320,192,35414,1,0,0:0:0:0:
448,192,35446,1,0,0:0:0:0:
64,192,35478,1,0,0:0:0:0:
192,192,35511,1,0,0:0:0:0:
320,192,35543,1,0,0:0:0:0:
448,192,35575,1,0,0:0:0:0:
64,192,35607,1,0,0:0:0:0:
320,192,35640,1,0,0:0:0:0:
192,192,35672,1,0,0:0:0:0:
448,192,35704,1,0,0:0:0:0:
64,192,35736,1,0,0:0:0:0:
320,192,35769,1,0,0:0:0:0:
192,192,35801,1,0,0:0:0:0:
64,192,35833,1,0,0:0:0:0:
448,192,35866,1,0,0:0:0:0:
192,192,35898,1,0,0:0:0:0:
320,192,35930,1,0,0:0:0:0:
64,192,35962,1,0,0:0:0:0:
448,192,35995,1,0,0:0:0:0:
320,192,36027,1,0,0:0:0:0:
192,192,36059,1,0,0:0:0:0:
64,192,36091,1,0,0:0:0:0:
320,192,36124,1,0,0:0:0:0:
192,192,36156,1,0,0:0:0:0:
448,192,36188,1,0,0:0:0:0:
320,192,36220,1,0,0:0:0:0:
64,192,36253,1,0,0:0:0:0:
192,192,36285,1,0,0:0:0:0:
320,192,36317,1,0,0:0:0:0:
448,192,36349,1,0,0:0:0:0:
64,192,36382,1,0,0:0:0:0:
192,192,36414,1,0,0:0:0:0:
320,192,36446,1,0,0:0:0:0:
64,192,36478,1,0,0:0:0:0:
448,192,36511,1,0,0:0:0:0:
192,192,36543,1,0,0:0:0:0:
320,192,36575,1,0,0:0:0:0:
64,192,36607,1,0,0:0:0:0:
448,192,36640,1,0,0:0:0:0:
320,192,36672,1,0,0:0:0:0:
192,192,36704,1,0,0:0:0:0:
448,192,36736,1,0,0:0:0:0:
64,192,36769,1,0,0:0:0:0:
192,192,36801,1,0,0:0:0:0:
320,192,36833,1,0,0:0:0:0:
448,192,36866,1,0,0:0:0:0:
64,192,36898,1,0,0:0:0:0:
320,192,36930,1,0,0:0:0:0:
192,192,36962,1,0,0:0:0:0:
448,192,36995,1,0,0:0:0:0:
64,192,37027,1,0,0:0:0:0:
320,192,37059,1,0,0:0:0:0:
192,192,37091,1,0,0:0:0:0:
64,192,37124,1,0,0:0:0:0:
448,192,37156,1,0,0:0:0:0:
320,192,37188,1,0,0:0:0:0:
192,192,37220,1,0,0:0:0:0:
448,192,37253,1,0,0:0:0:0:
320,192,37285,1,0,0:0:0:0:
64,192,37317,1,0,0:0:0:0:
448,192,37349,1,0,0:0:0:0:
320,192,37382,1,0,0:0:0:0:
192,192,37414,1,0,0:0:0:0:
448,192,37446,1,0,0:0:0:0:
320,192,37478,1,0,0:0:0:0:
64,192,37511,1,0,0:0:0:0:
448,192,37543,1,0,0:0:0:0:
320,192,37575,1,0,0:0:0:0:
192,192,37607,1,0,0:0:0:0:
448,192,37640,1,0,0:0:0:0:
320,192,37672,1,0,0:0:0:0:
64,192,37704,1,0,0:0:0:0:
448,192,37736,1,0,0:0:0:0:
320,192,37769,1,0,0:0:0:0:
192,192,37801,1,0,0:0:0:0:
448,192,37833,1,0,0:0:0:0:
320,192,37866,1,0,0:0:0:0:
64,192,37898,1,0,0:0:0:0:
448,192,37930,1,0,0:0:0:0:
320,192,37962,1,0,0:0:0:0:
192,192,37995,1,0,0:0:0:0:
448,192,38027,1,0,0:0:0:0:
320,192,38059,1,0,0:0:0:0:
64,192,38091,1,0,0:0:0:0:
448,192,38124,1,0,0:0:0:0:
320,192,38156,1,0,0:0:0:0:
192,192,38188,1,0,0:0:0:0:
448,192,38220,1,0,0:0:0:0:
320,192,38253,1,0,0:0:0:0:
64,192,38285,1,0,0:0:0:0:
192,192,38317,1,0,0:0:0:0:
320,192,38349,1,0,0:0:0:0:
448,192,38382,1,0,0:0:0:0:
64,192,38414,1,0,0:0:0:0:
192,192,38446,1,0,0:0:0:0:
320,192,38478,1,0,0:0:0:0:
64,192,38511,1,0,0:0:0:0:
192,192,38543,1,0,0:0:0:0:
448,192,38575,1,0,0:0:0:0:
64,192,38607,1,0,0:0:0:0:
320,192,38640,1,0,0:0:0:0:
448,192,38672,1,0,0:0:0:0:
192,192,38704,1,0,0:0:0:0:
320,192,38736,1,0,0:0:0:0:
448,192,38769,1,0,0:0:0:0:
64,192,38801,1,0,0:0:0:0:
192,192,38833,1,0,0:0:0:0:
320,192,38866,1,0,0:0:0:0:
448,192,38898,1,0,0:0:0:0:
192,192,39091,1,0,0:0:0:0:
320,192,39124,1,0,0:0:0:0:
448,192,39156,1,0,0:0:0:0:
64,192,39188,1,0,0:0:0:0:
192,192,39220,1,0,0:0:0:0:
320,192,39253,1,0,0:0:0:0:
64,192,39285,1,0,0:0:0:0:
192,192,39317,1,0,0:0:0:0:
448,192,39349,1,0,0:0:0:0:
64,192,39382,1,0,0:0:0:0:
320,192,39414,1,0,0:0:0:0:
448,192,39446,1,0,0:0:0:0:
192,192,39478,1,0,0:0:0:0:
320,192,39511,1,0,0:0:0:0:
448,192,39543,1,0,0:0:0:0:
64,192,39575,1,0,0:0:0:0:
192,192,39607,1,0,0:0:0:0:
320,192,39640,1,0,0:0:0:0:
448,192,39672,1,0,0:0:0:0:
192,192,39866,1,0,0:0:0:0:
320,192,39898,1,0,0:0:0:0:
448,192,39930,1,0,0:0:0:0:
64,192,39962,1,0,0:0:0:0:
192,192,39995,1,0,0:0:0:0:
320,192,40027,1,0,0:0:0:0:
64,192,40059,1,0,0:0:0:0:
192,192,40091,1,0,0:0:0:0:
448,192,40124,1,0,0:0:0:0:
64,192,40156,1,0,0:0:0:0:
320,192,40188,1,0,0:0:0:0:
448,192,40220,1,0,0:0:0:0:
192,192,40253,1,0,0:0:0:0:
320,192,40285,1,0,0:0:0:0:
448,192,40317,1,0,0:0:0:0:
64,192,40349,1,0,0:0:0:0:
192,192,40382,1,0,0:0:0:0:
320,192,40414,1,0,0:0:0:0:
448,192,40446,1,0,0:0:0:0:
192,192,40640,1,0,0:0:0:0:
320,192,40672,1,0,0:0:0:0:
448,192,40704,1,0,0:0:0:0:
64,192,40736,1,0,0:0:0:0:
192,192,40769,1,0,0:0:0:0:
320,192,40801,1,0,0:0:0:0:
64,192,40833,1,0,0:0:0:0:
192,192,40866,1,0,0:0:0:0:
448,192,40898,1,0,0:0:0:0:
64,192,40930,1,0,0:0:0:0:
320,192,40962,1,0,0:0:0:0:
448,192,40995,1,0,0:0:0:0:
192,192,41027,1,0,0:0:0:0:
320,192,41059,1,0,0:0:0:0:
448,192,41091,1,0,0:0:0:0:
64,192,41124,1,0,0:0:0:0:
192,192,41156,1,0,0:0:0:0:
320,192,41188,1,0,0:0:0:0:
448,192,41220,1,0,0:0:0:0:
64,192,41253,1,0,0:0:0:0:
320,192,41285,1,0,0:0:0:0:
192,192,41317,1,0,0:0:0:0:
448,192,41349,1,0,0:0:0:0:
64,192,41382,1,0,0:0:0:0:
320,192,41414,1,0,0:0:0:0:
448,192,41446,1,0,0:0:0:0:
64,192,41478,1,0,0:0:0:0:
192,192,41511,1,0,0:0:0:0:
320,192,41543,1,0,0:0:0:0:
64,192,41575,1,0,0:0:0:0:
192,192,41607,1,0,0:0:0:0:
448,192,41640,1,0,0:0:0:0:
64,192,41672,1,0,0:0:0:0:
320,192,41704,1,0,0:0:0:0:
448,192,41736,1,0,0:0:0:0:
192,192,41769,1,0,0:0:0:0:
320,192,41801,1,0,0:0:0:0:
448,192,41833,1,0,0:0:0:0:
64,192,41866,1,0,0:0:0:0:
192,192,41898,1,0,0:0:0:0:
320,192,41930,1,0,0:0:0:0:
64,192,41962,1,0,0:0:0:0:
448,192,41995,1,0,0:0:0:0:
320,192,42027,1,0,0:0:0:0:
192,192,42059,1,0,0:0:0:0:
64,192,42091,1,0,0:0:0:0:
448,192,42124,1,0,0:0:0:0:
320,192,42156,1,0,0:0:0:0:
192,192,42188,1,0,0:0:0:0:
448,192,42220,1,0,0:0:0:0:
64,192,42253,1,0,0:0:0:0:
192,192,42285,1,0,0:0:0:0:
320,192,42317,1,0,0:0:0:0:
448,192,42349,1,0,0:0:0:0:
64,192,42382,1,0,0:0:0:0:
320,192,42414,1,0,0:0:0:0:
192,192,42446,1,0,0:0:0:0:
448,192,42478,1,0,0:0:0:0:
64,192,42511,1,0,0:0:0:0:
320,192,42543,1,0,0:0:0:0:
448,192,42575,1,0,0:0:0:0:
192,192,42607,1,0,0:0:0:0:
64,192,42640,1,0,0:0:0:0:
320,192,42672,1,0,0:0:0:0:
448,192,42704,1,0,0:0:0:0:
64,192,42736,1,0,0:0:0:0:
192,192,42769,1,0,0:0:0:0:
448,192,42801,1,0,0:0:0:0:
320,192,42833,1,0,0:0:0:0:
192,192,42866,1,0,0:0:0:0:
64,192,42898,1,0,0:0:0:0:
320,192,42930,1,0,0:0:0:0:
448,192,42962,1,0,0:0:0:0:
192,192,42995,1,0,0:0:0:0:
320,192,43027,1,0,0:0:0:0:
64,192,43059,1,0,0:0:0:0:
192,192,43091,1,0,0:0:0:0:
448,192,43124,1,0,0:0:0:0:
320,192,43156,1,0,0:0:0:0:
192,192,43188,1,0,0:0:0:0:
64,192,43220,1,0,0:0:0:0:
320,192,43253,1,0,0:0:0:0:
192,192,43285,1,0,0:0:0:0:
448,192,43317,1,0,0:0:0:0:
320,192,43349,1,0,0:0:0:0:
64,192,43382,1,0,0:0:0:0:
192,192,43414,1,0,0:0:0:0:
320,192,43446,1,0,0:0:0:0:
448,192,43478,1,0,0:0:0:0:
64,192,43511,1,0,0:0:0:0:
192,192,43543,1,0,0:0:0:0:
320,192,43575,1,0,0:0:0:0:
64,192,43607,1,0,0:0:0:0:
448,192,43640,1,0,0:0:0:0:
192,192,43672,1,0,0:0:0:0:
64,192,43704,1,0,0:0:0:0:
320,192,43736,1,0,0:0:0:0:
448,192,43769,1,0,0:0:0:0:
64,192,43801,1,0,0:0:0:0:
320,192,43833,1,0,0:0:0:0:
192,192,43866,1,0,0:0:0:0:
448,192,43898,1,0,0:0:0:0:
64,192,43930,1,0,0:0:0:0:
320,192,43962,1,0,0:0:0:0:
192,192,43995,1,0,0:0:0:0:
448,192,44027,1,0,0:0:0:0:
64,192,44059,1,0,0:0:0:0:
320,192,44091,1,0,0:0:0:0:
192,192,44124,1,0,0:0:0:0:
64,192,44156,1,0,0:0:0:0:
448,192,44188,1,0,0:0:0:0:
192,192,44220,1,0,0:0:0:0:
320,192,44253,1,0,0:0:0:0:
64,192,44285,1,0,0:0:0:0:
448,192,44317,1,0,0:0:0:0:
320,192,44349,1,0,0:0:0:0:
192,192,44382,1,0,0:0:0:0:
448,192,44414,1,0,0:0:0:0:
320,192,44446,1,0,0:0:0:0:
64,192,44478,1,0,0:0:0:0:
192,192,44511,1,0,0:0:0:0:
320,192,44543,1,0,0:0:0:0:
448,192,44575,1,0,0:0:0:0:
64,192,44607,1,0,0:0:0:0:
192,192,44640,1,0,0:0:0:0:
320,192,44672,1,0,0:0:0:0:
64,192,44704,1,0,0:0:0:0:
192,192,44736,1,0,0:0:0:0:
448,192,44769,1,0,0:0:0:0:
64,192,44801,1,0,0:0:0:0:
320,192,44833,1,0,0:0:0:0:
448,192,44866,1,0,0:0:0:0:
192,192,44898,1,0,0:0:0:0:
320,192,44930,1,0,0:0:0:0:
448,192,44962,1,0,0:0:0:0:
64,192,44995,1,0,0:0:0:0:
192,192,45027,1,0,0:0:0:0:
320,192,45059,1,0,0:0:0:0:
448,192,45091,1,0,0:0:0:0:
192,192,45285,1,0,0:0:0:0:
320,192,45317,1,0,0:0:0:0:
448,192,45349,1,0,0:0:0:0:
64,192,45382,1,0,0:0:0:0:
192,192,45414,1,0,0:0:0:0:
320,192,45446,1,0,0:0:0:0:
64,192,45478,1,0,0:0:0:0:
192,192,45511,1,0,0:0:0:0:
448,192,45543,1,0,0:0:0:0:
64,192,45575,1,0,0:0:0:0:
320,192,45607,1,0,0:0:0:0:
448,192,45640,1,0,0:0:0:0:
192,192,45672,1,0,0:0:0:0:
320,192,45704,1,0,0:0:0:0:
448,192,45736,1,0,0:0:0:0:
64,192,45769,1,0,0:0:0:0:
192,192,45801,1,0,0:0:0:0:
320,192,45833,1,0,0:0:0:0:
448,192,45866,1,0,0:0:0:0:
192,192,46059,1,0,0:0:0:0:
320,192,46091,1,0,0:0:0:0:
448,192,46124,1,0,0:0:0:0:
64,192,46156,1,0,0:0:0:0:
192,192,46188,1,0,0:0:0:0:
320,192,46220,1,0,0:0:0:0:
64,192,46253,1,0,0:0:0:0:
192,192,46285,1,0,0:0:0:0:
448,192,46317,1,0,0:0:0:0:
64,192,46349,1,0,0:0:0:0:
320,192,46382,1,0,0:0:0:0:
448,192,46414,1,0,0:0:0:0:
192,192,46446,1,0,0:0:0:0:
320,192,46478,1,0,0:0:0:0:
448,192,46511,1,0,0:0:0:0:
64,192,46543,1,0,0:0:0:0:
192,192,46575,1,0,0:0:0:0:
320,192,46607,1,0,0:0:0:0:
448,192,46640,1,0,0:0:0:0:
192,192,46833,1,0,0:0:0:0:
320,192,46866,1,0,0:0:0:0:
448,192,46898,1,0,0:0:0:0:
64,192,46930,1,0,0:0:0:0:
192,192,46962,1,0,0:0:0:0:
320,192,46995,1,0,0:0:0:0:
64,192,47027,1,0,0:0:0:0:
192,192,47059,1,0,0:0:0:0:
448,192,47091,1,0,0:0:0:0:
64,192,47124,1,0,0:0:0:0:
320,192,47156,1,0,0:0:0:0:
448,192,47188,1,0,0:0:0:0:
192,192,47220,1,0,0:0:0:0:
320,192,47253,1,0,0:0:0:0:
448,192,47285,1,0,0:0:0:0:
64,192,47317,1,0,0:0:0:0:
192,192,47349,1,0,0:0:0:0:
320,192,47382,1,0,0:0:0:0:
448,192,47414,1,0,0:0:0:0:
192,192,47446,1,0,0:0:0:0:
320,192,47478,1,0,0:0:0:0:
64,192,47511,1,0,0:0:0:0:
192,192,47543,1,0,0:0:0:0:
320,192,47575,1,0,0:0:0:0:
64,192,47801,1,0,0:0:0:0:
192,192,47833,1,0,0:0:0:0:
320,192,47866,1,0,0:0:0:0:
448,192,47898,1,0,0:0:0:0:
64,192,47930,1,0,0:0:0:0:
192,192,47962,1,0,0:0:0:0:
320,192,47995,1,0,0:0:0:0:
448,192,48027,1,0,0:0:0:0:
192,192,48059,1,0,0:0:0:0:
64,192,48091,1,0,0:0:0:0:
320,192,48124,1,0,0:0:0:0:
192,192,48156,1,0,0:0:0:0:
448,192,48188,1,0,0:0:0:0:
320,192,48220,1,0,0:0:0:0:
64,192,48253,1,0,0:0:0:0:
192,192,48285,1,0,0:0:0:0:
320,192,48317,1,0,0:0:0:0:
448,192,48349,1,0,0:0:0:0:
64,192,48382,1,0,0:0:0:0:
320,192,48414,1,0,0:0:0:0:
192,192,48446,1,0,0:0:0:0:
448,192,48478,1,0,0:0:0:0:
64,192,48511,1,0,0:0:0:0:
320,192,48543,1,0,0:0:0:0:
192,192,48575,1,0,0:0:0:0:
448,192,48607,1,0,0:0:0:0:
320,192,48640,1,0,0:0:0:0:
192,192,48672,1,0,0:0:0:0:
448,192,48704,1,0,0:0:0:0:
64,192,48736,1,0,0:0:0:0:
192,192,48769,1,0,0:0:0:0:
320,192,48801,1,0,0:0:0:0:
64,192,48833,1,0,0:0:0:0:
448,192,48866,1,0,0:0:0:0:
320,192,48898,1,0,0:0:0:0:
192,192,48930,1,0,0:0:0:0:
64,192,48962,1,0,0:0:0:0:
448,192,48995,1,0,0:0:0:0:
192,192,49027,1,0,0:0:0:0:
320,192,49059,1,0,0:0:0:0:
448,192,49091,1,0,0:0:0:0:
64,192,49124,1,0,0:0:0:0:
192,192,49156,1,0,0:0:0:0:
320,192,49188,1,0,0:0:0:0:
448,192,49220,1,0,0:0:0:0:
64,192,49253,1,0,0:0:0:0:
320,192,49285,1,0,0:0:0:0:
192,192,49317,1,0,0:0:0:0:
64,192,49349,1,0,0:0:0:0:
448,192,49349,1,0,0:0:0:0:
192,192,49543,1,0,0:0:0:0:
320,192,49543,1,0,0:0:0:0:
64,192,49736,1,0,0:0:0:0:
192,192,49930,1,0,0:0:0:0:
320,192,49930,1,0,0:0:0:0:
448,192,50124,1,0,0:0:0:0:
192,192,50317,1,0,0:0:0:0:
320,192,50317,1,0,0:0:0:0:
64,192,50511,1,0,0:0:0:0:
448,192,50704,1,0,0:0:0:0:
192,192,50736,1,0,0:0:0:0:
320,192,50769,1,0,0:0:0:0:
64,192,50801,1,0,0:0:0:0:
192,192,50833,1,0,0:0:0:0:
320,192,50866,1,0,0:0:0:0:
448,192,50898,1,0,0:0:0:0:
64,192,50930,1,0,0:0:0:0:
320,192,50962,1,0,0:0:0:0:
192,192,50995,1,0,0:0:0:0:
448,192,51027,1,0,0:0:0:0:
64,192,51059,1,0,0:0:0:0:
192,192,51091,1,0,0:0:0:0:
320,192,51124,1,0,0:0:0:0:
448,192,51156,1,0,0:0:0:0:
192,192,51188,1,0,0:0:0:0:
64,192,51220,1,0,0:0:0:0:
448,192,51253,1,0,0:0:0:0:
320,192,51285,1,0,0:0:0:0:
64,192,51317,1,0,0:0:0:0:
192,192,51349,1,0,0:0:0:0:
448,192,51382,1,0,0:0:0:0:
64,192,51414,1,0,0:0:0:0:
320,192,51446,1,0,0:0:0:0:
192,192,51478,1,0,0:0:0:0:
448,192,51511,1,0,0:0:0:0:
64,192,51543,1,0,0:0:0:0:
320,192,51575,1,0,0:0:0:0:
192,192,51607,1,0,0:0:0:0:
448,192,51640,1,0,0:0:0:0:
320,192,51672,1,0,0:0:0:0:
64,192,51704,1,0,0:0:0:0:
448,192,51736,1,0,0:0:0:0:
192,192,51769,1,0,0:0:0:0:
320,192,51801,1,0,0:0:0:0:
64,192,51833,1,0,0:0:0:0:
192,192,51866,1,0,0:0:0:0:
320,192,51898,1,0,0:0:0:0:
64,192,51930,1,0,0:0:0:0:
448,192,51962,1,0,0:0:0:0:
320,192,51995,1,0,0:0:0:0:
192,192,52027,1,0,0:0:0:0:
64,192,52059,1,0,0:0:0:0:
448,192,52091,1,0,0:0:0:0:
192,192,52124,1,0,0:0:0:0:
320,192,52156,1,0,0:0:0:0:
64,192,52188,1,0,0:0:0:0:
448,192,52220,1,0,0:0:0:0:
192,192,52253,1,0,0:0:0:0:
320,192,52285,1,0,0:0:0:0:
64,192,52317,1,0,0:0:0:0:
448,192,52349,1,0,0:0:0:0:
320,192,52382,1,0,0:0:0:0:
192,192,52414,1,0,0:0:0:0:
64,192,52446,1,0,0:0:0:0:
448,192,52446,1,0,0:0:0:0:
64,192,52640,1,0,0:0:0:0:
192,192,52640,1,0,0:0:0:0:
320,192,52640,1,0,0:0:0:0:
192,192,53027,1,0,0:0:0:0:
320,192,53027,1,0,0:0:0:0:
448,192,53027,1,0,0:0:0:0:
64,192,53124,1,0,0:0:0:0:
64,192,53220,1,0,0:0:0:0:
64,192,53317,1,0,0:0:0:0:
192,192,53414,1,0,0:0:0:0:
320,192,53414,1,0,0:0:0:0:
448,192,53414,1,0,0:0:0:0:
320,192,53607,1,0,0:0:0:0:
448,192,53607,1,0,0:0:0:0:
320,192,53704,1,0,0:0:0:0:
448,192,53704,1,0,0:0:0:0:
64,192,53801,1,0,0:0:0:0:
192,192,53801,1,0,0:0:0:0:
320,192,53801,1,0,0:0:0:0:
448,192,53801,1,0,0:0:0:0:
64,192,53995,1,0,0:0:0:0:
192,192,53995,1,0,0:0:0:0:
320,192,54043,1,0,0:0:0:0:
448,192,54043,1,0,0:0:0:0:
64,192,54091,1,0,0:0:0:0:
192,192,54091,1,0,0:0:0:0:
320,192,54140,1,0,0:0:0:0:
448,192,54140,1,0,0:0:0:0:
64,192,54188,1,0,0:0:0:0:
192,192,54188,1,0,0:0:0:0:
320,192,54220,1,0,0:0:0:0:
448,192,54253,1,0,0:0:0:0:
192,192,54285,1,0,0:0:0:0:
64,192,54317,1,0,0:0:0:0:
320,192,54349,1,0,0:0:0:0:
192,192,54382,1,0,0:0:0:0:
64,192,54414,1,0,0:0:0:0:
448,192,54446,1,0,0:0:0:0:
320,192,54478,1,0,0:0:0:0:
192,192,54511,1,0,0:0:0:0:
64,192,54543,1,0,0:0:0:0:
320,192,54575,1,0,0:0:0:0:
192,192,54607,1,0,0:0:0:0:
448,192,54640,1,0,0:0:0:0:
64,192,54672,1,0,0:0:0:0:
192,192,54704,1,0,0:0:0:0:
320,192,54736,1,0,0:0:0:0:
448,192,54769,1,0,0:0:0:0:
64,192,54801,1,0,0:0:0:0:
192,192,54833,1,0,0:0:0:0:
320,192,54866,1,0,0:0:0:0:
64,192,54898,1,0,0:0:0:0:
448,192,54930,1,0,0:0:0:0:
192,192,54962,1,0,0:0:0:0:
320,192,54995,1,0,0:0:0:0:
64,192,55027,1,0,0:0:0:0:
448,192,55059,1,0,0:0:0:0:
192,192,55091,1,0,0:0:0:0:
64,192,55124,1,0,0:0:0:0:
320,192,55156,1,0,0:0:0:0:
448,192,55188,1,0,0:0:0:0:
64,192,55220,1,0,0:0:0:0:
192,192,55253,1,0,0:0:0:0:
448,192,55285,1,0,0:0:0:0:
320,192,55317,1,0,0:0:0:0:
64,192,55349,1,0,0:0:0:0:
192,192,55382,1,0,0:0:0:0:
320,192,55414,1,0,0:0:0:0:
64,192,55446,1,0,0:0:0:0:
448,192,55478,1,0,0:0:0:0:
192,192,55511,1,0,0:0:0:0:
320,192,55543,1,0,0:0:0:0:
64,192,55575,1,0,0:0:0:0:
192,192,55607,1,0,0:0:0:0:
320,192,55640,1,0,0:0:0:0:
448,192,55672,1,0,0:0:0:0:
64,192,55704,1,0,0:0:0:0:
192,192,55736,1,0,0:0:0:0:
320,192,55769,1,0,0:0:0:0:
64,192,55801,1,0,0:0:0:0:
448,192,55833,1,0,0:0:0:0:
192,192,55866,1,0,0:0:0:0:
320,192,55898,1,0,0:0:0:0:
64,192,55930,1,0,0:0:0:0:
448,192,55962,1,0,0:0:0:0:
192,192,55995,1,0,0:0:0:0:
320,192,56027,1,0,0:0:0:0:
64,192,56059,1,0,0:0:0:0:
448,192,56091,1,0,0:0:0:0:
192,192,56124,1,0,0:0:0:0:
64,192,56156,1,0,0:0:0:0:
320,192,56188,1,0,0:0:0:0:
448,192,56220,1,0,0:0:0:0:
192,192,56253,1,0,0:0:0:0:
64,192,56285,1,0,0:0:0:0:
320,192,56317,1,0,0:0:0:0:
448,192,56349,1,0,0:0:0:0:
192,192,56382,1,0,0:0:0:0:
64,192,56414,1,0,0:0:0:0:
320,192,56446,1,0,0:0:0:0:
448,192,56478,1,0,0:0:0:0:
192,192,56511,1,0,0:0:0:0:
64,192,56543,1,0,0:0:0:0:
448,192,56575,1,0,0:0:0:0:
320,192,56607,1,0,0:0:0:0:
192,192,56640,1,0,0:0:0:0:
448,192,56672,1,0,0:0:0:0:
64,192,56704,1,0,0:0:0:0:
320,192,56736,1,0,0:0:0:0:
192,192,56769,1,0,0:0:0:0:
448,192,56801,1,0,0:0:0:0:
64,192,56833,1,0,0:0:0:0:
192,192,56866,1,0,0:0:0:0:
448,192,56898,1,0,0:0:0:0:
320,192,56930,1,0,0:0:0:0:
64,192,56962,1,0,0:0:0:0:
448,192,56995,1,0,0:0:0:0:
192,192,57027,1,0,0:0:0:0:
64,192,57059,1,0,0:0:0:0:
320,192,57091,1,0,0:0:0:0:
448,192,57124,1,0,0:0:0:0:
64,192,57156,1,0,0:0:0:0:
320,192,57188,1,0,0:0:0:0:
192,192,57220,1,0,0:0:0:0:
448,192,57253,1,0,0:0:0:0:
320,192,57285,1,0,0:0:0:0:
64,192,57317,1,0,0:0:0:0:
448,192,57349,1,0,0:0:0:0:
192,192,57382,1,0,0:0:0:0:
320,192,57414,1,0,0:0:0:0:
64,192,57446,1,0,0:0:0:0:
448,192,57478,1,0,0:0:0:0:
192,192,57511,1,0,0:0:0:0:
320,192,57543,1,0,0:0:0:0:
64,192,57575,1,0,0:0:0:0:
448,192,57607,1,0,0:0:0:0:
192,192,57640,1,0,0:0:0:0:
320,192,57672,1,0,0:0:0:0:
448,192,57704,1,0,0:0:0:0:
64,192,57736,1,0,0:0:0:0:
192,192,57769,1,0,0:0:0:0:
320,192,57801,1,0,0:0:0:0:
448,192,57833,1,0,0:0:0:0:
64,192,57866,1,0,0:0:0:0:
192,192,57898,1,0,0:0:0:0:
320,192,57930,1,0,0:0:0:0:
448,192,57962,1,0,0:0:0:0:
64,192,57995,1,0,0:0:0:0:
192,192,58027,1,0,0:0:0:0:
320,192,58059,1,0,0:0:0:0:
64,192,58091,1,0,0:0:0:0:
448,192,58124,1,0,0:0:0:0:
192,192,58156,1,0,0:0:0:0:
320,192,58188,1,0,0:0:0:0:
64,192,58220,1,0,0:0:0:0:
448,192,58253,1,0,0:0:0:0:
192,192,58285,1,0,0:0:0:0:
64,192,58317,1,0,0:0:0:0:
320,192,58349,1,0,0:0:0:0:
448,192,58382,1,0,0:0:0:0:
192,192,58414,1,0,0:0:0:0:
64,192,58446,1,0,0:0:0:0:
320,192,58478,1,0,0:0:0:0:
192,192,58511,1,0,0:0:0:0:
448,192,58543,1,0,0:0:0:0:
320,192,58575,1,0,0:0:0:0:
192,192,58607,1,0,0:0:0:0:
64,192,58640,1,0,0:0:0:0:
448,192,58672,1,0,0:0:0:0:
192,192,58704,1,0,0:0:0:0:
320,192,58736,1,0,0:0:0:0:
448,192,58769,1,0,0:0:0:0:
64,192,58801,1,0,0:0:0:0:
192,192,58833,1,0,0:0:0:0:
320,192,58866,1,0,0:0:0:0:
64,192,58898,1,0,0:0:0:0:
448,192,58930,1,0,0:0:0:0:
320,192,58962,1,0,0:0:0:0:
192,192,58995,1,0,0:0:0:0:
64,192,59027,1,0,0:0:0:0:
448,192,59059,1,0,0:0:0:0:
192,192,59091,1,0,0:0:0:0:
320,192,59124,1,0,0:0:0:0:
448,192,59156,1,0,0:0:0:0:
64,192,59188,1,0,0:0:0:0:
320,192,59220,1,0,0:0:0:0:
192,192,59253,1,0,0:0:0:0:
64,192,59285,1,0,0:0:0:0:
448,192,59317,1,0,0:0:0:0:
192,192,59349,1,0,0:0:0:0:
320,192,59382,1,0,0:0:0:0:
448,192,59414,1,0,0:0:0:0:
64,192,59446,1,0,0:0:0:0:
320,192,59478,1,0,0:0:0:0:
192,192,59511,1,0,0:0:0:0:
64,192,59543,1,0,0:0:0:0:
448,192,59575,1,0,0:0:0:0:
320,192,59607,1,0,0:0:0:0:
192,192,59640,1,0,0:0:0:0:
448,192,59672,1,0,0:0:0:0:
64,192,59704,1,0,0:0:0:0:
320,192,59736,1,0,0:0:0:0:
192,192,59769,1,0,0:0:0:0:
448,192,59801,1,0,0:0:0:0:
64,192,59833,1,0,0:0:0:0:
320,192,59866,1,0,0:0:0:0:
448,192,59898,1,0,0:0:0:0:
192,192,59930,1,0,0:0:0:0:
64,192,59962,1,0,0:0:0:0:
448,192,59995,1,0,0:0:0:0:
320,192,60027,1,0,0:0:0:0:
192,192,60059,1,0,0:0:0:0:
64,192,60091,1,0,0:0:0:0:
320,192,60124,1,0,0:0:0:0:
448,192,60156,1,0,0:0:0:0:
192,192,60188,1,0,0:0:0:0:
64,192,60220,1,0,0:0:0:0:
448,192,60253,1,0,0:0:0:0:
192,192,60285,1,0,0:0:0:0:
320,192,60317,1,0,0:0:0:0:
64,192,60349,1,0,0:0:0:0:
448,192,60382,1,0,0:0:0:0:
192,192,60414,1,0,0:0:0:0:
320,192,60446,1,0,0:0:0:0:
448,192,60478,1,0,0:0:0:0:
64,192,60511,1,0,0:0:0:0:
320,192,60543,1,0,0:0:0:0:
192,192,60575,1,0,0:0:0:0:
448,192,60607,1,0,0:0:0:0:
64,192,60640,1,0,0:0:0:0:
192,192,60672,1,0,0:0:0:0:
320,192,60704,1,0,0:0:0:0:
448,192,60736,1,0,0:0:0:0:
64,192,60769,1,0,0:0:0:0:
320,192,60801,1,0,0:0:0:0:
192,192,60833,1,0,0:0:0:0:
64,192,60866,1,0,0:0:0:0:
448,192,60898,1,0,0:0:0:0:
320,192,60930,1,0,0:0:0:0:
192,192,60962,1,0,0:0:0:0:
448,192,60995,1,0,0:0:0:0:
64,192,61027,1,0,0:0:0:0:
192,192,61059,1,0,0:0:0:0:
320,192,61091,1,0,0:0:0:0:
448,192,61124,1,0,0:0:0:0:
64,192,61156,1,0,0:0:0:0:
192,192,61188,1,0,0:0:0:0:
448,192,61220,1,0,0:0:0:0:
320,192,61253,1,0,0:0:0:0:
192,192,61285,1,0,0:0:0:0:
448,192,61317,1,0,0:0:0:0:
64,192,61349,1,0,0:0:0:0:
320,192,61382,1,0,0:0:0:0:
192,192,61414,1,0,0:0:0:0:
448,192,61446,1,0,0:0:0:0:
64,192,61478,1,0,0:0:0:0:
320,192,61511,1,0,0:0:0:0:
448,192,61543,1,0,0:0:0:0:
192,192,61575,1,0,0:0:0:0:
64,192,61607,1,0,0:0:0:0:
448,192,61640,1,0,0:0:0:0:
320,192,61672,1,0,0:0:0:0:
192,192,61704,1,0,0:0:0:0:
64,192,61736,1,0,0:0:0:0:
320,192,61769,1,0,0:0:0:0:
448,192,61801,1,0,0:0:0:0:
64,192,61833,1,0,0:0:0:0:
192,192,61866,1,0,0:0:0:0:
320,192,61898,1,0,0:0:0:0:
448,192,61930,1,0,0:0:0:0:
64,192,61962,1,0,0:0:0:0:
320,192,61995,1,0,0:0:0:0:
192,192,62027,1,0,0:0:0:0:
64,192,62059,1,0,0:0:0:0:
448,192,62091,1,0,0:0:0:0:
320,192,62124,1,0,0:0:0:0:
192,192,62156,1,0,0:0:0:0:
64,192,62188,1,0,0:0:0:0:
448,192,62220,1,0,0:0:0:0:
192,192,62253,1,0,0:0:0:0:
320,192,62285,1,0,0:0:0:0:
64,192,62317,1,0,0:0:0:0:
448,192,62349,1,0,0:0:0:0:
320,192,62382,1,0,0:0:0:0:
192,192,62414,1,0,0:0:0:0:
64,192,62446,1,0,0:0:0:0:
448,192,62478,1,0,0:0:0:0:
320,192,62511,1,0,0:0:0:0:
64,192,62543,1,0,0:0:0:0:
192,192,62575,1,0,0:0:0:0:
320,192,62607,1,0,0:0:0:0:
64,192,62640,1,0,0:0:0:0:
448,192,62672,1,0,0:0:0:0:
192,192,62704,1,0,0:0:0:0:
320,192,62736,1,0,0:0:0:0:
448,192,62769,1,0,0:0:0:0:
192,192,62801,1,0,0:0:0:0:
64,192,62833,1,0,0:0:0:0:
448,192,62866,1,0,0:0:0:0:
192,192,62898,1,0,0:0:0:0:
320,192,62930,1,0,0:0:0:0:
64,192,62962,1,0,0:0:0:0:
448,192,62995,1,0,0:0:0:0:
192,192,63027,1,0,0:0:0:0:
320,192,63059,1,0,0:0:0:0:
448,192,63091,1,0,0:0:0:0:
64,192,63124,1,0,0:0:0:0:
192,192,63156,1,0,0:0:0:0:
320,192,63188,1,0,0:0:0:0:
64,192,63220,1,0,0:0:0:0:
192,192,63253,1,0,0:0:0:0:
448,192,63285,1,0,0:0:0:0:
320,192,63317,1,0,0:0:0:0:
192,192,63349,1,0,0:0:0:0:
64,192,63382,1,0,0:0:0:0:
448,192,63414,1,0,0:0:0:0:
320,192,63446,1,0,0:0:0:0:
192,192,63478,1,0,0:0:0:0:
448,192,63511,1,0,0:0:0:0:
64,192,63543,1,0,0:0:0:0:
320,192,63575,1,0,0:0:0:0:
192,192,63607,1,0,0:0:0:0:
448,192,63640,1,0,0:0:0:0:
64,192,63672,1,0,0:0:0:0:
192,192,63704,1,0,0:0:0:0:
320,192,63736,1,0,0:0:0:0:
64,192,63769,1,0,0:0:0:0:
448,192,63801,1,0,0:0:0:0:
192,192,63833,1,0,0:0:0:0:
320,192,63866,1,0,0:0:0:0:
448,192,63898,1,0,0:0:0:0:
64,192,63930,1,0,0:0:0:0:
192,192,63962,1,0,0:0:0:0:
448,192,63995,1,0,0:0:0:0:
64,192,64027,1,0,0:0:0:0:
320,192,64059,1,0,0:0:0:0:
448,192,64091,1,0,0:0:0:0:
192,192,64124,1,0,0:0:0:0:
64,192,64156,1,0,0:0:0:0:
448,192,64188,1,0,0:0:0:0:
320,192,64220,1,0,0:0:0:0:
192,192,64253,1,0,0:0:0:0:
64,192,64285,1,0,0:0:0:0:
448,192,64317,1,0,0:0:0:0:
192,192,64349,1,0,0:0:0:0:
320,192,64382,1,0,0:0:0:0:
64,192,64414,1,0,0:0:0:0:
448,192,64446,1,0,0:0:0:0:
192,192,64478,1,0,0:0:0:0:
320,192,64511,1,0,0:0:0:0:
448,192,64543,1,0,0:0:0:0:
64,192,64575,1,0,0:0:0:0:
320,192,64607,1,0,0:0:0:0:
192,192,64640,1,0,0:0:0:0:
64,192,64672,1,0,0:0:0:0:
448,192,64704,1,0,0:0:0:0:
320,192,64736,1,0,0:0:0:0:
192,192,64769,1,0,0:0:0:0:
448,192,64801,1,0,0:0:0:0:
64,192,64833,1,0,0:0:0:0:
320,192,64866,1,0,0:0:0:0:
192,192,64898,1,0,0:0:0:0:
448,192,64930,1,0,0:0:0:0:
64,192,64962,1,0,0:0:0:0:
192,192,64995,1,0,0:0:0:0:
320,192,65027,1,0,0:0:0:0:
448,192,65059,1,0,0:0:0:0:
64,192,65091,1,0,0:0:0:0:
320,192,65124,1,0,0:0:0:0:
448,192,65156,1,0,0:0:0:0:
192,192,65188,1,0,0:0:0:0:
320,192,65220,1,0,0:0:0:0:
448,192,65253,1,0,0:0:0:0:
64,192,65285,1,0,0:0:0:0:
320,192,65317,1,0,0:0:0:0:
448,192,65349,1,0,0:0:0:0:
192,192,65382,1,0,0:0:0:0:
320,192,65414,1,0,0:0:0:0:
448,192,65446,1,0,0:0:0:0:
64,192,65478,1,0,0:0:0:0:
320,192,65511,1,0,0:0:0:0:
448,192,65543,1,0,0:0:0:0:
192,192,65575,1,0,0:0:0:0:
320,192,65607,1,0,0:0:0:0:
448,192,65640,1,0,0:0:0:0:
64,192,65672,1,0,0:0:0:0:
320,192,65704,1,0,0:0:0:0:
448,192,65736,1,0,0:0:0:0:
192,192,65769,1,0,0:0:0:0:
320,192,65801,1,0,0:0:0:0:
448,192,65833,1,0,0:0:0:0:
64,192,65866,1,0,0:0:0:0:
320,192,65898,1,0,0:0:0:0:
448,192,65930,1,0,0:0:0:0:
192,192,65962,1,0,0:0:0:0:
320,192,65995,1,0,0:0:0:0:
448,192,66027,1,0,0:0:0:0:
64,192,66059,1,0,0:0:0:0:
320,192,66091,1,0,0:0:0:0:
448,192,66124,1,0,0:0:0:0:
192,192,66156,1,0,0:0:0:0:
64,192,66188,1,0,0:0:0:0:
448,192,66220,1,0,0:0:0:0:
320,192,66253,1,0,0:0:0:0:
192,192,66285,1,0,0:0:0:0:
64,192,66317,1,0,0:0:0:0:
448,192,66349,1,0,0:0:0:0:
192,192,66382,1,0,0:0:0:0:
64,192,66414,1,0,0:0:0:0:
320,192,66446,1,0,0:0:0:0:
192,192,66478,1,0,0:0:0:0:
448,192,66511,1,0,0:0:0:0:
320,192,66543,1,0,0:0:0:0:
64,192,66575,1,0,0:0:0:0:
448,192,66607,1,0,0:0:0:0:
320,192,66640,1,0,0:0:0:0:
192,192,66672,1,0,0:0:0:0:
64,192,66704,1,0,0:0:0:0:
448,192,66736,1,0,0:0:0:0:
320,192,66769,1,0,0:0:0:0:
64,192,66962,1,0,0:0:0:0:
448,192,66995,1,0,0:0:0:0:
320,192,67027,1,0,0:0:0:0:
192,192,67059,1,0,0:0:0:0:
64,192,67091,1,0,0:0:0:0:
448,192,67124,1,0,0:0:0:0:
192,192,67156,1,0,0:0:0:0:
64,192,67188,1,0,0:0:0:0:
320,192,67220,1,0,0:0:0:0:
192,192,67253,1,0,0:0:0:0:
448,192,67285,1,0,0:0:0:0:
320,192,67317,1,0,0:0:0:0:
64,192,67349,1,0,0:0:0:0:
448,192,67382,1,0,0:0:0:0:
320,192,67414,1,0,0:0:0:0:
192,192,67446,1,0,0:0:0:0:
64,192,67478,1,0,0:0:0:0:
448,192,67511,1,0,0:0:0:0:
320,192,67543,1,0,0:0:0:0:
64,192,67736,1,0,0:0:0:0:
448,192,67769,1,0,0:0:0:0:
320,192,67801,1,0,0:0:0:0:
192,192,67833,1,0,0:0:0:0:
64,192,67866,1,0,0:0:0:0:
448,192,67898,1,0,0:0:0:0:
192,192,67930,1,0,0:0:0:0:
64,192,67962,1,0,0:0:0:0:
320,192,67995,1,0,0:0:0:0:
192,192,68027,1,0,0:0:0:0:
448,192,68059,1,0,0:0:0:0:
320,192,68091,1,0,0:0:0:0:
64,192,68124,1,0,0:0:0:0:
448,192,68156,1,0,0:0:0:0:
320,192,68188,1,0,0:0:0:0:
192,192,68220,1,0,0:0:0:0:
64,192,68253,1,0,0:0:0:0:
448,192,68285,1,0,0:0:0:0:
320,192,68317,1,0,0:0:0:0:
64,192,68511,1,0,0:0:0:0:
448,192,68543,1,0,0:0:0:0:
320,192,68575,1,0,0:0:0:0:
192,192,68607,1,0,0:0:0:0:
64,192,68640,1,0,0:0:0:0:
448,192,68672,1,0,0:0:0:0:
192,192,68704,1,0,0:0:0:0:
64,192,68736,1,0,0:0:0:0:
320,192,68769,1,0,0:0:0:0:
192,192,68801,1,0,0:0:0:0:
448,192,68833,1,0,0:0:0:0:
320,192,68866,1,0,0:0:0:0:
64,192,68898,1,0,0:0:0:0:
448,192,68930,1,0,0:0:0:0:
320,192,68962,1,0,0:0:0:0:
192,192,68995,1,0,0:0:0:0:
64,192,69027,1,0,0:0:0:0:
448,192,69059,1,0,0:0:0:0:
320,192,69091,1,0,0:0:0:0:
192,192,69124,1,0,0:0:0:0:
448,192,69156,1,0,0:0:0:0:
64,192,69188,1,0,0:0:0:0:
320,192,69220,1,0,0:0:0:0:
192,192,69253,1,0,0:0:0:0:
448,192,69285,1,0,0:0:0:0:
320,192,69317,1,0,0:0:0:0:
192,192,69349,1,0,0:0:0:0:
64,192,69382,1,0,0:0:0:0:
448,192,69414,1,0,0:0:0:0:
192,192,69446,1,0,0:0:0:0:
64,192,69478,1,0,0:0:0:0:
320,192,69511,1,0,0:0:0:0:
192,192,69543,1,0,0:0:0:0:
448,192,69575,1,0,0:0:0:0:
320,192,69607,1,0,0:0:0:0:
64,192,69640,1,0,0:0:0:0:
448,192,69672,1,0,0:0:0:0:
320,192,69704,1,0,0:0:0:0:
192,192,69736,1,0,0:0:0:0:
64,192,69769,1,0,0:0:0:0:
448,192,69801,1,0,0:0:0:0:
192,192,69833,1,0,0:0:0:0:
320,192,69866,1,0,0:0:0:0:
448,192,69898,1,0,0:0:0:0:
64,192,69930,1,0,0:0:0:0:
192,192,69962,1,0,0:0:0:0:
320,192,69995,1,0,0:0:0:0:
448,192,70027,1,0,0:0:0:0:
64,192,70059,1,0,0:0:0:0:
320,192,70091,1,0,0:0:0:0:
192,192,70124,1,0,0:0:0:0:
64,192,70156,1,0,0:0:0:0:
448,192,70188,1,0,0:0:0:0:
320,192,70220,1,0,0:0:0:0:
192,192,70253,1,0,0:0:0:0:
448,192,70285,1,0,0:0:0:0:
64,192,70317,1,0,0:0:0:0:
320,192,70349,1,0,0:0:0:0:
192,192,70382,1,0,0:0:0:0:
448,192,70414,1,0,0:0:0:0:
320,192,70446,1,0,0:0:0:0:
64,192,70478,1,0,0:0:0:0:
192,192,70511,1,0,0:0:0:0:
448,192,70543,1,0,0:0:0:0:
320,192,70575,1,0,0:0:0:0:
192,192,70607,1,0,0:0:0:0:
64,192,70640,1,0,0:0:0:0:
320,192,70672,1,0,0:0:0:0:
448,192,70704,1,0,0:0:0:0:
64,192,70736,1,0,0:0:0:0:
192,192,70769,1,0,0:0:0:0:
448,192,70801,1,0,0:0:0:0:
320,192,70833,1,0,0:0:0:0:
64,192,70866,1,0,0:0:0:0:
448,192,70898,1,0,0:0:0:0:
192,192,70930,1,0,0:0:0:0:
64,192,70962,1,0,0:0:0:0:
320,192,70995,1,0,0:0:0:0:
448,192,71027,1,0,0:0:0:0:
64,192,71059,1,0,0:0:0:0:
192,192,71091,1,0,0:0:0:0:
448,192,71124,1,0,0:0:0:0:
64,192,71156,1,0,0:0:0:0:
320,192,71188,1,0,0:0:0:0:
448,192,71220,1,0,0:0:0:0:
192,192,71253,1,0,0:0:0:0:
64,192,71285,1,0,0:0:0:0:
448,192,71317,1,0,0:0:0:0:
320,192,71349,1,0,0:0:0:0:
192,192,71382,1,0,0:0:0:0:
64,192,71414,1,0,0:0:0:0:
448,192,71446,1,0,0:0:0:0:
192,192,71478,1,0,0:0:0:0:
320,192,71511,1,0,0:0:0:0:
64,192,71543,1,0,0:0:0:0:
192,192,71575,1,0,0:0:0:0:
448,192,71607,1,0,0:0:0:0:
320,192,71640,1,0,0:0:0:0:
192,192,71672,1,0,0:0:0:0:
448,192,71704,1,0,0:0:0:0:
64,192,71736,1,0,0:0:0:0:
320,192,71769,1,0,0:0:0:0:
192,192,71801,1,0,0:0:0:0:
448,192,71833,1,0,0:0:0:0:
64,192,71866,1,0,0:0:0:0:
320,192,71898,1,0,0:0:0:0:
192,192,71930,1,0,0:0:0:0:
448,192,71962,1,0,0:0:0:0:
64,192,71995,1,0,0:0:0:0:
192,192,72027,1,0,0:0:0:0:
320,192,72059,1,0,0:0:0:0:
64,192,72091,1,0,0:0:0:0:
448,192,72124,1,0,0:0:0:0:
192,192,72156,1,0,0:0:0:0:
320,192,72188,1,0,0:0:0:0:
448,192,72220,1,0,0:0:0:0:
64,192,72253,1,0,0:0:0:0:
320,192,72285,1,0,0:0:0:0:
448,192,72317,1,0,0:0:0:0:
192,192,72349,1,0,0:0:0:0:
64,192,72382,1,0,0:0:0:0:
448,192,72414,1,0,0:0:0:0:
320,192,72446,1,0,0:0:0:0:
192,192,72478,1,0,0:0:0:0:
64,192,72511,1,0,0:0:0:0:
448,192,72543,1,0,0:0:0:0:
192,192,72575,1,0,0:0:0:0:
64,192,72607,1,0,0:0:0:0:
320,192,72640,1,0,0:0:0:0:
192,192,72672,1,0,0:0:0:0:
448,192,72704,1,0,0:0:0:0:
320,192,72736,1,0,0:0:0:0:
64,192,72769,1,0,0:0:0:0:
448,192,72801,1,0,0:0:0:0:
320,192,72833,1,0,0:0:0:0:
192,192,72866,1,0,0:0:0:0:
64,192,72898,1,0,0:0:0:0:
448,192,72930,1,0,0:0:0:0:
320,192,72962,1,0,0:0:0:0:
64,192,73156,1,0,0:0:0:0:
448,192,73188,1,0,0:0:0:0:
320,192,73220,1,0,0:0:0:0:
192,192,73253,1,0,0:0:0:0:
64,192,73285,1,0,0:0:0:0:
448,192,73317,1,0,0:0:0:0:
192,192,73349,1,0,0:0:0:0:
64,192,73382,1,0,0:0:0:0:
320,192,73414,1,0,0:0:0:0:
192,192,73446,1,0,0:0:0:0:
448,192,73478,1,0,0:0:0:0:
320,192,73511,1,0,0:0:0:0:
64,192,73543,1,0,0:0:0:0:
448,192,73575,1,0,0:0:0:0:
320,192,73607,1,0,0:0:0:0:
192,192,73640,1,0,0:0:0:0:
64,192,73672,1,0,0:0:0:0:
448,192,73704,1,0,0:0:0:0:
320,192,73736,1,0,0:0:0:0:
64,192,73930,1,0,0:0:0:0:
448,192,73962,1,0,0:0:0:0:
320,192,73995,1,0,0:0:0:0:
192,192,74027,1,0,0:0:0:0:
64,192,74059,1,0,0:0:0:0:
448,192,74091,1,0,0:0:0:0:
192,192,74124,1,0,0:0:0:0:
64,192,74156,1,0,0:0:0:0:
320,192,74188,1,0,0:0:0:0:
192,192,74220,1,0,0:0:0:0:
448,192,74253,1,0,0:0:0:0:
320,192,74285,1,0,0:0:0:0:
64,192,74317,1,0,0:0:0:0:
448,192,74349,1,0,0:0:0:0:
320,192,74382,1,0,0:0:0:0:
192,192,74414,1,0,0:0:0:0:
64,192,74446,1,0,0:0:0:0:
448,192,74478,1,0,0:0:0:0:
320,192,74511,1,0,0:0:0:0:
64,192,74704,1,0,0:0:0:0:
448,192,74736,1,0,0:0:0:0:
320,192,74769,1,0,0:0:0:0:
192,192,74801,1,0,0:0:0:0:
64,192,74833,1,0,0:0:0:0:
448,192,74866,1,0,0:0:0:0:
192,192,74898,1,0,0:0:0:0:
64,192,74930,1,0,0:0:0:0:
320,192,74962,1,0,0:0:0:0:
192,192,74995,1,0,0:0:0:0:
448,192,75027,1,0,0:0:0:0:
320,192,75059,1,0,0:0:0:0:
64,192,75091,1,0,0:0:0:0:
448,192,75124,1,0,0:0:0:0:
320,192,75156,1,0,0:0:0:0:
192,192,75188,1,0,0:0:0:0:
64,192,75220,1,0,0:0:0:0:
448,192,75253,1,0,0:0:0:0:
320,192,75285,1,0,0:0:0:0:
64,192,75317,1,0,0:0:0:0:
448,192,75349,1,0,0:0:0:0:
192,192,75382,1,0,0:0:0:0:
64,192,75414,1,0,0:0:0:0:
448,192,75446,1,0,0:0:0:0:
192,192,75672,1,0,0:0:0:0:
64,192,75704,1,0,0:0:0:0:
448,192,75736,1,0,0:0:0:0:
320,192,75769,1,0,0:0:0:0:
192,192,75801,1,0,0:0:0:0:
64,192,75833,1,0,0:0:0:0:
448,192,75866,1,0,0:0:0:0:
320,192,75898,1,0,0:0:0:0:
64,192,75930,1,0,0:0:0:0:
192,192,75962,1,0,0:0:0:0:
448,192,75995,1,0,0:0:0:0:
64,192,76027,1,0,0:0:0:0:
320,192,76059,1,0,0:0:0:0:
448,192,76091,1,0,0:0:0:0:
192,192,76124,1,0,0:0:0:0:
64,192,76156,1,0,0:0:0:0:
448,192,76188,1,0,0:0:0:0:
320,192,76220,1,0,0:0:0:0:
192,192,76253,1,0,0:0:0:0:
448,192,76285,1,0,0:0:0:0:
64,192,76317,1,0,0:0:0:0:
320,192,76349,1,0,0:0:0:0:
192,192,76382,1,0,0:0:0:0:
448,192,76414,1,0,0:0:0:0:
64,192,76446,1,0,0:0:0:0:
320,192,76478,1,0,0:0:0:0:
448,192,76511,1,0,0:0:0:0:
64,192,76543,1,0,0:0:0:0:
320,192,76575,1,0,0:0:0:0:
192,192,76607,1,0,0:0:0:0:
64,192,76640,1,0,0:0:0:0:
448,192,76672,1,0,0:0:0:0:
192,192,76704,1,0,0:0:0:0:
320,192,76736,1,0,0:0:0:0:
448,192,76769,1,0,0:0:0:0:
64,192,76801,1,0,0:0:0:0:
192,192,76833,1,0,0:0:0:0:
320,192,76866,1,0,0:0:0:0:
64,192,76898,1,0,0:0:0:0:
448,192,76930,1,0,0:0:0:0:
320,192,76962,1,0,0:0:0:0:
192,192,76995,1,0,0:0:0:0:
64,192,77027,1,0,0:0:0:0:
448,192,77059,1,0,0:0:0:0:
320,192,77091,1,0,0:0:0:0:
192,192,77124,1,0,0:0:0:0:
448,192,77156,1,0,0:0:0:0:
64,192,77188,1,0,0:0:0:0:
192,192,77220,1,0,0:0:0:0:
320,192,77220,1,0,0:0:0:0:
64,192,77414,1,0,0:0:0:0:
448,192,77414,1,0,0:0:0:0:
192,192,77607,1,0,0:0:0:0:
64,192,77801,1,0,0:0:0:0:
448,192,77801,1,0,0:0:0:0:
320,192,77995,1,0,0:0:0:0:
64,192,78188,1,0,0:0:0:0:
448,192,78188,1,0,0:0:0:0:
192,192,78382,1,0,0:0:0:0:
320,192,78575,1,0,0:0:0:0:
64,192,78607,1,0,0:0:0:0:
448,192,78640,1,0,0:0:0:0:
192,192,78672,1,0,0:0:0:0:
64,192,78704,1,0,0:0:0:0:
448,192,78736,1,0,0:0:0:0:
320,192,78769,1,0,0:0:0:0:
192,192,78801,1,0,0:0:0:0:
448,192,78833,1,0,0:0:0:0:
64,192,78866,1,0,0:0:0:0:
320,192,78898,1,0,0:0:0:0:
192,192,78930,1,0,0:0:0:0:
64,192,78962,1,0,0:0:0:0:
448,192,78995,1,0,0:0:0:0:
320,192,79027,1,0,0:0:0:0:
64,192,79059,1,0,0:0:0:0:
192,192,79091,1,0,0:0:0:0:
320,192,79124,1,0,0:0:0:0:
448,192,79156,1,0,0:0:0:0:
192,192,79188,1,0,0:0:0:0:
64,192,79220,1,0,0:0:0:0:
320,192,79253,1,0,0:0:0:0:
192,192,79285,1,0,0:0:0:0:
448,192,79317,1,0,0:0:0:0:
64,192,79349,1,0,0:0:0:0:
320,192,79382,1,0,0:0:0:0:
192,192,79414,1,0,0:0:0:0:
448,192,79446,1,0,0:0:0:0:
64,192,79478,1,0,0:0:0:0:
320,192,79511,1,0,0:0:0:0:
448,192,79543,1,0,0:0:0:0:
192,192,79575,1,0,0:0:0:0:
320,192,79607,1,0,0:0:0:0:
64,192,79640,1,0,0:0:0:0:
448,192,79672,1,0,0:0:0:0:
192,192,79704,1,0,0:0:0:0:
64,192,79736,1,0,0:0:0:0:
448,192,79769,1,0,0:0:0:0:
192,192,79801,1,0,0:0:0:0:
320,192,79833,1,0,0:0:0:0:
448,192,79866,1,0,0:0:0:0:
64,192,79898,1,0,0:0:0:0:
192,192,79930,1,0,0:0:0:0:
320,192,79962,1,0,0:0:0:0:
64,192,79995,1,0,0:0:0:0:
448,192,80027,1,0,0:0:0:0:
192,192,80059,1,0,0:0:0:0:
320,192,80091,1,0,0:0:0:0:
64,192,80124,1,0,0:0:0:0:
448,192,80156,1,0,0:0:0:0:
192,192,80188,1,0,0:0:0:0:
320,192,80220,1,0,0:0:0:0:
448,192,80253,1,0,0:0:0:0:
64,192,80285,1,0,0:0:0:0:
192,192,80317,1,0,0:0:0:0:
320,192,80317,1,0,0:0:0:0:
64,192,80511,1,0,0:0:0:0:
448,192,80511,1,0,0:0:0:0:
192,192,80866,1,0,0:0:0:0:
64,192,80898,1,0,0:0:0:0:
448,192,80898,1,0,0:0:0:0:
192,192,81091,1,0,0:0:0:0:
320,192,81091,1,0,0:0:0:0:
192,192,81188,1,0,0:0:0:0:
64,192,81285,1,0,0:0:0:0:
448,192,81285,1,0,0:0:0:0:
64,192,81478,1,0,0:0:0:0:
192,192,81503,1,0,0:0:0:0:
320,192,81527,1,0,0:0:0:0:
448,192,81551,1,0,0:0:0:0:
64,192,81575,1,0,0:0:0:0:
192,192,81599,1,0,0:0:0:0:
320,192,81624,1,0,0:0:0:0:
448,192,81648,1,0,0:0:0:0:
64,192,81866,1,0,0:0:0:0:
192,192,81898,1,0,0:0:0:0:
320,192,81930,1,0,0:0:0:0:
448,192,81962,1,0,0:0:0:0:
192,192,81995,1,0,0:0:0:0:
64,192,82027,1,0,0:0:0:0:
448,192,82059,1,0,0:0:0:0:
192,192,82091,1,0,0:0:0:0:
320,192,82124,1,0,0:0:0:0:
64,192,82156,1,0,0:0:0:0:
448,192,82188,1,0,0:0:0:0:
320,192,82220,1,0,0:0:0:0:
192,192,82253,1,0,0:0:0:0:
448,192,82285,1,0,0:0:0:0:
64,192,82317,1,0,0:0:0:0:
192,192,82349,1,0,0:0:0:0:
320,192,82382,1,0,0:0:0:0:
448,192,82414,1,0,0:0:0:0:
192,192,82446,1,0,0:0:0:0:
64,192,82478,1,0,0:0:0:0:
448,192,82511,1,0,0:0:0:0:
192,192,82543,1,0,0:0:0:0:
320,192,82575,1,0,0:0:0:0:
64,192,82607,1,0,0:0:0:0:
448,192,82640,1,0,0:0:0:0:
320,192,82672,1,0,0:0:0:0:
192,192,82704,1,0,0:0:0:0:
64,192,82736,1,0,0:0:0:0:
320,192,82769,1,0,0:0:0:0:
192,192,82801,1,0,0:0:0:0:
448,192,82833,1,0,0:0:0:0:
64,192,82866,1,0,0:0:0:0:
320,192,82898,1,0,0:0:0:0:
192,192,82930,1,0,0:0:0:0:
448,192,82962,1,0,0:0:0:0:
320,192,82995,1,0,0:0:0:0:
64,192,83027,1,0,0:0:0:0:
448,192,83059,1,0,0:0:0:0:
192,192,83091,1,0,0:0:0:0:
320,192,83124,1,0,0:0:0:0:
64,192,83156,1,0,0:0:0:0:
192,192,83188,1,0,0:0:0:0:
320,192,83220,1,0,0:0:0:0:
448,192,83253,1,0,0:0:0:0:
192,192,83285,1,0,0:0:0:0:
64,192,83317,1,0,0:0:0:0:
320,192,83349,1,0,0:0:0:0:
192,192,83382,1,0,0:0:0:0:
64,192,83414,1,0,0:0:0:0:
448,192,83414,1,0,0:0:0:0:
64,192,83607,1,0,0:0:0:0:
192,192,83607,1,0,0:0:0:0:
320,192,83607,1,0,0:0:0:0:
64,192,83801,1,0,0:0:0:0:
192,192,83995,1,0,0:0:0:0:
320,192,83995,1,0,0:0:0:0:
448,192,83995,1,0,0:0:0:0:
448,192,84188,1,0,0:0:0:0:
64,192,84382,1,0,0:0:0:0:
192,192,84382,1,0,0:0:0:0:
320,192,84382,1,0,0:0:0:0:
448,192,84478,1,0,0:0:0:0:
448,192,84575,1,0,0:0:0:0:
192,192,84769,1,0,0:0:0:0:
64,192,84801,1,0,0:0:0:0:
448,192,84833,1,0,0:0:0:0:
192,192,84866,1,0,0:0:0:0:
320,192,84898,1,0,0:0:0:0:
64,192,84930,1,0,0:0:0:0:
448,192,84962,1,0,0:0:0:0:
320,192,84995,1,0,0:0:0:0:
192,192,85027,1,0,0:0:0:0:
64,192,85059,1,0,0:0:0:0:
320,192,85091,1,0,0:0:0:0:
448,192,85124,1,0,0:0:0:0:
64,192,85156,1,0,0:0:0:0:
320,192,85188,1,0,0:0:0:0:
192,192,85220,1,0,0:0:0:0:
448,192,85253,1,0,0:0:0:0:
64,192,85285,1,0,0:0:0:0:
192,192,85317,1,0,0:0:0:0:
320,192,85349,1,0,0:0:0:0:
64,192,85382,1,0,0:0:0:0:
448,192,85414,1,0,0:0:0:0:
320,192,85446,1,0,0:0:0:0:
192,192,85478,1,0,0:0:0:0:
64,192,85511,1,0,0:0:0:0:
320,192,85543,1,0,0:0:0:0:
448,192,85575,1,0,0:0:0:0:
64,192,85607,1,0,0:0:0:0:
320,192,85640,1,0,0:0:0:0:
192,192,85672,1,0,0:0:0:0:
448,192,85704,1,0,0:0:0:0:
64,192,85736,1,0,0:0:0:0:
192,192,85769,1,0,0:0:0:0:
320,192,85801,1,0,0:0:0:0:
448,192,85833,1,0,0:0:0:0:
192,192,85866,1,0,0:0:0:0:
320,192,85898,1,0,0:0:0:0:
64,192,85930,1,0,0:0:0:0:
448,192,85962,1,0,0:0:0:0:
192,192,85995,1,0,0:0:0:0:
320,192,86027,1,0,0:0:0:0:
64,192,86059,1,0,0:0:0:0:
192,192,86091,1,0,0:0:0:0:
448,192,86124,1,0,0:0:0:0:
64,192,86156,1,0,0:0:0:0:
320,192,86188,1,0,0:0:0:0:
192,192,86220,1,0,0:0:0:0:
448,192,86253,1,0,0:0:0:0:
320,192,86285,1,0,0:0:0:0:
192,192,86317,1,0,0:0:0:0:
64,192,86349,1,0,0:0:0:0:
320,192,86382,1,0,0:0:0:0:
448,192,86414,1,0,0:0:0:0:
192,192,86446,1,0,0:0:0:0:
320,192,86478,1,0,0:0:0:0:
64,192,86511,1,0,0:0:0:0:
448,192,86511,1,0,0:0:0:0:
192,192,86704,1,0,0:0:0:0:
320,192,86704,1,0,0:0:0:0:
64,192,87091,1,0,0:0:0:0:
320,192,87091,1,0,0:0:0:0:
448,192,87091,1,0,0:0:0:0:
320,192,87285,1,0,0:0:0:0:
448,192,87285,1,0,0:0:0:0:
320,192,87382,1,0,0:0:0:0:
448,192,87382,1,0,0:0:0:0:
64,192,87478,1,0,0:0:0:0:
192,192,87478,1,0,0:0:0:0:
320,192,87478,1,0,0:0:0:0:
448,192,87478,1,0,0:0:0:0:
64,192,87866,1,0,0:0:0:0:
192,192,87866,1,0,0:0:0:0:
320,192,87866,1,0,0:0:0:0:
448,192,87866,1,0,0:0:0:0:
64,192,88059,1,0,0:0:0:0:
192,192,88059,1,0,0:0:0:0:
320,192,88107,1,0,0:0:0:0:
448,192,88107,1,0,0:0:0:0:
64,192,88156,1,0,0:0:0:0:
192,192,88156,1,0,0:0:0:0:
320,192,88204,1,0,0:0:0:0:
448,192,88204,1,0,0:0:0:0:
64,192,88253,1,0,0:0:0:0:
192,192,88253,1,0,0:0:0:0:
