osu file format v14

[General]
AudioFilename: poisonblood.mp3
AudioLeadIn: 0
PreviewTime: 25781
Countdown: 1
SampleSet: Soft
StackLeniency: 0.4
Mode: 0
LetterboxInBreaks: 1
WidescreenStoryboard: 1

[Editor]
DistanceSpacing: 2
BeatDivisor: 4
GridSize: 4
TimelineZoom: 3.699999

[Metadata]
Title:Poison Blood
TitleUnicode:Poison Blood
Artist:udouddo
ArtistUnicode:udouddo
Creator:Kaenjyou
Version:Insane
Source:SOUND VOLTEX III GRAVITY WARS
Tags:sdvx sound voltex booth kureha 第一回ボルテキャラテーマ曲コンテスト character theme first contest
BeatmapID:722019
BeatmapSetID:314075

[Difficulty]
HPDrainRate:8
CircleSize:4
OverallDifficulty:8
ApproachRate:9
SliderMultiplier:2
SliderTickRate:1

[Events]
//Background and Video events
0,0,"kurehaSDVX.jpg",0,0
//Break Periods
2,45781,54581
//Storyboard Layer 0 (Background)
//Storyboard Layer 1 (Fail)
//Storyboard Layer 2 (Pass)
//Storyboard Layer 3 (Foreground)
//Storyboard Sound Samples

[TimingPoints]
5981,300,4,1,0,100,1,0
9431,-100,4,1,0,40,0,0
9581,-100,4,1,0,100,0,0
23981,-200,4,1,0,100,0,0
26381,-100,4,1,0,100,0,1
35981,-100,4,1,0,100,0,0
36806,-100,4,1,0,20,0,0
36881,-100,4,1,0,100,0,0
37106,-100,4,1,0,20,0,0
37181,-100,4,1,0,100,0,1
41681,-50,4,1,0,100,0,1
41981,-100,4,1,0,100,0,1
42881,-50,4,1,0,100,0,1
43181,-100,4,1,0,100,0,1
43481,-50,4,1,0,100,0,1
43556,-100,4,1,0,100,0,1
44231,-50,4,1,0,100,0,1
44306,-100,4,1,0,100,0,1
45581,-100,4,1,0,100,0,0
55181,-133.333333333333,4,1,0,100,0,0
57581,-133.333333333333,4,1,0,100,0,0
59981,-133.333333333333,4,1,0,100,0,0
60131,-133.333333333333,4,1,0,60,0,0
60206,-133.333333333333,4,1,0,100,0,0
64781,-200,4,1,0,20,0,0
64931,-200,4,1,0,40,0,0
65231,-200,4,1,0,60,0,0
65531,-200,4,1,0,80,0,0
65831,-200,4,1,0,100,0,0
65906,-200,4,1,0,40,0,0
65981,-100,4,1,0,5,0,0
67181,-133.333333333333,4,2,0,80,0,0
76631,-100,4,1,0,5,0,0
76781,-100,4,1,0,100,0,0
81206,-100,4,1,0,60,0,0
81281,-100,4,1,0,100,0,0
81506,-100,4,1,0,60,0,0
81581,-100,4,1,0,100,0,0
87581,-100,4,1,0,100,0,1
95981,-100,4,1,0,100,0,0
97181,-100,4,1,0,100,0,1
99431,-100,4,1,0,60,0,1
99581,-100,4,1,0,100,0,1
106781,-100,4,2,0,0,0,0
108581,-100,4,2,0,5,0,0
108731,-100,4,2,0,10,0,0
108881,-100,4,2,0,15,0,0
109031,-100,4,2,0,20,0,0
109106,-100,4,2,0,25,0,0
109181,-100,4,2,0,30,0,0

[HitObjects]
168,160,5981,5,4,0:0:0:0:
268,228,6131,1,0,0:0:0:0:
340,132,6281,2,0,L|332:24,1,100
188,256,6581,2,0,P|220:300|272:312,1,100
368,256,6881,1,0,0:0:0:0:
436,356,7031,1,0,0:0:0:0:
292,224,7181,2,0,P|340:180|420:196,1,150,0|0,0:0|2:0,0:0:0:0:
452,260,7481,1,0,0:0:0:0:
456,276,7556,1,0,0:0:0:0:
460,288,7631,1,0,0:0:0:0:
336,92,7781,1,0,0:0:0:0:
336,92,7931,1,0,0:0:0:0:
292,224,8081,2,0,P|256:264|148:256,1,150,0|0,0:0|2:0,0:0:0:0:
16,310,8381,6,0,P|66:305|112:324,1,100
208,184,8681,2,0,P|196:144|208:76,1,100
164,267,8981,1,0,0:0:0:0:
116,180,9131,1,0,0:0:0:0:
276,300,9281,2,0,B|256:320|252:344|252:344|248:312|216:300,1,100
324,236,9581,1,0,0:0:0:0:
444,252,9731,1,0,0:0:0:0:
264,168,9881,1,0,0:0:0:0:
268,152,9956,1,0,0:0:0:0:
272,136,10031,1,0,0:0:0:0:
216,236,10181,1,0,0:0:0:0:
352,152,10331,1,0,0:0:0:0:
192,160,10481,2,0,P|148:196|160:296,1,150,0|0,0:0|2:0,0:0:0:0:
216,236,10781,5,0,0:0:0:0:
92,132,10931,1,0,0:0:0:0:
236,60,11081,2,0,L|344:72,1,100
404,260,11381,2,0,L|296:248,1,100
192,200,11681,1,0,0:0:0:0:
100,276,11831,1,0,0:0:0:0:
272,180,11981,2,0,P|240:132|140:132,1,150,0|0,0:0|2:0,0:0:0:0:
80,144,12281,1,0,0:0:0:0:
64,148,12356,1,0,0:0:0:0:
48,152,12431,1,0,0:0:0:0:
192,200,12581,1,0,0:0:0:0:
292,76,12731,1,0,0:0:0:0:
316,236,12881,2,0,P|344:280|452:276,1,150,0|0,0:0|2:0,0:0:0:0:
487,224,13181,6,0,P|443:203|396:216,1,100
180,307,13481,2,0,P|224:328|272:316,1,100
404,124,13781,1,0,0:0:0:0:
320,68,13931,1,0,0:0:0:0:
220,60,14081,1,0,0:0:0:0:
132,108,14231,1,0,0:0:0:0:
88,196,14381,1,0,0:0:0:0:
144,24,14531,1,0,0:0:0:0:
208,148,14681,1,0,0:0:0:0:
224,144,14756,1,0,0:0:0:0:
240,140,14831,1,0,0:0:0:0:
252,136,14906,1,0,0:0:0:0:
268,132,14981,2,0,L|356:144,2,66.6666666666667,0|2|0,0:0|0:2|0:0,0:0:0:0:
248,224,15281,2,0,L|180:244,2,66.6666666666667,0|2|0,0:0|0:2|2:0,0:0:0:0:
284,308,15581,5,0,0:0:0:0:
228,116,15731,1,0,0:0:0:0:
344,152,15881,1,0,0:0:0:0:
344,152,16031,1,0,0:0:0:0:
112,212,16331,1,0,0:0:0:0:
412,44,16631,1,0,0:0:0:0:
412,44,16781,1,0,0:0:0:0:
352,236,16931,1,0,0:0:0:0:
260,160,17081,1,0,0:0:0:0:
260,160,17231,1,0,0:0:0:0:
436,188,17381,1,0,0:0:0:0:
328,236,17531,1,0,0:0:0:0:
428,304,17681,1,0,0:0:0:0:
320,352,17831,1,0,0:0:0:0:
256,248,17981,5,0,0:0:0:0:
64,304,18131,1,0,0:0:0:0:
116,196,18281,1,0,0:0:0:0:
116,196,18431,1,0,0:0:0:0:
336,288,18731,1,0,0:0:0:0:
68,48,19031,1,0,0:0:0:0:
68,48,19181,1,0,0:0:0:0:
132,236,19331,1,0,0:0:0:0:
224,160,19481,1,0,0:0:0:0:
224,160,19631,1,0,0:0:0:0:
324,224,19781,2,0,L|316:336,1,100
460,184,20081,2,0,L|468:72,1,100
324,224,20381,5,4,0:2:0:0:
324,224,20681,1,0,0:0:0:0:
132,76,20981,1,0,0:0:0:0:
220,60,21131,1,0,0:0:0:0:
308,44,21281,1,0,0:0:0:0:
224,332,21581,1,4,0:0:0:0:
224,332,21881,1,0,0:0:0:0:
428,204,22181,1,0,0:0:0:0:
328,192,22331,1,0,0:0:0:0:
228,180,22481,1,0,0:0:0:0:
128,168,22631,1,0,0:0:0:0:
80,256,22781,6,0,L|96:360,1,100,4|0,0:2|0:0,0:0:0:0:
128,168,23081,1,0,0:0:0:0:
224,144,23231,1,0,0:0:0:0:
184,52,23381,2,0,L|60:28,1,100,4|0,0:0|0:0,0:0:0:0:
228,180,23681,1,0,0:0:0:0:
252,276,23831,1,0,0:0:0:0:
392,312,23981,6,0,P|484:256|332:260,1,400,0|2,2:0|2:0,0:0:0:0:
408,234,26381,5,4,0:0:0:0:
188,136,26681,2,0,L|208:244,1,100,8|0,0:0|0:0,0:0:0:0:
120,316,26981,2,0,L|100:208,1,100
188,136,27281,1,8,0:0:0:0:
292,196,27431,1,0,0:0:0:0:
380,116,27581,1,0,0:0:0:0:
276,56,27731,1,0,0:0:0:0:
292,196,27881,1,8,0:0:0:0:
432,180,28031,2,0,P|460:104|368:36,1,200
292,196,28481,2,0,L|304:308,1,100,8|0,0:0|0:0,0:0:0:0:
116,188,28781,1,0,0:0:0:0:
140,72,28931,2,0,P|192:56|248:88,1,100,0|8,0:0|0:0,0:0:0:0:
368,220,29231,1,0,0:0:0:0:
396,212,29306,1,0,0:0:0:0:
424,204,29381,2,0,P|460:164|460:108,1,100
316,148,29681,1,8,0:0:0:0:
168,172,29831,2,0,L|180:284,1,100
80,340,30131,6,0,L|72:284,1,50
32,228,30281,2,0,L|48:120,1,100,8|0,0:0|0:0,0:0:0:0:
148,64,30581,1,0,0:0:0:0:
264,96,30731,1,0,0:0:0:0:
308,208,30881,1,8,0:0:0:0:
424,176,31031,1,0,0:0:0:0:
224,172,31181,6,0,P|224:248|340:292,1,200,4|8,0:0|0:0,0:0:0:0:
440,256,31631,1,0,0:0:0:0:
324,160,31781,1,0,0:0:0:0:
364,48,31931,1,0,0:0:0:0:
180,120,32081,1,8,0:0:0:0:
216,233,32231,1,0,0:0:0:0:
128,312,32381,1,0,0:0:0:0:
272,176,32531,2,0,P|296:232|276:288,1,100,0|8,0:0|0:0,0:0:0:0:
128,312,32831,1,0,0:0:0:0:
128,312,32906,1,0,0:0:0:0:
128,312,32981,2,0,L|112:208,1,100
32,124,33281,1,8,0:0:0:0:
124,48,33431,2,0,B|192:56|192:56|240:84|240:84|332:96,1,200
436,108,33881,1,8,0:0:0:0:
384,216,34031,2,0,L|440:208,1,50
328,276,34181,2,0,P|304:220|320:168,1,100
444,304,34481,1,8,0:0:0:0:
272,352,34631,1,0,0:0:0:0:
196,188,34781,5,0,0:0:0:0:
200,160,34856,1,0,0:0:0:0:
204,132,34931,1,0,0:0:0:0:
220,32,35081,1,8,0:0:0:0:
220,32,35231,1,0,0:0:0:0:
108,132,35381,1,0,0:0:0:0:
108,132,35531,1,0,0:0:0:0:
244,196,35681,1,8,0:0:0:0:
244,196,35831,1,0,0:0:0:0:
200,340,35981,5,0,0:0:0:0:
412,128,36281,2,2,L|488:136,2,66.6666666666667,2|2|2,2:0|2:0|2:0,2:0:0:0:
344,88,36581,2,0,P|260:120|196:112,1,150,2|0,2:0|2:0,2:0:0:0:
50,210,36881,2,0,P|118:179|192:188,1,150,0|0,0:0|2:0,2:0:0:0:
344,88,37181,6,0,P|400:64|456:72,1,100,4|0,0:0|0:0,0:0:0:0:
492,172,37481,1,8,0:0:0:0:
396,244,37631,2,0,B|352:260|296:240|296:240|240:216|192:232,1,200
88,272,38081,1,8,0:0:0:0:
196,328,38231,1,0,0:0:0:0:
184,128,38381,2,0,P|132:152|104:208,1,100
228,348,38681,2,0,P|280:324|308:268,1,100,8|0,0:0|0:0,0:0:0:0:
184,128,38981,1,0,0:0:0:0:
296,168,39131,1,0,0:0:0:0:
224,264,39281,2,0,L|112:260,1,100,8|0,0:0|0:0,0:0:0:0:
264,80,39581,5,0,0:0:0:0:
388,164,39731,1,0,0:0:0:0:
416,160,39806,1,0,0:0:0:0:
444,156,39881,1,8,0:0:0:0:
364,68,40031,1,0,0:0:0:0:
248,144,40181,1,0,0:0:0:0:
144,48,40331,2,0,L|148:116,1,50,0|0,0:0|2:0,0:0:0:0:
76,120,40481,2,0,L|84:240,1,100,8|0,0:0|0:0,0:0:0:0:
92,340,40781,5,4,0:0:0:0:
92,340,41081,1,8,0:0:0:0:
192,272,41231,1,0,0:0:0:0:
308,304,41381,1,0,0:0:0:0:
296,184,41531,1,0,0:0:0:0:
384,344,41681,6,2,P|432:344|476:304,1,100,2|0,0:0|2:0,0:0:0:0:
408,268,41981,5,0,0:0:0:0:
472,132,42131,2,0,L|424:40,1,100,0|8,0:0|0:0,0:0:0:0:
261,215,42431,2,0,L|309:307,1,100
324,104,42731,1,0,0:0:0:0:
184,24,42881,6,2,L|196:136,1,100,2|0,0:0|2:0,0:0:0:0:
144,188,43181,6,0,P|136:260|60:312,1,150,0|0,0:0|2:0,0:0:0:0:
220,252,43481,6,2,P|252:248|324:276,1,100,10|0,0:0|2:0,0:0:0:0:
372,328,43631,5,4,0:2:0:0:
444,184,43781,1,4,0:2:0:0:
300,116,43931,1,0,0:0:0:0:
228,260,44081,5,8,0:0:0:0:
228,260,44156,1,0,0:0:0:0:
228,260,44231,2,2,L|216:148,1,100,2|0,0:0|2:0,0:0:0:0:
264,100,44381,5,0,0:0:0:0:
261,83,44456,1,0,0:0:0:0:
258,67,44531,1,0,0:0:0:0:
400,144,44681,1,8,0:0:0:0:
400,144,44831,1,0,0:0:0:0:
244,180,44981,1,0,0:0:0:0:
92,132,45131,1,0,0:0:0:0:
184,264,45281,1,8,0:0:0:0:
184,104,45431,1,0,0:0:0:0:
88,232,45581,1,4,0:0:0:0:
304,232,55181,6,0,P|240:260|168:228,1,150.000005722046
236,168,55631,1,0,0:0:0:0:
316,128,55781,2,0,L|404:136,1,75.0000028610231
236,168,56081,2,0,P|224:116|284:40,2,150.000005722046
304,232,56831,1,0,0:0:0:0:
236,292,56981,2,0,L|152:288,1,75.0000028610231,0|0,0:0|2:0,0:0:0:0:
40,348,57581,5,0,0:0:0:0:
164,216,57881,1,0,0:0:0:0:
232,156,58031,1,0,0:0:0:0:
172,92,58181,2,0,L|96:88,1,75.0000028610231
164,216,58481,2,0,L|240:212,1,75.0000028610231
328,208,58781,2,0,P|380:220|416:276,1,112.500004291535,0|0,0:0|2:0,0:0:0:0:
412,312,59081,1,0,0:0:0:0:
484,224,59231,1,0,0:0:0:0:
428,124,59381,2,0,L|344:120,1,75.0000028610231
248,168,59681,2,0,P|188:168|124:132,1,112.500004291535,0|0,0:0|2:0,0:0:0:0:
124,104,59981,6,0,L|144:12,1,75.0000028610231
36,132,60281,1,0,0:0:0:0:
76,212,60431,1,0,0:0:0:0:
24,284,60581,2,0,P|72:300|112:288,1,75.0000028610231
172,252,60881,1,0,0:0:0:0:
256,280,61031,1,0,0:0:0:0:
324,220,61181,2,0,L|316:64,1,150.000005722046
392,24,61631,1,0,0:0:0:0:
436,104,61781,2,0,L|424:184,1,75.0000028610231
244,120,62081,2,0,L|240:40,1,75.0000028610231
324,220,62381,6,0,B|276:212|276:212|216:228|216:228|168:220,1,150.000005722046
88,200,62831,1,0,0:0:0:0:
24,264,62981,2,0,L|32:344,1,75.0000028610231
177,221,63281,1,0,0:0:0:0:
128,120,63431,1,0,0:0:0:0:
228,64,63581,2,0,L|312:72,1,75.0000028610231
420,164,63881,2,0,L|345:156,1,75.0000028610231
212,220,64181,2,0,L|296:228,1,75.0000028610231
404,320,64481,2,0,L|329:312,1,75.0000028610231
184,344,64781,6,0,L|128:352,2,50
256,276,65231,1,0,0:0:0:0:
224,180,65381,1,0,0:0:0:0:
204,168,65456,1,0,0:0:0:0:
184,156,65531,1,0,0:0:0:0:
144,248,65681,1,0,0:0:0:0:
64,188,65831,1,0,0:0:0:0:
72,164,65906,1,0,0:0:0:0:
360,204,67181,6,0,P|276:140|236:280,1,300.000011444092,4|2,0:3|0:3,0:0:0:0:
320,300,67931,1,0,0:0:0:0:
144,276,68081,2,0,P|132:220|136:176,1,75.0000028610231,2|0,0:0|0:0,0:0:0:0:
120,352,68381,2,0,P|168:352|220:260,1,150.000005722046,4|2,0:3|0:0,0:0:0:0:
156,128,68831,2,0,P|108:128|56:220,1,150.000005722046
221,274,69281,2,0,L|312:264,1,75.0000028610231,2|0,0:0|0:0,0:0:0:0:
356,200,69581,2,0,P|384:132|244:156,1,300.000011444092,4|2,0:3|0:3,0:0:0:0:
164,192,70331,1,0,0:0:0:0:
308,264,70481,2,0,P|352:280|392:268,1,75.0000028610231,2|0,0:0|0:0,0:0:0:0:
252,320,70781,2,0,B|136:304|136:304|32:344,2,225.000008583069,4|0|2,0:3|0:0|0:0,0:0:0:0:
160,164,71981,6,0,P|268:152|204:20,1,300.000011444092,4|2,0:3|0:3,0:0:0:0:
128,56,72731,1,0,0:0:0:0:
208,100,72881,2,0,L|304:92,1,75.0000028610231,2|0,0:0|0:0,0:0:0:0:
396,128,73181,2,0,L|388:300,1,150.000005722046,4|2,0:3|0:0,0:0:0:0:
280,332,73631,2,0,L|288:160,1,150.000005722046
168,160,74081,2,0,P|116:152|88:164,1,75.0000028610231,2|0,0:0|0:0,0:0:0:0:
136,240,74381,2,0,P|188:248|216:236,1,75.0000028610231,4|2,0:3|0:3,0:0:0:0:
376,304,74831,1,2,0:3:0:0:
460,144,75131,2,0,L|452:64,1,75.0000028610231,2|2,0:3|0:0,0:0:0:0:
256,192,75581,12,0,76631,0:0:0:0:
156,136,76781,5,4,0:0:0:0:
392,168,77081,1,0,0:0:0:0:
232,344,77381,2,0,L|220:232,1,100
280,40,77681,2,0,L|292:152,1,100
221,244,77981,1,0,0:0:0:0:
392,76,78281,1,0,0:0:0:0:
156,40,78581,2,0,L|166:139,1,100
356,344,78881,2,0,L|345:244,1,100
436,164,79181,6,0,L|425:64,1,100
334,145,79481,2,0,L|344:244,1,100
244,308,79781,1,0,0:0:0:0:
152,228,79931,1,0,0:0:0:0:
264,188,80081,1,0,0:0:0:0:
244,308,80231,1,0,0:0:0:0:
188,120,80381,2,0,P|236:88|292:88,1,100
308,88,80606,1,0,0:0:0:0:
336,92,80681,1,0,0:0:0:0:
436,156,80831,1,0,0:0:0:0:
340,232,80981,2,0,L|272:224,3,50
162,282,81281,2,0,L|212:288,3,50
96,236,81581,5,0,0:0:0:0:
172,144,81731,1,0,0:0:0:0:
284,184,81881,2,0,P|336:184|388:156,1,100
190,45,82181,2,0,L|172:144,1,100
232,248,82481,2,0,L|213:346,1,100
140,216,82781,1,4,0:0:0:0:
272,144,82931,1,0,0:0:0:0:
400,224,83081,2,0,L|296:216,1,100
380,124,83381,1,0,0:0:0:0:
296,304,83531,1,0,0:0:0:0:
136,184,83681,2,0,L|148:76,1,100
260,184,83981,6,0,L|248:292,1,100
128,176,84281,2,0,L|140:68,1,100
268,192,84581,2,0,L|256:300,1,100
408,160,84881,2,0,P|392:112|340:68,1,100
244,36,85181,1,0,0:0:0:0:
228,40,85256,1,0,0:0:0:0:
212,44,85331,1,0,0:0:0:0:
196,48,85406,1,0,0:0:0:0:
180,52,85481,1,0,0:0:0:0:
64,80,85631,1,0,0:0:0:0:
164,144,85781,2,0,L|272:132,1,100
340,224,86081,2,0,L|232:236,1,100
120,244,86381,1,0,2:0:0:0:
56,320,87581,6,0,P|88:260|36:136,1,200,4|8,0:0|0:0,0:0:0:0:
140,68,88031,2,0,B|196:64|196:64|252:100|356:80,1,200
432,156,88481,2,0,L|424:264,1,100,8|0,0:0|0:0,0:0:0:0:
320,8,88781,2,0,P|380:20|412:64,1,100
336,180,89081,1,8,0:0:0:0:
224,224,89231,2,0,B|156:220|156:220|96:240|96:240|12:232,1,200
92,336,89681,2,0,L|200:328,1,100,8|0,0:0|0:0,0:0:0:0:
312,320,89981,1,0,0:0:0:0:
264,208,90131,1,0,0:0:0:0:
384,192,90281,1,8,0:0:0:0:
308,100,90431,1,0,0:0:0:0:
308,100,90506,1,0,0:0:0:0:
308,100,90581,1,0,0:0:0:0:
380,288,90731,1,0,0:0:0:0:
464,164,90881,2,0,P|432:124|384:108,1,100,8|0,0:0|0:0,0:0:0:0:
188,96,91181,5,0,0:0:0:0:
276,176,91331,1,0,0:0:0:0:
196,264,91481,1,8,0:0:0:0:
108,184,91631,1,0,0:0:0:0:
284,88,91781,1,0,0:0:0:0:
152,160,91931,1,0,0:0:0:0:
128,308,92081,2,0,P|168:340|216:344,1,100,8|0,0:0|0:0,0:0:0:0:
328,304,92381,5,4,0:0:0:0:
384,200,92531,1,0,0:0:0:0:
300,112,92681,1,8,0:0:0:0:
412,280,92831,2,0,P|456:244|416:120,1,200,4|0,0:2|0:0,0:0:0:0:
304,92,93281,1,8,0:0:0:0:
216,176,93431,2,0,L|224:288,1,100,0|4,0:0|0:0,0:0:0:0:
108,312,93731,1,0,0:0:0:0:
48,208,93881,1,8,0:0:0:0:
220,92,94031,2,0,P|280:124|252:252,1,200,4|0,0:2|0:0,0:0:0:0:
256,252,94406,1,0,0:0:0:0:
244,260,94481,1,8,0:0:0:0:
352,260,94631,1,0,0:0:0:0:
216,176,94781,5,4,0:0:0:0:
356,100,94931,1,0,0:0:0:0:
352,260,95081,1,8,0:0:0:0:
212,340,95231,1,0,0:0:0:0:
104,172,95381,2,0,L|128:72,1,100
235,242,95681,2,0,L|211:342,1,100,8|0,0:0|0:0,0:0:0:0:
76,272,95981,1,0,0:0:0:0:
92,268,96056,1,0,0:0:0:0:
108,264,96131,1,0,0:0:0:0:
300,324,96281,1,8,0:0:0:0:
380,196,96431,1,0,0:0:0:0:
252,120,96581,2,0,L|188:124,3,50,4|0|0|0,0:2|0:0|0:0|0:0,0:0:0:0:
380,196,96881,2,0,L|444:192,3,50,4|0|0|0,0:2|0:0|0:0|0:0,0:0:0:0:
300,232,97181,6,0,B|236:256|236:256|96:252,1,200,4|8,0:0|0:0,0:0:0:0:
44,148,97631,2,0,P|84:100|236:84,1,200
320,136,98081,2,0,P|376:136|420:96,1,100,8|0,0:0|0:0,0:0:0:0:
213,75,98381,2,0,B|216:124|199:151|199:151|207:187|207:187|188:232|208:284,1,200,0|8,0:0|0:0,0:0:0:0:
72,344,98831,1,0,0:0:0:0:
72,344,98906,1,0,0:0:0:0:
72,344,98981,2,0,L|60:228,1,100
140,152,99281,2,0,L|129:52,1,100,8|0,0:0|0:0,0:0:0:0:
280,32,99581,1,4,0:0:0:0:
340,168,99731,2,0,L|328:284,1,100,0|8,0:0|0:0,0:0:0:0:
428,200,100031,2,0,P|428:140|312:80,1,200
196,96,100481,1,8,0:0:0:0:
248,204,100631,1,0,0:0:0:0:
248,204,100706,1,0,0:0:0:0:
248,204,100781,6,0,L|360:188,1,100
232,284,101081,1,8,0:0:0:0:
136,356,101231,2,0,B|132:280|132:280|112:236|112:236|108:148,1,200
160,52,101681,1,8,0:0:0:0:
188,48,101756,1,0,0:0:0:0:
216,44,101831,1,0,0:0:0:0:
244,40,101906,1,0,0:0:0:0:
272,36,101981,6,0,B|260:136|260:136|272:256,1,200,0|8,0:0|0:0,0:0:0:0:
400,312,102431,2,0,B|412:212|412:212|400:92,1,200
272,36,102881,1,8,0:0:0:0:
164,140,103031,1,0,0:0:0:0:
308,188,103181,1,0,0:0:0:0:
156,56,103331,1,0,0:0:0:0:
112,252,103481,1,8,0:0:0:0:
308,188,103631,1,0,0:0:0:0:
308,188,103706,1,0,0:0:0:0:
308,188,103781,2,0,P|368:192|416:172,1,100
272,328,104081,2,0,P|224:313|175:318,1,100,8|0,0:0|0:0,0:0:0:0:
316,196,104381,6,0,P|376:200|424:180,1,100
264,320,104681,2,0,P|216:305|167:310,1,100,8|0,0:0|0:0,0:0:0:0:
92,180,104981,2,0,P|108:104|100:64,1,100
244,136,105281,2,0,P|228:212|236:252,1,100,8|0,0:0|0:0,0:0:0:0:
336,340,105581,1,0,0:0:0:0:
364,344,105656,1,0,0:0:0:0:
392,348,105731,1,8,0:0:0:0:
420,352,105806,1,0,0:0:0:0:
448,356,105881,1,8,0:0:0:0:
396,216,106031,1,0,0:0:0:0:
248,248,106181,2,0,L|256:352,1,100,0|8,0:0|0:0,0:0:0:0:
324,160,106481,2,0,L|316:56,1,100,0|8,0:0|0:0,0:0:0:0:
256,192,106781,12,2,109181,0:0:0:0:
