osu file format v14

[General]
AudioFilename: STARTDASH!!.mp3
AudioLeadIn: 1996
PreviewTime: 62770
Countdown: 0
SampleSet: Normal
StackLeniency: 0.7
Mode: 1
LetterboxInBreaks: 0
WidescreenStoryboard: 0

[Editor]
DistanceSpacing: 1
BeatDivisor: 4
GridSize: 32
TimelineZoom: 1

[Metadata]
Title:START:DASH!!
TitleUnicode:START:DASH!!
Artist:u's
ArtistUnicode:μ's
Creator:Nardoxyribonucleic
Version:Futsuu
Source:Love Live! School idol project
Tags:Taiko ラブライブ SUNRISE Hata Aki Jikson[m9]
BeatmapID:272594
BeatmapSetID:103240

[Difficulty]
HPDrainRate:5
CircleSize:5
OverallDifficulty:4
ApproachRate:5
SliderMultiplier:1.4
SliderTickRate:1

[Events]
//Background and Video events
0,0,"lovelive2.jpg",0,90
//Break Periods
//Storyboard Layer 0 (Background)
//Storyboard Layer 1 (Fail)
//Storyboard Layer 2 (Pass)
//Storyboard Layer 3 (Foreground)
//Storyboard Sound Samples

[TimingPoints]
770,400,4,1,0,50,1,0
5570,-100,4,1,0,70,0,0
7170,-100,4,1,0,90,0,0
61370,-100,4,1,0,50,0,0
63170,-100,4,1,0,90,0,1
91970,-100,4,1,0,90,0,0
131770,-100,4,1,0,50,0,0
133570,-100,4,1,0,90,0,1
160770,-100,4,1,0,90,0,0
162370,-100,4,1,0,50,0,0
173570,-100,4,1,0,90,0,0
203970,-100,4,1,0,90,0,1
232770,-100,4,1,0,90,0,0
245570,-100,4,1,0,50,0,0
246370,-100,4,1,0,40,0,0
247170,-100,4,1,0,30,0,0
247970,-100,4,1,0,20,0,0
248770,-100,4,1,0,10,0,0

[HitObjects]
256,192,770,5,0,0:0:0:0:
256,192,1370,1,0,0:0:0:0:
256,192,2370,1,8,0:0:0:0:
256,192,2970,1,0,0:0:0:0:
256,192,3970,1,8,0:0:0:0:
256,192,4570,1,8,0:0:0:0:
256,192,5370,1,0,0:0:0:0:
256,192,6370,1,8,0:0:0:0:
256,192,6770,1,8,0:0:0:0:
256,192,7170,1,4,0:0:0:0:
256,192,7570,1,8,0:0:0:0:
256,192,7970,1,0,0:0:0:0:
256,192,8170,1,0,0:0:0:0:
256,192,8570,1,8,0:0:0:0:
256,192,8970,1,0,0:0:0:0:
256,192,9570,1,0,0:0:0:0:
256,192,9970,1,8,0:0:0:0:
256,192,10170,1,8,0:0:0:0:
256,192,10370,1,0,0:0:0:0:
256,192,10770,1,12,0:0:0:0:
256,192,11570,1,12,0:0:0:0:
256,192,12370,1,12,0:0:0:0:
256,192,12770,1,12,0:0:0:0:
256,192,13170,1,12,0:0:0:0:
256,192,13570,1,4,0:0:0:0:
256,192,13970,1,8,0:0:0:0:
256,192,14370,1,0,0:0:0:0:
256,192,14570,1,0,0:0:0:0:
256,192,14970,1,8,0:0:0:0:
256,192,15370,1,0,0:0:0:0:
256,192,15970,1,0,0:0:0:0:
256,192,16370,1,8,0:0:0:0:
256,192,16570,1,0,0:0:0:0:
256,192,16770,1,0,0:0:0:0:
256,192,17170,1,12,0:0:0:0:
256,192,17970,1,12,0:0:0:0:
256,192,18770,1,12,0:0:0:0:
256,192,19170,1,12,0:0:0:0:
256,192,19570,1,12,0:0:0:0:
256,192,19970,1,0,0:0:0:0:
256,192,20770,1,0,0:0:0:0:
256,192,21570,1,0,0:0:0:0:
256,192,21970,1,8,0:0:0:0:
256,192,22370,1,0,0:0:0:0:
256,192,22570,1,0,0:0:0:0:
256,192,22770,1,0,0:0:0:0:
256,192,23570,1,0,0:0:0:0:
256,192,23970,1,0,0:0:0:0:
256,192,24370,1,8,0:0:0:0:
256,192,24770,1,8,0:0:0:0:
256,192,25170,1,8,0:0:0:0:
256,192,25370,1,0,0:0:0:0:
256,192,25770,1,8,0:0:0:0:
256,192,26770,1,0,0:0:0:0:
256,192,27170,1,0,0:0:0:0:
256,192,27570,1,8,0:0:0:0:
256,192,27970,1,0,0:0:0:0:
256,192,28370,1,8,0:0:0:0:
256,192,28570,1,0,0:0:0:0:
256,192,29970,1,0,0:0:0:0:
256,192,30370,1,0,0:0:0:0:
256,192,30770,1,8,0:0:0:0:
256,192,31170,1,8,0:0:0:0:
256,192,31570,1,8,0:0:0:0:
256,192,31770,1,0,0:0:0:0:
256,192,32170,1,8,0:0:0:0:
256,192,32570,1,0,0:0:0:0:
256,192,33570,1,0,0:0:0:0:
256,192,33770,1,8,0:0:0:0:
256,192,33970,1,8,0:0:0:0:
256,192,34370,1,0,0:0:0:0:
256,192,34770,1,12,0:0:0:0:
256,192,35170,2,0,L|544:192,1,280
256,192,36370,1,8,0:0:0:0:
256,192,36770,1,0,0:0:0:0:
256,192,37170,1,8,0:0:0:0:
256,192,37570,1,8,0:0:0:0:
256,192,37970,1,8,0:0:0:0:
256,192,38170,1,0,0:0:0:0:
256,192,38570,1,8,0:0:0:0:
256,192,39570,1,8,0:0:0:0:
256,192,39970,1,0,0:0:0:0:
256,192,40370,1,8,0:0:0:0:
256,192,40770,1,0,0:0:0:0:
256,192,41170,1,8,0:0:0:0:
256,192,41370,1,0,0:0:0:0:
256,192,42770,1,8,0:0:0:0:
256,192,43170,1,0,0:0:0:0:
256,192,43570,1,8,0:0:0:0:
256,192,43970,1,8,0:0:0:0:
256,192,44370,1,8,0:0:0:0:
256,192,44570,1,0,0:0:0:0:
256,192,44970,1,8,0:0:0:0:
256,192,45570,1,4,0:0:0:0:
256,192,45970,1,8,0:0:0:0:
256,192,46170,1,8,0:0:0:0:
256,192,46570,1,0,0:0:0:0:
256,192,46970,1,4,0:0:0:0:
256,192,47570,1,8,0:0:0:0:
256,192,47970,1,8,0:0:0:0:
256,192,48370,1,0,0:0:0:0:
256,192,48770,1,4,0:0:0:0:
256,192,49570,1,8,0:0:0:0:
256,192,50370,1,0,0:0:0:0:
256,192,50770,1,0,0:0:0:0:
256,192,51170,1,8,0:0:0:0:
256,192,51970,1,0,0:0:0:0:
256,192,52770,1,8,0:0:0:0:
256,192,53570,1,0,0:0:0:0:
256,192,53970,1,8,0:0:0:0:
256,192,54370,1,8,0:0:0:0:
256,192,55170,1,4,0:0:0:0:
256,192,55570,1,8,0:0:0:0:
256,192,55770,1,8,0:0:0:0:
256,192,56170,1,0,0:0:0:0:
256,192,56570,1,0,0:0:0:0:
256,192,57970,1,8,0:0:0:0:
256,192,58370,1,4,0:0:0:0:
256,192,58770,1,8,0:0:0:0:
256,192,58970,1,8,0:0:0:0:
256,192,59370,1,0,0:0:0:0:
256,192,59770,1,4,0:0:0:0:
256,192,60370,1,8,0:0:0:0:
256,192,60770,1,0,0:0:0:0:
256,192,61170,1,8,0:0:0:0:
256,192,61370,12,0,62770,0:0:0:0:
256,192,63170,5,4,0:0:0:0:
256,192,63570,1,8,0:0:0:0:
256,192,63770,1,8,0:0:0:0:
256,192,64370,1,8,0:0:0:0:
256,192,64770,1,0,0:0:0:0:
256,192,65170,1,8,0:0:0:0:
256,192,65370,1,0,0:0:0:0:
256,192,66370,1,0,0:0:0:0:
256,192,66770,1,8,0:0:0:0:
256,192,66970,1,8,0:0:0:0:
256,192,67570,1,8,0:0:0:0:
256,192,67970,1,0,0:0:0:0:
256,192,68370,1,8,0:0:0:0:
256,192,68570,1,8,0:0:0:0:
256,192,69570,1,4,0:0:0:0:
256,192,69970,1,8,0:0:0:0:
256,192,70170,1,8,0:0:0:0:
256,192,70770,1,8,0:0:0:0:
256,192,71170,1,0,0:0:0:0:
256,192,71570,1,8,0:0:0:0:
256,192,71770,1,0,0:0:0:0:
256,192,72370,1,8,0:0:0:0:
256,192,72570,1,0,0:0:0:0:
256,192,72770,1,0,0:0:0:0:
256,192,73170,1,8,0:0:0:0:
256,192,73570,1,0,0:0:0:0:
256,192,73970,1,8,0:0:0:0:
256,192,74370,1,4,0:0:0:0:
256,192,74770,1,12,0:0:0:0:
256,192,75170,1,12,0:0:0:0:
256,192,75970,1,4,0:0:0:0:
256,192,76370,1,8,0:0:0:0:
256,192,76570,1,8,0:0:0:0:
256,192,77170,1,8,0:0:0:0:
256,192,77570,1,0,0:0:0:0:
256,192,77970,1,8,0:0:0:0:
256,192,78170,1,0,0:0:0:0:
256,192,79170,1,0,0:0:0:0:
256,192,79570,1,8,0:0:0:0:
256,192,79770,1,8,0:0:0:0:
256,192,80170,1,8,0:0:0:0:
256,192,80570,1,0,0:0:0:0:
256,192,80770,1,8,0:0:0:0:
256,192,80970,1,0,0:0:0:0:
256,192,81370,1,8,0:0:0:0:
256,192,81970,1,8,0:0:0:0:
256,192,82370,1,4,0:0:0:0:
256,192,82770,1,8,0:0:0:0:
256,192,83570,1,8,0:0:0:0:
256,192,83970,1,0,0:0:0:0:
256,192,84370,1,8,0:0:0:0:
256,192,85170,1,8,0:0:0:0:
256,192,85570,1,0,0:0:0:0:
256,192,85970,1,8,0:0:0:0:
256,192,86770,1,8,0:0:0:0:
256,192,87170,1,0,0:0:0:0:
256,192,87570,1,8,0:0:0:0:
256,192,87770,1,8,0:0:0:0:
256,192,87970,1,8,0:0:0:0:
256,192,88370,1,0,0:0:0:0:
256,192,88770,1,12,0:0:0:0:
256,192,89370,1,0,0:0:0:0:
256,192,89570,1,0,0:0:0:0:
256,192,90170,1,0,0:0:0:0:
256,192,90370,1,12,0:0:0:0:
256,192,91970,1,4,0:0:0:0:
256,192,92370,1,8,0:0:0:0:
256,192,92770,1,0,0:0:0:0:
256,192,92970,1,0,0:0:0:0:
256,192,93370,1,8,0:0:0:0:
256,192,93770,1,0,0:0:0:0:
256,192,94370,1,0,0:0:0:0:
256,192,94770,1,8,0:0:0:0:
256,192,94970,1,8,0:0:0:0:
256,192,95170,1,0,0:0:0:0:
256,192,95570,1,12,0:0:0:0:
256,192,96370,1,12,0:0:0:0:
256,192,97170,1,12,0:0:0:0:
256,192,97570,1,12,0:0:0:0:
256,192,97970,1,12,0:0:0:0:
256,192,98370,1,4,0:0:0:0:
256,192,98770,1,8,0:0:0:0:
256,192,99170,1,0,0:0:0:0:
256,192,99370,1,0,0:0:0:0:
256,192,99770,1,8,0:0:0:0:
256,192,100170,1,0,0:0:0:0:
256,192,100770,1,0,0:0:0:0:
256,192,101170,1,8,0:0:0:0:
256,192,101370,1,0,0:0:0:0:
256,192,101570,1,0,0:0:0:0:
256,192,101970,1,12,0:0:0:0:
256,192,102770,1,12,0:0:0:0:
256,192,103570,1,12,0:0:0:0:
256,192,103970,1,12,0:0:0:0:
256,192,104370,1,12,0:0:0:0:
256,192,104770,1,0,0:0:0:0:
256,192,105570,1,8,0:0:0:0:
256,192,105970,1,8,0:0:0:0:
256,192,106370,1,4,0:0:0:0:
256,192,106770,1,8,0:0:0:0:
256,192,107170,1,0,0:0:0:0:
256,192,107570,1,8,0:0:0:0:
256,192,107970,1,8,0:0:0:0:
256,192,108370,1,8,0:0:0:0:
256,192,108570,1,0,0:0:0:0:
256,192,108970,1,8,0:0:0:0:
256,192,109970,1,8,0:0:0:0:
256,192,110370,1,0,0:0:0:0:
256,192,110770,1,8,0:0:0:0:
256,192,111170,1,0,0:0:0:0:
256,192,111570,1,8,0:0:0:0:
256,192,111770,1,0,0:0:0:0:
256,192,113170,1,8,0:0:0:0:
256,192,113570,1,0,0:0:0:0:
256,192,113970,1,8,0:0:0:0:
256,192,114370,1,8,0:0:0:0:
256,192,114770,1,8,0:0:0:0:
256,192,114970,1,0,0:0:0:0:
256,192,115370,1,8,0:0:0:0:
256,192,115970,1,4,0:0:0:0:
256,192,116370,1,8,0:0:0:0:
256,192,116570,1,8,0:0:0:0:
256,192,116970,1,0,0:0:0:0:
256,192,117370,1,4,0:0:0:0:
256,192,117970,1,8,0:0:0:0:
256,192,118370,1,8,0:0:0:0:
256,192,118770,1,0,0:0:0:0:
256,192,119170,1,4,0:0:0:0:
256,192,119970,1,8,0:0:0:0:
256,192,120770,1,0,0:0:0:0:
256,192,121170,1,0,0:0:0:0:
256,192,121570,1,8,0:0:0:0:
256,192,122370,1,0,0:0:0:0:
256,192,123170,1,8,0:0:0:0:
256,192,123970,1,0,0:0:0:0:
256,192,124370,1,8,0:0:0:0:
256,192,124770,1,8,0:0:0:0:
256,192,125570,1,4,0:0:0:0:
256,192,125970,1,8,0:0:0:0:
256,192,126170,1,8,0:0:0:0:
256,192,126570,1,0,0:0:0:0:
256,192,126970,1,0,0:0:0:0:
256,192,128370,1,8,0:0:0:0:
256,192,128770,1,4,0:0:0:0:
256,192,129170,1,8,0:0:0:0:
256,192,129370,1,8,0:0:0:0:
256,192,129770,1,0,0:0:0:0:
256,192,130170,1,4,0:0:0:0:
256,192,130770,1,8,0:0:0:0:
256,192,131170,1,0,0:0:0:0:
256,192,131570,1,8,0:0:0:0:
256,192,131770,12,0,133170,0:0:0:0:
256,192,133570,5,4,0:0:0:0:
256,192,133970,1,8,0:0:0:0:
256,192,134170,1,8,0:0:0:0:
256,192,134770,1,8,0:0:0:0:
256,192,135170,1,0,0:0:0:0:
256,192,135570,1,8,0:0:0:0:
256,192,135770,1,0,0:0:0:0:
256,192,136770,1,0,0:0:0:0:
256,192,137170,1,8,0:0:0:0:
256,192,137370,1,8,0:0:0:0:
256,192,137970,1,8,0:0:0:0:
256,192,138370,1,0,0:0:0:0:
256,192,138770,1,8,0:0:0:0:
256,192,138970,1,8,0:0:0:0:
256,192,139970,1,4,0:0:0:0:
256,192,140370,1,8,0:0:0:0:
256,192,140570,1,8,0:0:0:0:
256,192,141170,1,8,0:0:0:0:
256,192,141570,1,0,0:0:0:0:
256,192,141970,1,8,0:0:0:0:
256,192,142170,1,0,0:0:0:0:
256,192,142770,1,8,0:0:0:0:
256,192,142970,1,0,0:0:0:0:
256,192,143170,1,0,0:0:0:0:
256,192,143570,1,8,0:0:0:0:
256,192,143970,1,0,0:0:0:0:
256,192,144370,1,8,0:0:0:0:
256,192,144770,1,4,0:0:0:0:
256,192,145170,1,12,0:0:0:0:
256,192,145570,1,12,0:0:0:0:
256,192,146370,1,4,0:0:0:0:
256,192,146770,1,8,0:0:0:0:
256,192,146970,1,8,0:0:0:0:
256,192,147570,1,8,0:0:0:0:
256,192,147970,1,0,0:0:0:0:
256,192,148370,1,8,0:0:0:0:
256,192,148570,1,0,0:0:0:0:
256,192,149570,1,0,0:0:0:0:
256,192,149970,1,8,0:0:0:0:
256,192,150170,1,8,0:0:0:0:
256,192,150570,1,0,0:0:0:0:
256,192,150970,1,0,0:0:0:0:
256,192,151170,1,8,0:0:0:0:
256,192,151370,1,0,0:0:0:0:
256,192,151770,1,8,0:0:0:0:
256,192,152370,1,8,0:0:0:0:
256,192,152770,1,4,0:0:0:0:
256,192,153170,1,8,0:0:0:0:
256,192,153970,1,8,0:0:0:0:
256,192,154370,1,0,0:0:0:0:
256,192,154770,1,8,0:0:0:0:
256,192,155570,1,8,0:0:0:0:
256,192,155970,1,0,0:0:0:0:
256,192,156370,1,8,0:0:0:0:
256,192,157170,1,8,0:0:0:0:
256,192,157570,1,0,0:0:0:0:
256,192,157970,1,8,0:0:0:0:
256,192,158170,1,8,0:0:0:0:
256,192,158370,1,8,0:0:0:0:
256,192,158770,1,0,0:0:0:0:
256,192,159170,1,12,0:0:0:0:
256,192,159770,1,0,0:0:0:0:
256,192,159970,1,0,0:0:0:0:
256,192,160570,1,0,0:0:0:0:
256,192,160770,1,12,0:0:0:0:
256,192,162370,1,0,0:0:0:0:
256,192,163970,1,0,0:0:0:0:
256,192,165570,1,0,0:0:0:0:
256,192,166370,1,0,0:0:0:0:
256,192,167170,1,8,0:0:0:0:
256,192,167970,1,8,0:0:0:0:
256,192,168770,1,0,0:0:0:0:
256,192,171170,1,0,0:0:0:0:
256,192,171970,1,8,0:0:0:0:
256,192,172770,1,0,0:0:0:0:
256,192,173570,1,12,0:0:0:0:
256,192,174170,1,12,0:0:0:0:
256,192,174770,1,12,0:0:0:0:
256,192,175170,1,4,0:0:0:0:
256,192,175570,1,8,0:0:0:0:
256,192,175970,1,8,0:0:0:0:
256,192,176370,1,8,0:0:0:0:
256,192,176570,1,0,0:0:0:0:
256,192,176970,1,0,0:0:0:0:
256,192,177370,1,0,0:0:0:0:
256,192,177570,1,8,0:0:0:0:
256,192,178370,1,0,0:0:0:0:
256,192,178770,1,8,0:0:0:0:
256,192,179170,1,0,0:0:0:0:
256,192,179570,1,8,0:0:0:0:
256,192,179770,1,0,0:0:0:0:
256,192,180170,1,0,0:0:0:0:
256,192,180570,1,8,0:0:0:0:
256,192,180770,1,0,0:0:0:0:
256,192,181570,1,4,0:0:0:0:
256,192,181970,1,8,0:0:0:0:
256,192,182370,1,8,0:0:0:0:
256,192,182770,1,0,0:0:0:0:
256,192,182970,1,8,0:0:0:0:
256,192,183370,1,0,0:0:0:0:
256,192,183770,1,0,0:0:0:0:
256,192,183970,1,8,0:0:0:0:
256,192,184770,1,8,0:0:0:0:
256,192,185170,1,8,0:0:0:0:
256,192,185570,1,0,0:0:0:0:
256,192,185970,1,8,0:0:0:0:
256,192,186370,1,0,0:0:0:0:
256,192,186770,1,8,0:0:0:0:
256,192,187170,1,8,0:0:0:0:
256,192,187570,1,8,0:0:0:0:
256,192,187970,1,0,0:0:0:0:
256,192,188170,1,0,0:0:0:0:
256,192,188570,1,0,0:0:0:0:
256,192,188770,1,0,0:0:0:0:
256,192,189170,1,0,0:0:0:0:
256,192,189370,1,12,0:0:0:0:
256,192,190370,1,8,0:0:0:0:
256,192,190770,1,0,0:0:0:0:
256,192,191170,1,4,0:0:0:0:
256,192,192770,1,12,0:0:0:0:
256,192,193770,1,8,0:0:0:0:
256,192,194170,1,8,0:0:0:0:
256,192,194370,1,4,0:0:0:0:
256,192,195970,1,12,0:0:0:0:
256,192,196970,1,8,0:0:0:0:
256,192,197370,1,8,0:0:0:0:
256,192,197570,1,4,0:0:0:0:
256,192,198170,1,8,0:0:0:0:
256,192,198770,1,8,0:0:0:0:
256,192,199170,1,0,0:0:0:0:
256,192,199770,1,0,0:0:0:0:
256,192,200370,1,8,0:0:0:0:
256,192,200770,1,0,0:0:0:0:
256,192,201170,1,0,0:0:0:0:
256,192,201570,1,8,0:0:0:0:
256,192,201770,1,8,0:0:0:0:
256,192,201970,1,8,0:0:0:0:
256,192,202370,1,4,0:0:0:0:
256,192,202770,1,4,0:0:0:0:
256,192,203170,1,12,0:0:0:0:
256,192,203970,1,4,0:0:0:0:
256,192,204370,1,8,0:0:0:0:
256,192,204570,1,8,0:0:0:0:
256,192,205170,1,8,0:0:0:0:
256,192,205570,1,0,0:0:0:0:
256,192,205970,1,8,0:0:0:0:
256,192,206170,1,0,0:0:0:0:
256,192,207170,1,0,0:0:0:0:
256,192,207570,1,8,0:0:0:0:
256,192,207770,1,8,0:0:0:0:
256,192,208370,1,8,0:0:0:0:
256,192,208770,1,0,0:0:0:0:
256,192,209170,1,8,0:0:0:0:
256,192,209370,1,8,0:0:0:0:
256,192,210370,1,4,0:0:0:0:
256,192,210770,1,8,0:0:0:0:
256,192,210970,1,8,0:0:0:0:
256,192,211570,1,8,0:0:0:0:
256,192,211970,1,0,0:0:0:0:
256,192,212370,1,8,0:0:0:0:
256,192,212570,1,0,0:0:0:0:
256,192,213170,1,8,0:0:0:0:
256,192,213370,1,0,0:0:0:0:
256,192,213570,1,0,0:0:0:0:
256,192,213970,1,8,0:0:0:0:
256,192,214370,1,0,0:0:0:0:
256,192,214770,1,8,0:0:0:0:
256,192,215170,1,4,0:0:0:0:
256,192,215570,1,12,0:0:0:0:
256,192,215970,1,12,0:0:0:0:
256,192,216770,1,4,0:0:0:0:
256,192,217170,1,8,0:0:0:0:
256,192,217370,1,8,0:0:0:0:
256,192,217970,1,8,0:0:0:0:
256,192,218370,1,0,0:0:0:0:
256,192,218770,1,8,0:0:0:0:
256,192,218970,1,0,0:0:0:0:
256,192,219970,1,0,0:0:0:0:
256,192,220370,1,8,0:0:0:0:
256,192,220570,1,8,0:0:0:0:
256,192,220970,1,0,0:0:0:0:
256,192,221370,1,0,0:0:0:0:
256,192,221570,1,8,0:0:0:0:
256,192,221770,1,0,0:0:0:0:
256,192,222170,1,8,0:0:0:0:
256,192,222770,1,8,0:0:0:0:
256,192,223170,1,4,0:0:0:0:
256,192,223570,1,8,0:0:0:0:
256,192,224370,1,8,0:0:0:0:
256,192,224770,1,0,0:0:0:0:
256,192,225170,1,8,0:0:0:0:
256,192,225970,1,8,0:0:0:0:
256,192,226370,1,0,0:0:0:0:
256,192,226770,1,8,0:0:0:0:
256,192,227570,1,8,0:0:0:0:
256,192,227970,1,0,0:0:0:0:
256,192,228370,1,8,0:0:0:0:
256,192,228570,1,8,0:0:0:0:
256,192,228770,1,8,0:0:0:0:
256,192,229170,1,0,0:0:0:0:
256,192,229570,1,12,0:0:0:0:
256,192,230170,1,0,0:0:0:0:
256,192,230370,1,0,0:0:0:0:
256,192,230970,1,0,0:0:0:0:
256,192,231170,1,12,0:0:0:0:
256,192,232770,1,4,0:0:0:0:
256,192,233170,1,8,0:0:0:0:
256,192,233570,1,0,0:0:0:0:
256,192,233770,1,0,0:0:0:0:
256,192,234170,1,8,0:0:0:0:
256,192,234570,1,0,0:0:0:0:
256,192,235170,1,0,0:0:0:0:
256,192,235570,1,8,0:0:0:0:
256,192,235770,1,8,0:0:0:0:
256,192,235970,1,0,0:0:0:0:
256,192,236370,1,12,0:0:0:0:
256,192,237170,1,12,0:0:0:0:
256,192,237970,1,12,0:0:0:0:
256,192,238370,1,12,0:0:0:0:
256,192,238770,1,12,0:0:0:0:
256,192,239170,1,4,0:0:0:0:
256,192,239570,1,8,0:0:0:0:
256,192,239970,1,0,0:0:0:0:
256,192,240170,1,0,0:0:0:0:
256,192,240570,1,8,0:0:0:0:
256,192,240970,1,0,0:0:0:0:
256,192,241570,1,0,0:0:0:0:
256,192,241970,1,8,0:0:0:0:
256,192,242170,1,0,0:0:0:0:
256,192,242370,1,0,0:0:0:0:
256,192,242770,1,12,0:0:0:0:
256,192,243570,1,12,0:0:0:0:
256,192,244370,1,12,0:0:0:0:
256,192,244770,1,12,0:0:0:0:
256,192,245170,1,12,0:0:0:0:
256,192,245570,12,0,248770,0:0:0:0:
