osu file format v14

[General]
AudioFilename: STARTDASH!!.mp3
AudioLeadIn: 1996
PreviewTime: 62770
Countdown: 0
SampleSet: Normal
StackLeniency: 0.7
Mode: 1
LetterboxInBreaks: 0
WidescreenStoryboard: 0

[Editor]
DistanceSpacing: 1
BeatDivisor: 4
GridSize: 32
TimelineZoom: 1

[Metadata]
Title:START:DASH!!
TitleUnicode:START:DASH!!
Artist:u's
ArtistUnicode:μ's
Creator:Nardoxyribonucleic
Version:Kantan
Source:Love Live! School idol project
Tags:Taiko ラブライブ SUNRISE Hata Aki Jikson[m9]
BeatmapID:272598
BeatmapSetID:103240

[Difficulty]
HPDrainRate:6
CircleSize:5
OverallDifficulty:3.5
ApproachRate:5
SliderMultiplier:1.4
SliderTickRate:1

[Events]
//Background and Video events
0,0,"lovelive1.jpg",0,60
//Break Periods
//Storyboard Layer 0 (Background)
//Storyboard Layer 1 (Fail)
//Storyboard Layer 2 (Pass)
//Storyboard Layer 3 (Foreground)
//Storyboard Sound Samples

[TimingPoints]
770,400,4,1,0,50,1,0
5570,-100,4,1,0,70,0,0
7170,-100,4,1,0,90,0,0
61370,-100,4,1,0,50,0,0
63170,-100,4,1,0,90,0,1
91970,-100,4,1,0,90,0,0
131770,-100,4,1,0,50,0,0
133570,-100,4,1,0,90,0,1
160770,-100,4,1,0,90,0,0
162370,-100,4,1,0,50,0,0
173570,-100,4,1,0,90,0,0
203970,-100,4,1,0,90,0,1
232770,-100,4,1,0,90,0,0
245570,-100,4,1,0,50,0,0
246370,-100,4,1,0,40,0,0
247170,-100,4,1,0,30,0,0
247970,-100,4,1,0,20,0,0
248770,-100,4,1,0,10,0,0

[HitObjects]
256,192,770,5,0,0:0:0:0:
256,192,2370,1,0,0:0:0:0:
256,192,3970,1,8,0:0:0:0:
256,192,5370,1,0,0:0:0:0:
256,192,7170,1,4,0:0:0:0:
256,192,7970,1,0,0:0:0:0:
256,192,8770,1,8,0:0:0:0:
256,192,9570,1,0,0:0:0:0:
256,192,10370,1,0,0:0:0:0:
256,192,10770,1,8,0:0:0:0:
256,192,11570,1,8,0:0:0:0:
256,192,12370,1,8,0:0:0:0:
256,192,12770,1,8,0:0:0:0:
256,192,13170,1,8,0:0:0:0:
256,192,13570,1,4,0:0:0:0:
256,192,14370,1,0,0:0:0:0:
256,192,15170,1,8,0:0:0:0:
256,192,15970,1,0,0:0:0:0:
256,192,16770,1,0,0:0:0:0:
256,192,17170,1,8,0:0:0:0:
256,192,17970,1,8,0:0:0:0:
256,192,18770,1,8,0:0:0:0:
256,192,19170,1,8,0:0:0:0:
256,192,19570,1,8,0:0:0:0:
256,192,19970,1,0,0:0:0:0:
256,192,21570,1,0,0:0:0:0:
256,192,22370,1,8,0:0:0:0:
256,192,22770,1,8,0:0:0:0:
256,192,23170,1,0,0:0:0:0:
256,192,23970,1,0,0:0:0:0:
256,192,24770,1,8,0:0:0:0:
256,192,25570,1,0,0:0:0:0:
256,192,25970,1,8,0:0:0:0:
256,192,26370,1,0,0:0:0:0:
256,192,27170,1,0,0:0:0:0:
256,192,27970,1,0,0:0:0:0:
256,192,29570,1,0,0:0:0:0:
256,192,30370,1,0,0:0:0:0:
256,192,31170,1,8,0:0:0:0:
256,192,31970,1,0,0:0:0:0:
256,192,32370,1,8,0:0:0:0:
256,192,32770,1,0,0:0:0:0:
256,192,33970,1,8,0:0:0:0:
256,192,34370,1,0,0:0:0:0:
256,192,34770,1,12,0:0:0:0:
256,192,35170,2,0,L|320:192,8,35
256,192,36770,1,0,0:0:0:0:
256,192,37570,1,8,0:0:0:0:
256,192,38370,1,0,0:0:0:0:
256,192,38770,1,8,0:0:0:0:
256,192,39170,1,0,0:0:0:0:
256,192,39970,1,0,0:0:0:0:
256,192,40770,1,0,0:0:0:0:
256,192,42370,1,0,0:0:0:0:
256,192,43170,1,0,0:0:0:0:
256,192,43970,1,8,0:0:0:0:
256,192,44370,1,8,0:0:0:0:
256,192,44770,1,0,0:0:0:0:
256,192,45570,1,4,0:0:0:0:
256,192,46970,1,4,0:0:0:0:
256,192,47970,1,8,0:0:0:0:
256,192,48370,1,0,0:0:0:0:
256,192,48770,1,4,0:0:0:0:
256,192,50370,1,0,0:0:0:0:
256,192,51170,1,8,0:0:0:0:
256,192,51970,1,0,0:0:0:0:
256,192,53570,1,0,0:0:0:0:
256,192,54370,1,8,0:0:0:0:
256,192,55170,1,4,0:0:0:0:
256,192,55970,1,0,0:0:0:0:
256,192,56770,1,8,0:0:0:0:
256,192,57570,1,0,0:0:0:0:
256,192,57970,1,8,0:0:0:0:
256,192,58370,1,4,0:0:0:0:
256,192,59770,1,4,0:0:0:0:
256,192,60370,1,8,0:0:0:0:
256,192,60770,1,0,0:0:0:0:
256,192,61370,12,0,62770,0:0:0:0:
256,192,63170,5,4,0:0:0:0:
256,192,63970,1,8,0:0:0:0:
256,192,64770,1,8,0:0:0:0:
256,192,65170,1,8,0:0:0:0:
256,192,65570,1,0,0:0:0:0:
256,192,66370,1,8,0:0:0:0:
256,192,67170,1,0,0:0:0:0:
256,192,67970,1,0,0:0:0:0:
256,192,68370,1,0,0:0:0:0:
256,192,68770,1,8,0:0:0:0:
256,192,69570,1,4,0:0:0:0:
256,192,70370,1,0,0:0:0:0:
256,192,71170,1,8,0:0:0:0:
256,192,72770,1,0,0:0:0:0:
256,192,73570,1,0,0:0:0:0:
256,192,74370,1,8,0:0:0:0:
256,192,74770,1,8,0:0:0:0:
256,192,75170,1,8,0:0:0:0:
256,192,75970,1,4,0:0:0:0:
256,192,76770,1,8,0:0:0:0:
256,192,77570,1,8,0:0:0:0:
256,192,77970,1,8,0:0:0:0:
256,192,78370,1,0,0:0:0:0:
256,192,79170,1,8,0:0:0:0:
256,192,79970,1,0,0:0:0:0:
256,192,80770,1,8,0:0:0:0:
256,192,82370,1,4,0:0:0:0:
256,192,83170,1,8,0:0:0:0:
256,192,83570,1,0,0:0:0:0:
256,192,83970,1,0,0:0:0:0:
256,192,84770,1,8,0:0:0:0:
256,192,85570,1,0,0:0:0:0:
256,192,86370,1,8,0:0:0:0:
256,192,87170,1,0,0:0:0:0:
256,192,87570,1,8,0:0:0:0:
256,192,87970,1,8,0:0:0:0:
256,192,88770,1,12,0:0:0:0:
256,192,89570,1,0,0:0:0:0:
256,192,90370,1,12,0:0:0:0:
256,192,91970,1,4,0:0:0:0:
256,192,92770,1,0,0:0:0:0:
256,192,93570,1,8,0:0:0:0:
256,192,94370,1,0,0:0:0:0:
256,192,95170,1,0,0:0:0:0:
256,192,95570,1,8,0:0:0:0:
256,192,96370,1,8,0:0:0:0:
256,192,97170,1,8,0:0:0:0:
256,192,97570,1,8,0:0:0:0:
256,192,97970,1,8,0:0:0:0:
256,192,98370,1,4,0:0:0:0:
256,192,99170,1,0,0:0:0:0:
256,192,99970,1,8,0:0:0:0:
256,192,100770,1,0,0:0:0:0:
256,192,101570,1,0,0:0:0:0:
256,192,101970,1,8,0:0:0:0:
256,192,102770,1,8,0:0:0:0:
256,192,103570,1,8,0:0:0:0:
256,192,103970,1,8,0:0:0:0:
256,192,104370,1,8,0:0:0:0:
256,192,104770,1,0,0:0:0:0:
256,192,106370,1,4,0:0:0:0:
256,192,107170,1,0,0:0:0:0:
256,192,107970,1,8,0:0:0:0:
256,192,108770,1,0,0:0:0:0:
256,192,109170,1,8,0:0:0:0:
256,192,109570,1,0,0:0:0:0:
256,192,110370,1,0,0:0:0:0:
256,192,111170,1,0,0:0:0:0:
256,192,112770,1,0,0:0:0:0:
256,192,113570,1,0,0:0:0:0:
256,192,114370,1,8,0:0:0:0:
256,192,114770,1,8,0:0:0:0:
256,192,115170,1,0,0:0:0:0:
256,192,115970,1,4,0:0:0:0:
256,192,117370,1,4,0:0:0:0:
256,192,118370,1,8,0:0:0:0:
256,192,118770,1,0,0:0:0:0:
256,192,119170,1,4,0:0:0:0:
256,192,120770,1,0,0:0:0:0:
256,192,121570,1,8,0:0:0:0:
256,192,122370,1,0,0:0:0:0:
256,192,123970,1,0,0:0:0:0:
256,192,124770,1,8,0:0:0:0:
256,192,125570,1,4,0:0:0:0:
256,192,126370,1,0,0:0:0:0:
256,192,127170,1,8,0:0:0:0:
256,192,127970,1,0,0:0:0:0:
256,192,128370,1,8,0:0:0:0:
256,192,128770,1,4,0:0:0:0:
256,192,130170,1,4,0:0:0:0:
256,192,130770,1,8,0:0:0:0:
256,192,131170,1,0,0:0:0:0:
256,192,131770,12,0,133170,0:0:0:0:
256,192,133570,5,4,0:0:0:0:
256,192,134370,1,8,0:0:0:0:
256,192,135170,1,8,0:0:0:0:
256,192,135570,1,8,0:0:0:0:
256,192,135970,1,0,0:0:0:0:
256,192,136770,1,8,0:0:0:0:
256,192,137570,1,0,0:0:0:0:
256,192,138370,1,0,0:0:0:0:
256,192,138770,1,0,0:0:0:0:
256,192,139170,1,8,0:0:0:0:
256,192,139970,1,4,0:0:0:0:
256,192,140770,1,0,0:0:0:0:
256,192,141570,1,8,0:0:0:0:
256,192,143170,1,0,0:0:0:0:
256,192,143970,1,0,0:0:0:0:
256,192,144770,1,8,0:0:0:0:
256,192,145170,1,8,0:0:0:0:
256,192,145570,1,8,0:0:0:0:
256,192,146370,1,4,0:0:0:0:
256,192,147170,1,8,0:0:0:0:
256,192,147970,1,8,0:0:0:0:
256,192,148370,1,8,0:0:0:0:
256,192,148770,1,0,0:0:0:0:
256,192,149570,1,8,0:0:0:0:
256,192,150370,1,0,0:0:0:0:
256,192,151170,1,8,0:0:0:0:
256,192,152770,1,4,0:0:0:0:
256,192,153570,1,8,0:0:0:0:
256,192,153970,1,0,0:0:0:0:
256,192,154370,1,0,0:0:0:0:
256,192,155170,1,8,0:0:0:0:
256,192,155970,1,0,0:0:0:0:
256,192,156770,1,8,0:0:0:0:
256,192,157570,1,0,0:0:0:0:
256,192,157970,1,8,0:0:0:0:
256,192,158370,1,8,0:0:0:0:
256,192,159170,1,12,0:0:0:0:
256,192,159970,1,0,0:0:0:0:
256,192,160770,1,12,0:0:0:0:
256,192,162370,1,0,0:0:0:0:
256,192,165570,1,0,0:0:0:0:
256,192,167170,1,8,0:0:0:0:
256,192,168770,1,0,0:0:0:0:
256,192,171970,1,8,0:0:0:0:
256,192,173570,1,12,0:0:0:0:
256,192,174770,1,12,0:0:0:0:
256,192,175170,1,4,0:0:0:0:
256,192,175970,1,8,0:0:0:0:
256,192,176770,1,8,0:0:0:0:
256,192,177170,1,0,0:0:0:0:
256,192,177570,1,8,0:0:0:0:
256,192,178370,1,0,0:0:0:0:
256,192,179170,1,8,0:0:0:0:
256,192,179970,1,0,0:0:0:0:
256,192,180370,1,8,0:0:0:0:
256,192,180770,1,0,0:0:0:0:
256,192,181570,1,4,0:0:0:0:
256,192,182370,1,8,0:0:0:0:
256,192,183170,1,0,0:0:0:0:
256,192,184770,1,8,0:0:0:0:
256,192,185570,1,0,0:0:0:0:
256,192,185970,1,8,0:0:0:0:
256,192,186370,1,0,0:0:0:0:
256,192,187170,1,8,0:0:0:0:
256,192,187970,1,4,0:0:0:0:
256,192,189370,1,12,0:0:0:0:
256,192,191170,1,4,0:0:0:0:
256,192,192770,1,12,0:0:0:0:
256,192,194370,1,4,0:0:0:0:
256,192,195970,1,12,0:0:0:0:
256,192,197570,1,4,0:0:0:0:
256,192,198370,1,8,0:0:0:0:
256,192,199170,1,0,0:0:0:0:
256,192,199570,1,0,0:0:0:0:
256,192,199970,1,0,0:0:0:0:
256,192,200770,1,8,0:0:0:0:
256,192,201570,1,0,0:0:0:0:
256,192,202370,1,8,0:0:0:0:
256,192,202770,1,8,0:0:0:0:
256,192,203170,1,8,0:0:0:0:
256,192,203970,1,4,0:0:0:0:
256,192,204770,1,8,0:0:0:0:
256,192,205570,1,8,0:0:0:0:
256,192,205970,1,8,0:0:0:0:
256,192,206370,1,0,0:0:0:0:
256,192,207170,1,8,0:0:0:0:
256,192,207970,1,0,0:0:0:0:
256,192,208770,1,0,0:0:0:0:
256,192,209170,1,0,0:0:0:0:
256,192,209570,1,8,0:0:0:0:
256,192,210370,1,4,0:0:0:0:
256,192,211170,1,0,0:0:0:0:
256,192,211970,1,8,0:0:0:0:
256,192,213570,1,0,0:0:0:0:
256,192,214370,1,0,0:0:0:0:
256,192,215170,1,8,0:0:0:0:
256,192,215570,1,8,0:0:0:0:
256,192,215970,1,8,0:0:0:0:
256,192,216770,1,4,0:0:0:0:
256,192,217570,1,8,0:0:0:0:
256,192,218370,1,8,0:0:0:0:
256,192,218770,1,8,0:0:0:0:
256,192,219170,1,0,0:0:0:0:
256,192,219970,1,8,0:0:0:0:
256,192,220770,1,0,0:0:0:0:
256,192,221570,1,8,0:0:0:0:
256,192,223170,1,4,0:0:0:0:
256,192,223970,1,8,0:0:0:0:
256,192,224370,1,0,0:0:0:0:
256,192,224770,1,0,0:0:0:0:
256,192,225570,1,8,0:0:0:0:
256,192,226370,1,0,0:0:0:0:
256,192,227170,1,8,0:0:0:0:
256,192,227970,1,0,0:0:0:0:
256,192,228370,1,8,0:0:0:0:
256,192,228770,1,8,0:0:0:0:
256,192,229570,1,12,0:0:0:0:
256,192,230370,1,0,0:0:0:0:
256,192,231170,1,12,0:0:0:0:
256,192,232770,1,4,0:0:0:0:
256,192,233570,1,0,0:0:0:0:
256,192,234370,1,8,0:0:0:0:
256,192,235170,1,0,0:0:0:0:
256,192,235970,1,0,0:0:0:0:
256,192,236370,1,8,0:0:0:0:
256,192,237170,1,8,0:0:0:0:
256,192,237970,1,8,0:0:0:0:
256,192,238370,1,8,0:0:0:0:
256,192,238770,1,8,0:0:0:0:
256,192,239170,1,4,0:0:0:0:
256,192,239970,1,0,0:0:0:0:
256,192,240770,1,8,0:0:0:0:
256,192,241570,1,0,0:0:0:0:
256,192,242370,1,0,0:0:0:0:
256,192,242770,1,8,0:0:0:0:
256,192,243570,1,8,0:0:0:0:
256,192,244370,1,8,0:0:0:0:
256,192,244770,1,8,0:0:0:0:
256,192,245170,1,8,0:0:0:0:
256,192,245570,12,0,248770,0:0:0:0:
