osu file format v14

[General]
AudioFilename: STARTDASH!!.mp3
AudioLeadIn: 1996
PreviewTime: 62770
Countdown: 0
SampleSet: Normal
StackLeniency: 0.7
Mode: 1
LetterboxInBreaks: 0
WidescreenStoryboard: 0

[Editor]
DistanceSpacing: 1
BeatDivisor: 4
GridSize: 32
TimelineZoom: 1

[Metadata]
Title:START:DASH!!
TitleUnicode:START:DASH!!
Artist:u's
ArtistUnicode:μ's
Creator:Nardoxyribonucleic
Version:Jik's Inner Oni
Source:Love Live! School idol project
Tags:Taiko ラブライブ SUNRISE Hata Aki Jikson[m9]
BeatmapID:302307
BeatmapSetID:103240

[Difficulty]
HPDrainRate:6
CircleSize:5
OverallDifficulty:5.5
ApproachRate:5
SliderMultiplier:1.4
SliderTickRate:1

[Events]
//Background and Video events
0,0,"lovelive5.jpg",0,80
//Break Periods
//Storyboard Layer 0 (Background)
//Storyboard Layer 1 (Fail)
//Storyboard Layer 2 (Pass)
//Storyboard Layer 3 (Foreground)
//Storyboard Sound Samples

[TimingPoints]
770,400,4,1,0,50,1,0
5570,-100,4,1,0,70,0,0
7170,-100,4,1,0,90,0,0
63170,-100,4,1,0,90,0,1
91970,-100,4,1,0,90,0,0
133570,-100,4,1,0,90,0,1
160770,-100,4,1,0,90,0,0
162370,-100,4,1,0,50,0,0
173570,-100,4,1,0,90,0,0
203970,-100,4,1,0,90,0,1
232770,-100,4,1,0,90,0,0
245570,-100,4,1,0,50,0,0
246370,-100,4,1,0,40,0,0
247170,-100,4,1,0,30,0,0
247970,-100,4,1,0,20,0,0
248770,-100,4,1,0,10,0,0

[HitObjects]
448,160,570,5,0,0:0:0:0:
448,160,670,1,0,0:0:0:0:
448,160,770,1,8,0:0:0:0:
448,160,970,1,0,0:0:0:0:
480,192,1170,1,8,0:0:0:0:
480,192,1370,1,0,0:0:0:0:
320,192,1770,1,8,0:0:0:0:
320,192,1970,1,8,0:0:0:0:
416,192,2170,1,0,0:0:0:0:
416,192,2270,1,0,0:0:0:0:
416,224,2370,1,8,0:0:0:0:
384,192,2570,1,0,0:0:0:0:
480,224,2770,1,8,0:0:0:0:
512,160,2970,1,0,0:0:0:0:
448,192,3370,1,0,0:0:0:0:
448,224,3570,1,8,0:0:0:0:
384,160,3770,1,0,0:0:0:0:
384,160,3870,1,0,0:0:0:0:
384,128,3970,1,8,0:0:0:0:
448,160,4170,1,8,0:0:0:0:
448,160,4370,1,0,0:0:0:0:
448,160,4570,1,8,0:0:0:0:
448,128,4970,1,0,0:0:0:0:
448,128,5070,1,0,0:0:0:0:
448,128,5170,1,0,0:0:0:0:
256,192,5370,12,0,6370,0:0:0:0:
480,160,7170,5,4,0:0:0:0:
448,192,7570,1,8,0:0:0:0:
384,192,7970,1,8,0:0:0:0:
448,224,8170,1,0,0:0:0:0:
352,192,8370,1,8,0:0:0:0:
384,192,8570,1,8,0:0:0:0:
320,192,8670,1,8,0:0:0:0:
320,192,8770,1,0,0:0:0:0:
384,160,8970,1,0,0:0:0:0:
384,192,9070,1,0,0:0:0:0:
384,192,9170,1,8,0:0:0:0:
384,192,9370,1,0,0:0:0:0:
288,192,9570,1,8,0:0:0:0:
384,192,9670,1,8,0:0:0:0:
288,192,9770,1,0,0:0:0:0:
256,160,9970,1,8,0:0:0:0:
288,192,10170,1,8,0:0:0:0:
384,192,10370,1,0,0:0:0:0:
384,192,10470,1,0,0:0:0:0:
384,192,10570,1,0,0:0:0:0:
256,192,10770,1,12,0:0:0:0:
352,160,11170,1,0,0:0:0:0:
416,160,11270,1,0,0:0:0:0:
352,160,11370,1,0,0:0:0:0:
320,192,11570,1,12,0:0:0:0:
320,192,11970,1,0,0:0:0:0:
416,192,12070,1,0,0:0:0:0:
320,192,12170,1,0,0:0:0:0:
320,192,12370,1,12,0:0:0:0:
384,192,12570,1,0,0:0:0:0:
384,192,12770,1,12,0:0:0:0:
384,192,12970,1,0,0:0:0:0:
448,192,13170,1,12,0:0:0:0:
448,160,13370,1,0,0:0:0:0:
448,160,13470,1,0,0:0:0:0:
352,192,13570,1,8,0:0:0:0:
416,192,13970,1,8,0:0:0:0:
416,160,14170,1,0,0:0:0:0:
416,160,14270,1,0,0:0:0:0:
448,160,14370,1,8,0:0:0:0:
416,192,14570,1,0,0:0:0:0:
416,192,14770,1,0,0:0:0:0:
416,160,14870,1,0,0:0:0:0:
352,160,14970,1,8,0:0:0:0:
384,128,15070,1,8,0:0:0:0:
384,128,15170,1,0,0:0:0:0:
448,224,15370,1,0,0:0:0:0:
480,192,15570,1,8,0:0:0:0:
416,192,15770,1,8,0:0:0:0:
416,160,15970,1,0,0:0:0:0:
448,160,16170,1,0,0:0:0:0:
448,160,16270,1,0,0:0:0:0:
480,192,16370,1,8,0:0:0:0:
480,192,16570,1,0,0:0:0:0:
416,160,16770,1,0,0:0:0:0:
416,160,16870,1,0,0:0:0:0:
416,160,16970,1,0,0:0:0:0:
448,192,17170,1,12,0:0:0:0:
448,160,17570,1,0,0:0:0:0:
448,160,17670,1,0,0:0:0:0:
448,160,17770,1,0,0:0:0:0:
416,160,17970,1,12,0:0:0:0:
416,160,18370,1,0,0:0:0:0:
416,160,18470,1,0,0:0:0:0:
416,160,18570,1,0,0:0:0:0:
416,192,18770,1,12,0:0:0:0:
416,192,18970,1,0,0:0:0:0:
448,192,19170,1,12,0:0:0:0:
416,192,19370,1,0,0:0:0:0:
448,192,19570,1,12,0:0:0:0:
512,160,19770,1,0,0:0:0:0:
480,160,19870,1,0,0:0:0:0:
480,192,19970,1,8,0:0:0:0:
480,192,20370,1,8,0:0:0:0:
480,160,20770,1,0,0:0:0:0:
480,160,20970,1,0,0:0:0:0:
512,192,21170,1,8,0:0:0:0:
480,160,21570,1,8,0:0:0:0:
512,192,21770,1,8,0:0:0:0:
512,192,21970,1,0,0:0:0:0:
512,192,22170,1,8,0:0:0:0:
512,192,22370,1,0,0:0:0:0:
512,192,22470,1,0,0:0:0:0:
512,192,22570,1,0,0:0:0:0:
512,192,22770,1,8,0:0:0:0:
512,192,22970,1,0,0:0:0:0:
448,160,23070,1,8,0:0:0:0:
512,192,23170,1,0,0:0:0:0:
288,192,23370,1,0,0:0:0:0:
512,192,23570,1,0,0:0:0:0:
512,192,23970,1,0,0:0:0:0:
512,192,24170,1,0,0:0:0:0:
480,192,24270,1,0,0:0:0:0:
512,160,24370,1,8,0:0:0:0:
480,192,24770,1,0,0:0:0:0:
384,192,24970,1,0,0:0:0:0:
480,192,25170,1,8,0:0:0:0:
448,192,25370,1,8,0:0:0:0:
480,192,25570,1,0,0:0:0:0:
416,192,25670,1,0,0:0:0:0:
480,192,25770,1,0,0:0:0:0:
416,192,25970,1,8,0:0:0:0:
448,160,26170,1,0,0:0:0:0:
448,192,26270,1,8,0:0:0:0:
448,160,26370,1,0,0:0:0:0:
384,224,26570,1,0,0:0:0:0:
448,160,26770,1,0,0:0:0:0:
448,192,27170,1,0,0:0:0:0:
448,192,27370,1,0,0:0:0:0:
416,192,27470,1,0,0:0:0:0:
512,192,27570,1,8,0:0:0:0:
512,192,27970,1,0,0:0:0:0:
384,224,28170,1,0,0:0:0:0:
512,192,28370,1,8,0:0:0:0:
512,192,28570,1,8,0:0:0:0:
512,192,28770,1,0,0:0:0:0:
512,192,28870,1,0,0:0:0:0:
512,192,28970,1,0,0:0:0:0:
512,192,29170,1,8,0:0:0:0:
512,192,29370,1,0,0:0:0:0:
448,192,29470,1,8,0:0:0:0:
512,192,29570,1,0,0:0:0:0:
384,224,29770,1,0,0:0:0:0:
448,224,29970,1,0,0:0:0:0:
448,224,30370,1,0,0:0:0:0:
448,224,30570,1,0,0:0:0:0:
512,192,30670,1,0,0:0:0:0:
480,192,30770,1,8,0:0:0:0:
480,160,31170,1,0,0:0:0:0:
384,224,31370,1,0,0:0:0:0:
480,160,31570,1,8,0:0:0:0:
448,192,31770,1,0,0:0:0:0:
448,256,31870,1,8,0:0:0:0:
480,160,31970,1,0,0:0:0:0:
0,128,32070,1,0,0:0:0:0:
480,160,32170,1,0,0:0:0:0:
480,160,32370,1,8,0:0:0:0:
480,160,32570,1,0,0:0:0:0:
416,192,32770,1,4,0:0:0:0:
416,192,32970,1,0,0:0:0:0:
416,192,33170,1,0,0:0:0:0:
416,192,33370,1,0,0:0:0:0:
416,192,33470,1,0,0:0:0:0:
416,192,33570,1,0,0:0:0:0:
416,192,33770,1,8,0:0:0:0:
416,192,33970,1,8,0:0:0:0:
416,192,34370,1,4,0:0:0:0:
384,192,34770,1,12,0:0:0:0:
416,160,35170,1,8,0:0:0:0:
288,192,35270,1,0,0:0:0:0:
288,192,35370,1,0,0:0:0:0:
288,192,35470,1,0,0:0:0:0:
288,192,35570,1,8,0:0:0:0:
416,192,35670,1,8,0:0:0:0:
416,192,35770,1,0,0:0:0:0:
416,192,35870,1,0,0:0:0:0:
416,192,35970,1,0,0:0:0:0:
416,192,36170,1,0,0:0:0:0:
448,192,36370,1,8,0:0:0:0:
320,192,36570,1,8,0:0:0:0:
448,192,36770,1,0,0:0:0:0:
448,192,36970,1,0,0:0:0:0:
384,192,37070,1,0,0:0:0:0:
416,224,37170,1,8,0:0:0:0:
448,224,37370,1,8,0:0:0:0:
448,192,37570,1,0,0:0:0:0:
448,192,37670,1,0,0:0:0:0:
448,192,37770,1,0,0:0:0:0:
512,192,37970,1,8,0:0:0:0:
480,192,38170,1,0,0:0:0:0:
512,160,38270,1,8,0:0:0:0:
480,192,38370,1,0,0:0:0:0:
480,192,38470,1,0,0:0:0:0:
416,160,38570,1,0,0:0:0:0:
512,160,38770,1,8,0:0:0:0:
512,160,39170,1,0,0:0:0:0:
512,160,39370,1,0,0:0:0:0:
480,192,39570,1,8,0:0:0:0:
448,224,39770,1,8,0:0:0:0:
416,192,39970,1,0,0:0:0:0:
448,192,40170,1,0,0:0:0:0:
480,192,40270,1,0,0:0:0:0:
416,192,40370,1,8,0:0:0:0:
448,256,40570,1,8,0:0:0:0:
448,192,40770,1,0,0:0:0:0:
448,192,40870,1,0,0:0:0:0:
448,192,40970,1,0,0:0:0:0:
352,224,41170,1,8,0:0:0:0:
448,192,41370,1,0,0:0:0:0:
448,224,41570,1,8,0:0:0:0:
448,224,41670,1,8,0:0:0:0:
352,224,41770,1,0,0:0:0:0:
352,192,41870,1,0,0:0:0:0:
352,224,41970,1,8,0:0:0:0:
416,192,42370,1,0,0:0:0:0:
416,192,42570,1,0,0:0:0:0:
480,192,42770,1,8,0:0:0:0:
448,256,42970,1,8,0:0:0:0:
480,192,43170,1,0,0:0:0:0:
384,192,43270,1,0,0:0:0:0:
480,192,43370,1,0,0:0:0:0:
448,160,43470,1,0,0:0:0:0:
480,160,43570,1,8,0:0:0:0:
448,288,43770,1,8,0:0:0:0:
512,160,43970,1,0,0:0:0:0:
480,224,44070,1,0,0:0:0:0:
512,160,44170,1,0,0:0:0:0:
480,192,44370,1,8,0:0:0:0:
480,192,44570,1,0,0:0:0:0:
416,192,44670,1,8,0:0:0:0:
480,192,44770,1,0,0:0:0:0:
480,192,44870,1,0,0:0:0:0:
480,192,44970,1,0,0:0:0:0:
512,160,45170,1,8,0:0:0:0:
512,160,45370,1,0,0:0:0:0:
512,192,45570,1,12,0:0:0:0:
448,192,45770,1,0,0:0:0:0:
448,192,45870,1,0,0:0:0:0:
448,192,45970,1,8,0:0:0:0:
512,160,46170,1,12,0:0:0:0:
448,192,46570,1,8,0:0:0:0:
512,160,46770,1,8,0:0:0:0:
480,160,46970,1,4,0:0:0:0:
448,160,47370,1,0,0:0:0:0:
448,192,47570,1,8,0:0:0:0:
448,192,47770,1,0,0:0:0:0:
448,192,47970,1,8,0:0:0:0:
448,192,48170,1,8,0:0:0:0:
448,160,48270,1,0,0:0:0:0:
448,160,48370,1,0,0:0:0:0:
384,192,48570,1,0,0:0:0:0:
448,160,48770,1,4,0:0:0:0:
480,192,48970,1,0,0:0:0:0:
448,192,49370,1,0,0:0:0:0:
512,186,49570,1,8,0:0:0:0:
400,198,49970,1,0,0:0:0:0:
400,198,50170,1,8,0:0:0:0:
400,198,50370,1,0,0:0:0:0:
400,198,50570,1,0,0:0:0:0:
400,198,50970,1,0,0:0:0:0:
448,160,51170,1,8,0:0:0:0:
384,160,51370,1,0,0:0:0:0:
416,160,51470,1,0,0:0:0:0:
384,160,51570,1,8,0:0:0:0:
448,256,51770,1,8,0:0:0:0:
492,172,51970,1,0,0:0:0:0:
492,172,52170,1,0,0:0:0:0:
492,172,52570,1,0,0:0:0:0:
512,182,52770,1,8,0:0:0:0:
492,172,53170,1,0,0:0:0:0:
458,163,53370,1,8,0:0:0:0:
458,163,53570,1,0,0:0:0:0:
492,172,53770,1,0,0:0:0:0:
492,172,54170,1,0,0:0:0:0:
512,182,54370,1,8,0:0:0:0:
492,172,54570,1,8,0:0:0:0:
492,172,54770,1,8,0:0:0:0:
458,163,54870,1,8,0:0:0:0:
512,182,54970,1,0,0:0:0:0:
512,182,55070,1,0,0:0:0:0:
458,163,55170,1,8,0:0:0:0:
448,224,55370,1,0,0:0:0:0:
512,172,55570,1,8,0:0:0:0:
512,172,55770,1,0,0:0:0:0:
492,172,55870,1,0,0:0:0:0:
512,179,55970,1,0,0:0:0:0:
480,180,56170,1,8,0:0:0:0:
480,180,56370,1,8,0:0:0:0:
455,186,56570,1,0,0:0:0:0:
458,163,56670,1,0,0:0:0:0:
512,179,56770,1,8,0:0:0:0:
512,179,56970,1,0,0:0:0:0:
416,160,57070,1,0,0:0:0:0:
455,186,57170,1,8,0:0:0:0:
480,180,57370,1,8,0:0:0:0:
492,172,57570,1,0,0:0:0:0:
480,180,57770,1,0,0:0:0:0:
510,166,57970,1,8,0:0:0:0:
455,186,58170,1,8,0:0:0:0:
455,186,58370,1,4,0:0:0:0:
448,160,58670,1,0,0:0:0:0:
476,143,58770,1,8,0:0:0:0:
386,173,58970,1,8,0:0:0:0:
416,160,59170,1,0,0:0:0:0:
476,143,59370,1,8,0:0:0:0:
476,143,59470,1,0,0:0:0:0:
455,186,59570,1,8,0:0:0:0:
315,163,59770,1,12,0:0:0:0:
426,193,60170,1,0,0:0:0:0:
426,193,60370,1,8,0:0:0:0:
426,193,60570,1,8,0:0:0:0:
506,183,60770,1,0,0:0:0:0:
506,183,60970,1,8,0:0:0:0:
476,143,61070,1,8,0:0:0:0:
506,183,61170,1,0,0:0:0:0:
426,193,61370,1,12,0:0:0:0:
506,183,61770,1,0,0:0:0:0:
506,183,61970,1,0,0:0:0:0:
468,170,62370,1,0,0:0:0:0:
468,170,62470,1,0,0:0:0:0:
468,170,62570,1,0,0:0:0:0:
468,170,62670,1,0,0:0:0:0:
426,193,62770,1,8,0:0:0:0:
416,160,62870,1,8,0:0:0:0:
468,170,62970,1,0,0:0:0:0:
468,170,63070,1,0,0:0:0:0:
426,193,63170,1,8,0:0:0:0:
468,170,63370,1,0,0:0:0:0:
468,170,63470,1,0,0:0:0:0:
468,170,63570,1,8,0:0:0:0:
468,170,63770,1,8,0:0:0:0:
468,170,63970,1,0,0:0:0:0:
426,193,64170,1,8,0:0:0:0:
426,193,64270,1,8,0:0:0:0:
426,193,64370,1,8,0:0:0:0:
426,193,64570,1,0,0:0:0:0:
441,168,64770,1,8,0:0:0:0:
441,168,64970,1,0,0:0:0:0:
426,193,65070,1,0,0:0:0:0:
426,193,65170,1,8,0:0:0:0:
450,208,65370,1,0,0:0:0:0:
450,208,65770,1,0,0:0:0:0:
352,193,65970,1,8,0:0:0:0:
491,212,66170,1,0,0:0:0:0:
491,212,66270,1,0,0:0:0:0:
374,213,66370,1,8,0:0:0:0:
450,208,66570,1,0,0:0:0:0:
450,208,66670,1,0,0:0:0:0:
450,208,66770,1,8,0:0:0:0:
450,208,66970,1,8,0:0:0:0:
512,192,67170,1,0,0:0:0:0:
450,208,67370,1,8,0:0:0:0:
450,208,67470,1,8,0:0:0:0:
450,208,67570,1,8,0:0:0:0:
450,208,67770,1,8,0:0:0:0:
461,146,67970,1,0,0:0:0:0:
461,146,68170,1,0,0:0:0:0:
461,146,68270,1,0,0:0:0:0:
461,146,68370,1,8,0:0:0:0:
461,146,68570,1,8,0:0:0:0:
461,146,68970,1,0,0:0:0:0:
461,146,69170,1,8,0:0:0:0:
450,208,69370,1,0,0:0:0:0:
450,208,69470,1,0,0:0:0:0:
415,221,69570,1,8,0:0:0:0:
331,249,69770,1,0,0:0:0:0:
331,249,69870,1,0,0:0:0:0:
415,221,69970,1,8,0:0:0:0:
415,221,70170,1,8,0:0:0:0:
461,146,70370,1,0,0:0:0:0:
365,141,70470,1,0,0:0:0:0:
365,141,70570,1,8,0:0:0:0:
365,141,70670,1,8,0:0:0:0:
365,141,70770,1,8,0:0:0:0:
428,178,70970,1,0,0:0:0:0:
377,204,71170,1,8,0:0:0:0:
415,221,71270,1,8,0:0:0:0:
453,197,71370,1,0,0:0:0:0:
314,207,71570,1,8,0:0:0:0:
428,178,71770,1,8,0:0:0:0:
384,160,71970,1,0,0:0:0:0:
365,141,72370,1,8,0:0:0:0:
439,154,72570,1,0,0:0:0:0:
377,204,72770,1,0,0:0:0:0:
384,160,72970,1,8,0:0:0:0:
384,160,73170,1,0,0:0:0:0:
384,160,73270,1,0,0:0:0:0:
320,160,73370,1,8,0:0:0:0:
384,160,73570,1,0,0:0:0:0:
352,160,73770,1,8,0:0:0:0:
352,160,73970,1,0,0:0:0:0:
352,160,74070,1,0,0:0:0:0:
320,192,74170,1,8,0:0:0:0:
302,173,74370,1,4,0:0:0:0:
351,162,74770,1,4,0:0:0:0:
302,173,75170,1,12,0:0:0:0:
425,163,75370,1,0,0:0:0:0:
512,160,75470,1,0,0:0:0:0:
480,160,75570,1,8,0:0:0:0:
416,160,75670,1,8,0:0:0:0:
485,181,75770,1,0,0:0:0:0:
485,181,75870,1,0,0:0:0:0:
425,163,75970,1,8,0:0:0:0:
485,181,76170,1,0,0:0:0:0:
485,181,76270,1,0,0:0:0:0:
425,163,76370,1,8,0:0:0:0:
425,163,76570,1,8,0:0:0:0:
408,192,76770,1,0,0:0:0:0:
464,204,76970,1,8,0:0:0:0:
464,204,77070,1,8,0:0:0:0:
464,204,77170,1,8,0:0:0:0:
485,181,77370,1,0,0:0:0:0:
451,180,77570,1,8,0:0:0:0:
368,198,77670,1,0,0:0:0:0:
368,198,77770,1,0,0:0:0:0:
408,192,77970,1,8,0:0:0:0:
451,180,78170,1,0,0:0:0:0:
408,192,78570,1,8,0:0:0:0:
512,188,78770,1,8,0:0:0:0:
402,152,78970,1,0,0:0:0:0:
402,152,79070,1,0,0:0:0:0:
376,173,79170,1,8,0:0:0:0:
488,182,79370,1,0,0:0:0:0:
488,182,79470,1,0,0:0:0:0:
408,192,79570,1,8,0:0:0:0:
408,192,79770,1,8,0:0:0:0:
408,192,79970,1,0,0:0:0:0:
416,160,80070,1,0,0:0:0:0:
445,217,80170,1,8,0:0:0:0:
445,217,80270,1,8,0:0:0:0:
445,217,80370,1,8,0:0:0:0:
444,180,80570,1,0,0:0:0:0:
444,180,80770,1,8,0:0:0:0:
444,180,80870,1,8,0:0:0:0:
444,180,80970,1,0,0:0:0:0:
444,180,81170,1,8,0:0:0:0:
444,180,81370,1,0,0:0:0:0:
444,180,81570,1,8,0:0:0:0:
444,180,81670,1,8,0:0:0:0:
444,180,81770,1,8,0:0:0:0:
445,217,81870,1,0,0:0:0:0:
445,217,81970,1,8,0:0:0:0:
480,192,82170,1,8,0:0:0:0:
444,180,82370,1,4,0:0:0:0:
444,180,82570,1,0,0:0:0:0:
480,192,82670,1,0,0:0:0:0:
480,160,82770,1,8,0:0:0:0:
444,180,82970,1,0,0:0:0:0:
444,180,83370,1,8,0:0:0:0:
480,192,83470,1,0,0:0:0:0:
480,160,83570,1,8,0:0:0:0:
444,180,83770,1,8,0:0:0:0:
444,180,83970,1,0,0:0:0:0:
444,180,84170,1,0,0:0:0:0:
480,192,84270,1,0,0:0:0:0:
480,160,84370,1,8,0:0:0:0:
444,180,84570,1,0,0:0:0:0:
480,160,84970,1,8,0:0:0:0:
416,128,85070,1,0,0:0:0:0:
480,160,85170,1,8,0:0:0:0:
444,180,85370,1,0,0:0:0:0:
384,160,85470,1,8,0:0:0:0:
320,128,85570,1,0,0:0:0:0:
480,160,85770,1,8,0:0:0:0:
480,160,85870,1,0,0:0:0:0:
480,160,85970,1,8,0:0:0:0:
416,192,86170,1,0,0:0:0:0:
444,180,86570,1,0,0:0:0:0:
444,180,86670,1,0,0:0:0:0:
416,160,86770,1,8,0:0:0:0:
444,180,86970,1,0,0:0:0:0:
444,180,87170,1,8,0:0:0:0:
444,180,87270,1,8,0:0:0:0:
480,192,87370,1,0,0:0:0:0:
480,160,87570,1,8,0:0:0:0:
480,192,87770,1,8,0:0:0:0:
480,192,87970,1,8,0:0:0:0:
480,192,88070,1,8,0:0:0:0:
480,192,88170,1,8,0:0:0:0:
444,180,88270,1,0,0:0:0:0:
444,180,88370,1,8,0:0:0:0:
444,180,88570,1,0,0:0:0:0:
444,180,88670,1,0,0:0:0:0:
444,180,88770,1,8,0:0:0:0:
444,180,89170,1,8,0:0:0:0:
480,192,89370,1,0,0:0:0:0:
480,192,89470,1,0,0:0:0:0:
480,192,89570,1,0,0:0:0:0:
384,192,89770,1,8,0:0:0:0:
384,192,89970,1,0,0:0:0:0:
480,160,90170,1,0,0:0:0:0:
480,160,90270,1,0,0:0:0:0:
480,192,90370,1,8,0:0:0:0:
448,128,90770,1,8,0:0:0:0:
384,160,91170,1,0,0:0:0:0:
384,160,91370,1,0,0:0:0:0:
384,160,91570,1,8,0:0:0:0:
384,160,91770,1,8,0:0:0:0:
256,192,91970,12,8,94970,0:0:0:0:
416,160,95170,5,0,0:0:0:0:
416,160,95270,1,0,0:0:0:0:
416,160,95370,1,0,0:0:0:0:
352,192,95570,5,12,0:0:0:0:
256,160,95970,1,0,0:0:0:0:
256,160,96070,1,0,0:0:0:0:
256,160,96170,1,0,0:0:0:0:
416,192,96370,1,12,0:0:0:0:
416,192,96770,1,0,0:0:0:0:
416,192,96870,1,0,0:0:0:0:
416,192,96970,1,0,0:0:0:0:
416,192,97170,1,12,0:0:0:0:
416,192,97370,1,0,0:0:0:0:
416,192,97570,1,12,0:0:0:0:
416,192,97770,1,0,0:0:0:0:
416,192,97970,1,12,0:0:0:0:
416,160,98170,1,0,0:0:0:0:
416,160,98270,1,0,0:0:0:0:
448,192,98370,1,8,0:0:0:0:
448,192,98770,1,8,0:0:0:0:
416,160,98970,1,0,0:0:0:0:
416,160,99070,1,0,0:0:0:0:
480,192,99170,1,8,0:0:0:0:
416,160,99370,1,0,0:0:0:0:
448,160,99570,1,0,0:0:0:0:
448,160,99670,1,0,0:0:0:0:
480,160,99770,1,8,0:0:0:0:
384,128,99870,1,8,0:0:0:0:
384,128,99970,1,0,0:0:0:0:
480,160,100170,1,0,0:0:0:0:
480,192,100370,1,8,0:0:0:0:
448,192,100570,1,8,0:0:0:0:
448,192,100770,1,0,0:0:0:0:
384,160,100970,1,8,0:0:0:0:
384,160,101070,1,0,0:0:0:0:
448,160,101170,1,8,0:0:0:0:
384,160,101370,1,0,0:0:0:0:
384,160,101570,1,0,0:0:0:0:
384,160,101670,1,0,0:0:0:0:
384,160,101770,1,0,0:0:0:0:
448,160,101970,1,12,0:0:0:0:
384,160,102370,1,0,0:0:0:0:
384,160,102470,1,0,0:0:0:0:
384,160,102570,1,0,0:0:0:0:
448,160,102770,1,12,0:0:0:0:
384,160,103170,1,0,0:0:0:0:
384,160,103270,1,0,0:0:0:0:
384,160,103370,1,0,0:0:0:0:
448,160,103570,1,12,0:0:0:0:
416,192,103770,1,0,0:0:0:0:
392,128,103970,1,12,0:0:0:0:
416,192,104170,1,0,0:0:0:0:
392,128,104370,1,12,0:0:0:0:
384,160,104570,1,0,0:0:0:0:
384,160,104670,1,0,0:0:0:0:
256,192,104770,12,0,105370,0:0:0:0:
392,128,105570,5,8,0:0:0:0:
421,173,105770,1,0,0:0:0:0:
421,173,105870,1,0,0:0:0:0:
367,166,105970,1,8,0:0:0:0:
421,173,106170,1,0,0:0:0:0:
456,187,106370,1,4,0:0:0:0:
421,173,106770,1,8,0:0:0:0:
421,173,106970,1,8,0:0:0:0:
421,173,107170,1,0,0:0:0:0:
421,173,107370,1,0,0:0:0:0:
421,173,107470,1,0,0:0:0:0:
421,173,107570,1,8,0:0:0:0:
421,173,107770,1,8,0:0:0:0:
421,173,107970,1,0,0:0:0:0:
416,160,108170,1,0,0:0:0:0:
416,160,108270,1,0,0:0:0:0:
421,173,108370,1,8,0:0:0:0:
421,173,108570,1,0,0:0:0:0:
409,148,108770,1,0,0:0:0:0:
448,160,108870,1,0,0:0:0:0:
421,173,108970,1,0,0:0:0:0:
421,173,109170,1,8,0:0:0:0:
320,192,109370,1,8,0:0:0:0:
421,173,109570,1,0,0:0:0:0:
409,148,109970,1,8,0:0:0:0:
421,173,110170,1,8,0:0:0:0:
409,148,110370,1,0,0:0:0:0:
421,173,110570,1,0,0:0:0:0:
421,173,110670,1,0,0:0:0:0:
421,173,110770,1,8,0:0:0:0:
388,170,110970,1,0,0:0:0:0:
388,170,111170,1,8,0:0:0:0:
388,170,111370,1,8,0:0:0:0:
388,170,111470,1,8,0:0:0:0:
388,170,111570,1,8,0:0:0:0:
288,192,111770,1,0,0:0:0:0:
388,170,111970,1,8,0:0:0:0:
388,170,112070,1,8,0:0:0:0:
388,170,112170,1,0,0:0:0:0:
388,170,112370,1,8,0:0:0:0:
288,192,112570,1,0,0:0:0:0:
388,170,112770,1,0,0:0:0:0:
388,170,113170,1,8,0:0:0:0:
388,170,113370,1,8,0:0:0:0:
388,170,113570,1,0,0:0:0:0:
388,170,113770,1,0,0:0:0:0:
388,170,113870,1,0,0:0:0:0:
388,170,113970,1,8,0:0:0:0:
384,192,114170,1,8,0:0:0:0:
406,151,114370,1,0,0:0:0:0:
388,170,114570,1,0,0:0:0:0:
388,170,114670,1,0,0:0:0:0:
388,170,114770,1,8,0:0:0:0:
352,160,114970,1,0,0:0:0:0:
352,160,115070,1,8,0:0:0:0:
388,170,115170,1,0,0:0:0:0:
352,160,115270,1,0,0:0:0:0:
388,170,115370,1,0,0:0:0:0:
346,153,115570,1,8,0:0:0:0:
388,170,115770,1,8,0:0:0:0:
388,170,115970,1,4,0:0:0:0:
388,170,116170,1,8,0:0:0:0:
384,160,116270,1,8,0:0:0:0:
388,170,116370,1,0,0:0:0:0:
388,170,116570,1,4,0:0:0:0:
388,170,116970,1,0,0:0:0:0:
388,170,117170,1,0,0:0:0:0:
388,170,117370,1,12,0:0:0:0:
388,170,117770,1,0,0:0:0:0:
388,170,117970,1,8,0:0:0:0:
384,192,118170,1,0,0:0:0:0:
388,170,118270,1,0,0:0:0:0:
388,170,118370,1,8,0:0:0:0:
388,170,118570,1,0,0:0:0:0:
388,170,118670,1,0,0:0:0:0:
388,170,118770,1,0,0:0:0:0:
412,199,118970,1,0,0:0:0:0:
388,170,119170,1,4,0:0:0:0:
452,178,119570,1,8,0:0:0:0:
412,199,119770,1,0,0:0:0:0:
412,199,119970,1,0,0:0:0:0:
388,170,120370,1,8,0:0:0:0:
421,174,120570,1,0,0:0:0:0:
421,174,120770,1,0,0:0:0:0:
412,199,120970,1,8,0:0:0:0:
351,183,121170,1,0,0:0:0:0:
384,197,121570,1,8,0:0:0:0:
421,174,121870,1,8,0:0:0:0:
351,183,121970,1,8,0:0:0:0:
421,174,122370,1,0,0:0:0:0:
388,170,122770,1,8,0:0:0:0:
384,197,122970,1,0,0:0:0:0:
384,197,123170,1,0,0:0:0:0:
388,170,123570,1,8,0:0:0:0:
388,170,123770,1,0,0:0:0:0:
388,170,123970,1,0,0:0:0:0:
388,170,124170,1,8,0:0:0:0:
388,170,124370,1,8,0:0:0:0:
417,164,124770,1,8,0:0:0:0:
417,164,124870,1,8,0:0:0:0:
417,164,124970,1,0,0:0:0:0:
417,164,125070,1,8,0:0:0:0:
445,173,125170,1,8,0:0:0:0:
417,164,125370,1,0,0:0:0:0:
417,164,125470,1,0,0:0:0:0:
417,164,125570,1,8,0:0:0:0:
445,173,125770,1,0,0:0:0:0:
388,170,125970,1,8,0:0:0:0:
445,173,126170,1,0,0:0:0:0:
445,173,126270,1,0,0:0:0:0:
417,164,126370,1,8,0:0:0:0:
445,173,126570,1,0,0:0:0:0:
388,170,126770,1,8,0:0:0:0:
417,164,126970,1,0,0:0:0:0:
417,164,127070,1,0,0:0:0:0:
417,164,127170,1,8,0:0:0:0:
445,173,127370,1,8,0:0:0:0:
445,173,127470,1,8,0:0:0:0:
445,173,127570,1,8,0:0:0:0:
445,173,127770,1,0,0:0:0:0:
445,173,127970,1,8,0:0:0:0:
445,173,128170,1,8,0:0:0:0:
320,160,128270,1,8,0:0:0:0:
445,173,128370,1,8,0:0:0:0:
448,192,128570,1,8,0:0:0:0:
417,164,128770,1,4,0:0:0:0:
448,160,129070,1,0,0:0:0:0:
476,143,129170,1,8,0:0:0:0:
386,173,129370,1,8,0:0:0:0:
416,160,129570,1,0,0:0:0:0:
384,192,129670,1,0,0:0:0:0:
476,143,129770,1,8,0:0:0:0:
476,143,129870,1,8,0:0:0:0:
455,186,129970,1,0,0:0:0:0:
315,163,130170,1,12,0:0:0:0:
377,177,130570,1,8,0:0:0:0:
377,177,130770,1,8,0:0:0:0:
384,192,130970,1,0,0:0:0:0:
377,177,131170,1,8,0:0:0:0:
377,177,131370,1,0,0:0:0:0:
377,177,131470,1,0,0:0:0:0:
377,177,131570,1,8,0:0:0:0:
389,141,131770,1,12,0:0:0:0:
377,177,132170,1,8,0:0:0:0:
377,177,132370,1,8,0:0:0:0:
468,170,132770,1,0,0:0:0:0:
468,170,132870,1,0,0:0:0:0:
468,170,132970,1,0,0:0:0:0:
468,170,133070,1,0,0:0:0:0:
377,177,133170,1,8,0:0:0:0:
352,160,133270,1,8,0:0:0:0:
468,170,133370,1,0,0:0:0:0:
468,170,133470,1,0,0:0:0:0:
426,193,133570,1,8,0:0:0:0:
468,170,133770,1,0,0:0:0:0:
468,170,133870,1,0,0:0:0:0:
468,170,133970,1,8,0:0:0:0:
468,170,134170,1,8,0:0:0:0:
468,170,134370,1,0,0:0:0:0:
426,193,134570,1,8,0:0:0:0:
426,193,134670,1,8,0:0:0:0:
426,193,134770,1,8,0:0:0:0:
426,193,134970,1,0,0:0:0:0:
441,168,135170,1,8,0:0:0:0:
441,168,135370,1,0,0:0:0:0:
426,193,135470,1,0,0:0:0:0:
426,193,135570,1,8,0:0:0:0:
450,208,135770,1,0,0:0:0:0:
450,208,136170,1,0,0:0:0:0:
352,193,136370,1,8,0:0:0:0:
491,212,136570,1,0,0:0:0:0:
491,212,136670,1,0,0:0:0:0:
374,213,136770,1,8,0:0:0:0:
450,208,136970,1,0,0:0:0:0:
450,208,137070,1,0,0:0:0:0:
450,208,137170,1,8,0:0:0:0:
450,208,137370,1,8,0:0:0:0:
512,192,137570,1,0,0:0:0:0:
450,208,137770,1,8,0:0:0:0:
450,208,137870,1,8,0:0:0:0:
450,208,137970,1,8,0:0:0:0:
450,208,138170,1,8,0:0:0:0:
461,146,138370,1,0,0:0:0:0:
461,146,138570,1,0,0:0:0:0:
461,146,138670,1,0,0:0:0:0:
461,146,138770,1,8,0:0:0:0:
461,146,138970,1,8,0:0:0:0:
461,146,139370,1,8,0:0:0:0:
461,146,139570,1,8,0:0:0:0:
450,208,139770,1,0,0:0:0:0:
450,208,139870,1,0,0:0:0:0:
415,221,139970,1,8,0:0:0:0:
331,249,140170,1,0,0:0:0:0:
331,249,140270,1,0,0:0:0:0:
415,221,140370,1,8,0:0:0:0:
415,221,140570,1,8,0:0:0:0:
461,146,140770,1,0,0:0:0:0:
352,160,140870,1,0,0:0:0:0:
365,141,140970,1,8,0:0:0:0:
365,141,141070,1,8,0:0:0:0:
365,141,141170,1,8,0:0:0:0:
428,178,141370,1,0,0:0:0:0:
377,204,141570,1,8,0:0:0:0:
415,221,141670,1,8,0:0:0:0:
453,197,141770,1,0,0:0:0:0:
314,207,141970,1,8,0:0:0:0:
428,178,142170,1,8,0:0:0:0:
377,204,142370,1,0,0:0:0:0:
377,204,142770,1,8,0:0:0:0:
439,154,142970,1,0,0:0:0:0:
377,204,143170,1,0,0:0:0:0:
384,160,143370,1,8,0:0:0:0:
384,160,143570,1,0,0:0:0:0:
384,160,143670,1,0,0:0:0:0:
320,160,143770,1,8,0:0:0:0:
384,160,143970,1,0,0:0:0:0:
352,160,144170,1,8,0:0:0:0:
352,160,144370,1,0,0:0:0:0:
352,160,144470,1,0,0:0:0:0:
320,192,144570,1,8,0:0:0:0:
302,173,144770,1,4,0:0:0:0:
351,162,145170,1,4,0:0:0:0:
302,173,145570,1,12,0:0:0:0:
425,163,145770,1,0,0:0:0:0:
512,160,145870,1,0,0:0:0:0:
480,160,145970,1,8,0:0:0:0:
320,160,146070,1,8,0:0:0:0:
320,160,146170,1,0,0:0:0:0:
320,160,146270,1,0,0:0:0:0:
288,128,146370,1,8,0:0:0:0:
485,181,146570,1,0,0:0:0:0:
485,181,146670,1,0,0:0:0:0:
425,163,146770,1,8,0:0:0:0:
425,163,146970,1,8,0:0:0:0:
408,192,147170,1,0,0:0:0:0:
464,204,147370,1,8,0:0:0:0:
464,204,147470,1,8,0:0:0:0:
464,204,147570,1,8,0:0:0:0:
485,181,147770,1,0,0:0:0:0:
451,180,147970,1,8,0:0:0:0:
368,198,148070,1,0,0:0:0:0:
368,198,148170,1,0,0:0:0:0:
408,192,148370,1,8,0:0:0:0:
451,180,148570,1,0,0:0:0:0:
451,180,148970,1,8,0:0:0:0:
512,188,149170,1,8,0:0:0:0:
402,152,149370,1,0,0:0:0:0:
402,152,149470,1,0,0:0:0:0:
376,173,149570,1,8,0:0:0:0:
488,182,149770,1,0,0:0:0:0:
488,182,149870,1,0,0:0:0:0:
408,192,149970,1,8,0:0:0:0:
408,192,150170,1,8,0:0:0:0:
408,192,150370,1,0,0:0:0:0:
384,160,150470,1,0,0:0:0:0:
445,217,150570,1,8,0:0:0:0:
445,217,150670,1,8,0:0:0:0:
445,217,150770,1,8,0:0:0:0:
444,180,150970,1,0,0:0:0:0:
444,180,151170,1,8,0:0:0:0:
444,180,151270,1,8,0:0:0:0:
444,180,151370,1,0,0:0:0:0:
444,180,151570,1,8,0:0:0:0:
444,180,151770,1,0,0:0:0:0:
444,180,151970,1,8,0:0:0:0:
444,180,152070,1,8,0:0:0:0:
444,180,152170,1,8,0:0:0:0:
445,217,152270,1,0,0:0:0:0:
445,217,152370,1,8,0:0:0:0:
480,192,152570,1,8,0:0:0:0:
444,180,152770,1,4,0:0:0:0:
444,180,152970,1,0,0:0:0:0:
480,192,153070,1,0,0:0:0:0:
480,160,153170,1,8,0:0:0:0:
444,180,153370,1,0,0:0:0:0:
444,180,153770,1,8,0:0:0:0:
480,192,153870,1,0,0:0:0:0:
480,160,153970,1,8,0:0:0:0:
444,180,154170,1,8,0:0:0:0:
444,180,154370,1,0,0:0:0:0:
444,180,154570,1,0,0:0:0:0:
480,192,154670,1,0,0:0:0:0:
480,160,154770,1,8,0:0:0:0:
444,180,154970,1,0,0:0:0:0:
480,160,155370,1,8,0:0:0:0:
416,128,155470,1,0,0:0:0:0:
480,160,155570,1,8,0:0:0:0:
444,180,155770,1,0,0:0:0:0:
384,160,155870,1,8,0:0:0:0:
320,128,155970,1,0,0:0:0:0:
480,160,156170,1,8,0:0:0:0:
480,160,156270,1,0,0:0:0:0:
480,160,156370,1,8,0:0:0:0:
416,192,156570,1,0,0:0:0:0:
444,180,156970,1,0,0:0:0:0:
444,180,157070,1,0,0:0:0:0:
416,160,157170,1,8,0:0:0:0:
444,180,157370,1,0,0:0:0:0:
444,180,157570,1,8,0:0:0:0:
444,180,157670,1,8,0:0:0:0:
480,192,157770,1,0,0:0:0:0:
480,160,157970,1,8,0:0:0:0:
480,192,158170,1,0,0:0:0:0:
480,192,158370,1,8,0:0:0:0:
480,192,158470,1,8,0:0:0:0:
480,192,158570,1,8,0:0:0:0:
444,180,158670,1,0,0:0:0:0:
444,180,158770,1,8,0:0:0:0:
444,180,158970,1,0,0:0:0:0:
444,180,159070,1,0,0:0:0:0:
444,180,159170,1,8,0:0:0:0:
416,160,159470,1,8,0:0:0:0:
416,160,159570,1,8,0:0:0:0:
480,192,159770,1,0,0:0:0:0:
480,192,159870,1,0,0:0:0:0:
480,192,159970,1,0,0:0:0:0:
444,180,160270,1,0,0:0:0:0:
444,180,160370,1,0,0:0:0:0:
480,160,160570,1,8,0:0:0:0:
480,160,160670,1,8,0:0:0:0:
480,192,160770,1,8,0:0:0:0:
448,128,161170,1,8,0:0:0:0:
384,160,161570,1,0,0:0:0:0:
384,160,161770,1,0,0:0:0:0:
416,192,161870,1,0,0:0:0:0:
384,160,161970,1,8,0:0:0:0:
384,160,162170,1,8,0:0:0:0:
256,192,162370,12,8,165170,0:0:0:0:
383,171,165570,5,0,0:0:0:0:
383,171,166370,1,0,0:0:0:0:
383,171,167170,1,0,0:0:0:0:
383,171,167970,1,8,0:0:0:0:
256,192,168770,12,0,170770,0:0:0:0:
394,184,171170,5,0,0:0:0:0:
394,184,171570,1,0,0:0:0:0:
394,184,171970,1,8,0:0:0:0:
430,151,172370,1,8,0:0:0:0:
394,184,172770,1,0,0:0:0:0:
394,184,172970,1,0,0:0:0:0:
394,184,173170,1,8,0:0:0:0:
394,184,173570,1,12,0:0:0:0:
394,184,173970,1,0,0:0:0:0:
394,184,174170,1,12,0:0:0:0:
394,184,174570,1,0,0:0:0:0:
394,184,174770,1,12,0:0:0:0:
390,161,175170,5,0,0:0:0:0:
390,161,175370,1,0,0:0:0:0:
421,163,175470,1,0,0:0:0:0:
390,161,175570,1,8,0:0:0:0:
390,161,175770,1,0,0:0:0:0:
390,161,175870,1,0,0:0:0:0:
390,161,175970,1,8,0:0:0:0:
390,161,176170,1,0,0:0:0:0:
311,173,176370,1,8,0:0:0:0:
352,168,176570,1,0,0:0:0:0:
352,168,176970,1,0,0:0:0:0:
352,160,177170,1,8,0:0:0:0:
390,161,177370,1,0,0:0:0:0:
445,178,177470,1,0,0:0:0:0:
456,148,177570,1,8,0:0:0:0:
352,160,177670,1,8,0:0:0:0:
445,178,177770,1,0,0:0:0:0:
416,171,177970,1,8,0:0:0:0:
390,161,178170,1,8,0:0:0:0:
390,161,178370,1,0,0:0:0:0:
390,161,178570,1,0,0:0:0:0:
390,161,178670,1,0,0:0:0:0:
390,161,178770,1,8,0:0:0:0:
445,178,178970,1,0,0:0:0:0:
445,178,179070,1,0,0:0:0:0:
445,178,179170,1,8,0:0:0:0:
445,178,179370,1,8,0:0:0:0:
416,171,179470,1,0,0:0:0:0:
416,171,179570,1,0,0:0:0:0:
416,171,179770,1,0,0:0:0:0:
416,171,180170,1,0,0:0:0:0:
320,192,180370,1,8,0:0:0:0:
416,171,180570,1,0,0:0:0:0:
416,171,180770,1,8,0:0:0:0:
384,160,180870,1,8,0:0:0:0:
385,184,180970,1,0,0:0:0:0:
385,184,181070,1,0,0:0:0:0:
385,184,181170,1,8,0:0:0:0:
385,184,181570,1,0,0:0:0:0:
446,187,181770,1,0,0:0:0:0:
446,187,181870,1,0,0:0:0:0:
446,187,181970,1,8,0:0:0:0:
416,171,182170,1,0,0:0:0:0:
416,171,182270,1,8,0:0:0:0:
392,210,182370,1,0,0:0:0:0:
392,210,182470,1,0,0:0:0:0:
343,199,182570,1,8,0:0:0:0:
446,187,182770,1,0,0:0:0:0:
446,187,182870,1,0,0:0:0:0:
343,199,182970,1,8,0:0:0:0:
446,187,183370,1,0,0:0:0:0:
384,192,183570,1,8,0:0:0:0:
416,171,183770,1,0,0:0:0:0:
320,192,183870,1,0,0:0:0:0:
375,168,183970,1,8,0:0:0:0:
416,171,184170,1,0,0:0:0:0:
416,171,184270,1,8,0:0:0:0:
416,171,184370,1,8,0:0:0:0:
446,187,184570,1,8,0:0:0:0:
416,171,184770,1,8,0:0:0:0:
416,171,184870,1,8,0:0:0:0:
416,171,184970,1,0,0:0:0:0:
416,171,185170,1,8,0:0:0:0:
416,171,185270,1,8,0:0:0:0:
416,171,185370,1,0,0:0:0:0:
416,171,185570,1,0,0:0:0:0:
416,171,185670,1,0,0:0:0:0:
416,171,185770,1,0,0:0:0:0:
416,171,185970,1,0,0:0:0:0:
416,171,186070,1,0,0:0:0:0:
416,171,186170,1,0,0:0:0:0:
416,171,186370,1,0,0:0:0:0:
416,171,186470,1,0,0:0:0:0:
416,171,186570,1,8,0:0:0:0:
448,192,186670,1,0,0:0:0:0:
416,171,186770,1,0,0:0:0:0:
416,171,186870,1,0,0:0:0:0:
416,171,186970,1,8,0:0:0:0:
416,171,187170,1,8,0:0:0:0:
416,171,187370,1,8,0:0:0:0:
360,164,187470,1,8,0:0:0:0:
416,171,187570,1,0,0:0:0:0:
416,171,187670,1,8,0:0:0:0:
416,171,187770,1,8,0:0:0:0:
416,171,187870,1,8,0:0:0:0:
416,171,187970,1,0,0:0:0:0:
471,162,188170,1,4,0:0:0:0:
444,164,188570,1,4,0:0:0:0:
392,158,188770,1,4,0:0:0:0:
380,191,189170,1,4,0:0:0:0:
444,164,189370,1,12,0:0:0:0:
288,128,190970,1,0,0:0:0:0:
391,166,191170,1,12,0:0:0:0:
288,128,191370,1,0,0:0:0:0:
391,166,191570,1,8,0:0:0:0:
391,166,191770,1,8,0:0:0:0:
384,128,192170,1,0,0:0:0:0:
391,166,192570,1,12,0:0:0:0:
391,166,192770,1,12,0:0:0:0:
416,160,192970,1,0,0:0:0:0:
416,160,193370,1,0,0:0:0:0:
391,166,193770,1,12,0:0:0:0:
391,166,194170,1,12,0:0:0:0:
391,166,194370,1,4,0:0:0:0:
416,160,194570,1,0,0:0:0:0:
416,160,194770,1,8,0:0:0:0:
416,160,194970,1,8,0:0:0:0:
416,160,195370,1,8,0:0:0:0:
352,160,195770,1,4,0:0:0:0:
352,160,195970,1,4,0:0:0:0:
384,192,196170,1,8,0:0:0:0:
352,224,196570,1,8,0:0:0:0:
384,160,196970,1,12,0:0:0:0:
384,160,197370,1,12,0:0:0:0:
384,160,197570,1,4,0:0:0:0:
384,192,197770,1,8,0:0:0:0:
416,160,198170,1,8,0:0:0:0:
416,160,198570,1,8,0:0:0:0:
416,160,198770,1,0,0:0:0:0:
416,160,198970,1,8,0:0:0:0:
416,160,199170,1,0,0:0:0:0:
416,128,199370,1,8,0:0:0:0:
416,160,199770,1,8,0:0:0:0:
416,160,199970,1,0,0:0:0:0:
416,160,200170,1,8,0:0:0:0:
448,128,200370,1,8,0:0:0:0:
416,160,200570,1,0,0:0:0:0:
416,160,200770,1,0,0:0:0:0:
416,160,200970,1,0,0:0:0:0:
416,160,201170,1,8,0:0:0:0:
416,160,201370,1,8,0:0:0:0:
416,160,201570,1,0,0:0:0:0:
416,160,201770,1,8,0:0:0:0:
416,160,201970,1,8,0:0:0:0:
416,160,202170,1,0,0:0:0:0:
384,128,202370,1,12,0:0:0:0:
384,128,202770,1,12,0:0:0:0:
384,160,203170,1,12,0:0:0:0:
416,160,203770,1,0,0:0:0:0:
426,193,203970,1,12,0:0:0:0:
468,170,204170,1,0,0:0:0:0:
468,170,204270,1,0,0:0:0:0:
468,170,204370,1,8,0:0:0:0:
468,170,204570,1,8,0:0:0:0:
468,170,204770,1,0,0:0:0:0:
426,193,204970,1,8,0:0:0:0:
426,193,205070,1,8,0:0:0:0:
426,193,205170,1,8,0:0:0:0:
426,193,205370,1,0,0:0:0:0:
441,168,205570,1,8,0:0:0:0:
441,168,205770,1,0,0:0:0:0:
426,193,205870,1,0,0:0:0:0:
426,193,205970,1,8,0:0:0:0:
450,208,206170,1,0,0:0:0:0:
450,208,206370,1,0,0:0:0:0:
450,208,206470,1,0,0:0:0:0:
416,160,206570,1,8,0:0:0:0:
450,208,206670,1,0,0:0:0:0:
352,193,206770,1,8,0:0:0:0:
491,212,206970,1,0,0:0:0:0:
491,212,207070,1,0,0:0:0:0:
374,213,207170,1,8,0:0:0:0:
450,208,207370,1,0,0:0:0:0:
450,208,207470,1,0,0:0:0:0:
450,208,207570,1,8,0:0:0:0:
450,208,207770,1,8,0:0:0:0:
512,192,207970,1,0,0:0:0:0:
450,208,208170,1,8,0:0:0:0:
450,208,208270,1,8,0:0:0:0:
450,208,208370,1,8,0:0:0:0:
450,208,208570,1,8,0:0:0:0:
461,146,208770,1,0,0:0:0:0:
461,146,208970,1,0,0:0:0:0:
461,146,209070,1,0,0:0:0:0:
461,146,209170,1,8,0:0:0:0:
461,146,209370,1,8,0:0:0:0:
461,146,209570,1,8,0:0:0:0:
461,146,209670,1,0,0:0:0:0:
461,146,209770,1,8,0:0:0:0:
461,146,209870,1,0,0:0:0:0:
461,146,209970,1,8,0:0:0:0:
450,208,210170,1,0,0:0:0:0:
450,208,210270,1,0,0:0:0:0:
415,221,210370,1,8,0:0:0:0:
331,249,210570,1,0,0:0:0:0:
331,249,210670,1,0,0:0:0:0:
415,221,210770,1,8,0:0:0:0:
415,221,210970,1,8,0:0:0:0:
461,146,211170,1,0,0:0:0:0:
384,160,211270,1,0,0:0:0:0:
365,141,211370,1,8,0:0:0:0:
365,141,211470,1,8,0:0:0:0:
365,141,211570,1,8,0:0:0:0:
428,178,211770,1,0,0:0:0:0:
377,204,211970,1,8,0:0:0:0:
415,221,212070,1,8,0:0:0:0:
453,197,212170,1,0,0:0:0:0:
314,207,212370,1,8,0:0:0:0:
428,178,212570,1,8,0:0:0:0:
377,204,212770,1,8,0:0:0:0:
377,204,212870,1,0,0:0:0:0:
480,192,212970,1,0,0:0:0:0:
428,178,213070,1,0,0:0:0:0:
377,204,213170,1,8,0:0:0:0:
439,154,213370,1,0,0:0:0:0:
377,204,213570,1,0,0:0:0:0:
384,160,213770,1,8,0:0:0:0:
384,160,213970,1,0,0:0:0:0:
384,160,214070,1,0,0:0:0:0:
320,160,214170,1,8,0:0:0:0:
384,160,214370,1,0,0:0:0:0:
352,160,214570,1,8,0:0:0:0:
352,160,214770,1,0,0:0:0:0:
352,160,214870,1,0,0:0:0:0:
320,192,214970,1,8,0:0:0:0:
302,173,215170,1,4,0:0:0:0:
351,162,215570,1,4,0:0:0:0:
302,173,215970,1,12,0:0:0:0:
425,163,216170,1,0,0:0:0:0:
512,160,216270,1,0,0:0:0:0:
480,160,216370,1,8,0:0:0:0:
320,160,216470,1,8,0:0:0:0:
485,181,216570,1,0,0:0:0:0:
485,181,216670,1,0,0:0:0:0:
425,163,216770,1,8,0:0:0:0:
485,181,216970,1,0,0:0:0:0:
485,181,217070,1,0,0:0:0:0:
425,163,217170,1,8,0:0:0:0:
425,163,217370,1,8,0:0:0:0:
408,192,217570,1,0,0:0:0:0:
464,204,217770,1,8,0:0:0:0:
464,204,217870,1,8,0:0:0:0:
464,204,217970,1,8,0:0:0:0:
485,181,218170,1,0,0:0:0:0:
451,180,218370,1,8,0:0:0:0:
368,198,218470,1,0,0:0:0:0:
368,198,218570,1,0,0:0:0:0:
408,192,218770,1,8,0:0:0:0:
451,180,218970,1,0,0:0:0:0:
451,180,219170,1,8,0:0:0:0:
451,180,219270,1,0,0:0:0:0:
402,152,219370,1,8,0:0:0:0:
451,180,219470,1,0,0:0:0:0:
512,188,219570,1,8,0:0:0:0:
402,152,219770,1,0,0:0:0:0:
402,152,219870,1,0,0:0:0:0:
376,173,219970,1,8,0:0:0:0:
488,182,220170,1,0,0:0:0:0:
488,182,220270,1,0,0:0:0:0:
408,192,220370,1,8,0:0:0:0:
408,192,220570,1,8,0:0:0:0:
408,192,220770,1,0,0:0:0:0:
352,192,220870,1,0,0:0:0:0:
445,217,220970,1,8,0:0:0:0:
445,217,221070,1,8,0:0:0:0:
445,217,221170,1,8,0:0:0:0:
444,180,221370,1,0,0:0:0:0:
444,180,221570,1,8,0:0:0:0:
444,180,221670,1,8,0:0:0:0:
444,180,221770,1,0,0:0:0:0:
444,180,221970,1,8,0:0:0:0:
444,180,222170,1,0,0:0:0:0:
352,192,222270,1,0,0:0:0:0:
480,192,222370,1,8,0:0:0:0:
444,180,222470,1,8,0:0:0:0:
444,180,222570,1,8,0:0:0:0:
445,217,222670,1,0,0:0:0:0:
445,217,222770,1,8,0:0:0:0:
480,192,222970,1,8,0:0:0:0:
444,180,223170,1,4,0:0:0:0:
444,180,223370,1,0,0:0:0:0:
480,192,223470,1,0,0:0:0:0:
480,160,223570,1,8,0:0:0:0:
444,180,223770,1,0,0:0:0:0:
444,180,224170,1,8,0:0:0:0:
480,192,224270,1,0,0:0:0:0:
480,160,224370,1,8,0:0:0:0:
444,180,224570,1,8,0:0:0:0:
444,180,224770,1,0,0:0:0:0:
444,180,224970,1,0,0:0:0:0:
480,192,225070,1,0,0:0:0:0:
480,160,225170,1,8,0:0:0:0:
444,180,225370,1,0,0:0:0:0:
480,160,225770,1,8,0:0:0:0:
416,128,225870,1,0,0:0:0:0:
480,160,225970,1,8,0:0:0:0:
444,180,226170,1,0,0:0:0:0:
384,160,226270,1,8,0:0:0:0:
320,128,226370,1,0,0:0:0:0:
480,160,226570,1,8,0:0:0:0:
480,160,226670,1,0,0:0:0:0:
480,160,226770,1,8,0:0:0:0:
416,192,226970,1,0,0:0:0:0:
416,160,227170,1,0,0:0:0:0:
384,192,227270,1,8,0:0:0:0:
444,180,227370,1,0,0:0:0:0:
444,180,227470,1,0,0:0:0:0:
416,160,227570,1,8,0:0:0:0:
444,180,227770,1,0,0:0:0:0:
444,180,227970,1,8,0:0:0:0:
444,180,228070,1,8,0:0:0:0:
480,192,228170,1,0,0:0:0:0:
480,160,228370,1,8,0:0:0:0:
480,192,228570,1,0,0:0:0:0:
480,192,228670,1,0,0:0:0:0:
480,192,228770,1,8,0:0:0:0:
480,192,228970,1,8,0:0:0:0:
444,180,229070,1,0,0:0:0:0:
444,180,229170,1,8,0:0:0:0:
444,180,229270,1,0,0:0:0:0:
444,180,229370,1,0,0:0:0:0:
444,180,229470,1,0,0:0:0:0:
444,180,229570,1,8,0:0:0:0:
444,180,229770,1,0,0:0:0:0:
444,180,229870,1,8,0:0:0:0:
444,180,229970,1,8,0:0:0:0:
480,192,230070,1,0,0:0:0:0:
480,192,230170,1,8,0:0:0:0:
480,192,230270,1,0,0:0:0:0:
480,192,230370,1,0,0:0:0:0:
448,160,230570,1,8,0:0:0:0:
448,160,230670,1,0,0:0:0:0:
416,160,230770,1,0,0:0:0:0:
480,160,230970,1,0,0:0:0:0:
480,160,231070,1,0,0:0:0:0:
480,192,231170,1,8,0:0:0:0:
448,128,231570,1,8,0:0:0:0:
384,160,231970,1,0,0:0:0:0:
416,160,232070,1,0,0:0:0:0:
384,160,232170,1,0,0:0:0:0:
416,160,232270,1,0,0:0:0:0:
384,160,232370,1,8,0:0:0:0:
384,160,232570,1,8,0:0:0:0:
256,192,232770,12,8,235770,0:0:0:0:
352,128,235970,5,0,0:0:0:0:
384,96,236070,1,0,0:0:0:0:
416,128,236170,1,0,0:0:0:0:
416,128,236370,5,12,0:0:0:0:
384,192,236770,1,0,0:0:0:0:
352,160,236870,1,0,0:0:0:0:
416,160,236970,1,0,0:0:0:0:
448,160,237170,1,12,0:0:0:0:
448,128,237570,1,0,0:0:0:0:
448,128,237670,1,0,0:0:0:0:
448,128,237770,1,0,0:0:0:0:
416,192,237970,1,12,0:0:0:0:
448,128,238170,1,0,0:0:0:0:
416,192,238370,1,12,0:0:0:0:
448,128,238570,1,0,0:0:0:0:
416,192,238770,1,12,0:0:0:0:
384,192,238970,1,0,0:0:0:0:
384,192,239070,1,0,0:0:0:0:
416,160,239170,1,8,0:0:0:0:
416,192,239570,1,8,0:0:0:0:
416,192,239770,1,0,0:0:0:0:
416,192,239870,1,0,0:0:0:0:
384,192,239970,1,8,0:0:0:0:
416,160,240170,1,0,0:0:0:0:
384,160,240370,1,0,0:0:0:0:
416,160,240470,1,0,0:0:0:0:
416,160,240570,1,8,0:0:0:0:
384,160,240670,1,8,0:0:0:0:
384,160,240770,1,0,0:0:0:0:
416,192,240970,1,0,0:0:0:0:
416,160,241170,1,8,0:0:0:0:
384,192,241370,1,0,0:0:0:0:
384,192,241470,1,0,0:0:0:0:
384,192,241570,1,8,0:0:0:0:
384,192,241770,1,0,0:0:0:0:
384,192,241970,1,8,0:0:0:0:
384,192,242070,1,0,0:0:0:0:
384,192,242170,1,0,0:0:0:0:
416,192,242370,1,0,0:0:0:0:
416,192,242470,1,0,0:0:0:0:
416,192,242570,1,0,0:0:0:0:
384,192,242770,1,12,0:0:0:0:
384,160,243170,1,0,0:0:0:0:
384,160,243270,1,0,0:0:0:0:
384,160,243370,1,0,0:0:0:0:
416,192,243570,1,12,0:0:0:0:
416,192,243970,1,0,0:0:0:0:
416,192,244070,1,0,0:0:0:0:
416,192,244170,1,0,0:0:0:0:
384,192,244370,1,12,0:0:0:0:
384,192,244570,1,0,0:0:0:0:
448,160,244770,1,12,0:0:0:0:
384,192,244970,1,0,0:0:0:0:
448,160,245170,1,12,0:0:0:0:
384,192,245370,1,0,0:0:0:0:
320,160,245470,1,0,0:0:0:0:
256,192,245570,12,0,248770,0:0:0:0:
