osu file format v14

[General]
AudioFilename: Love wing bell (TV Size).mp3
AudioLeadIn: 0
PreviewTime: 60405
Countdown: 0
SampleSet: Normal
StackLeniency: 0.7
Mode: 1
LetterboxInBreaks: 0
WidescreenStoryboard: 0

[Editor]
DistanceSpacing: 1
BeatDivisor: 4
GridSize: 32
TimelineZoom: 1.000001

[Metadata]
Title:Love wing bell (TV Size)
TitleUnicode:Love wing bell(TVサイズ)
Artist:u's
ArtistUnicode:μ's
Creator:Nardoxyribonucleic
Version:Oni
Source:Love Live! School idol project
Tags:Taiko ラブライブ Hoshizora Rin 星空凛 Iida Riho 飯田里穂 Nishikino Maki 西木野真姫 Pile Koizumi Hanayo 小泉花陽 Kubo Yurika 久保ユリカ Ayase Eli 絢瀬絵里 Nanjo Yoshino 南條愛乃 Tojo Nozomi 東條希 Kusuda Aina 楠田亜衣奈 Yazawa Nico 矢澤にこ Tokui Sora 徳井青空
BeatmapID:570997
BeatmapSetID:248187

[Difficulty]
HPDrainRate:5
CircleSize:5
OverallDifficulty:5
ApproachRate:5
SliderMultiplier:1.4
SliderTickRate:1

[Events]
//Background and Video events
0,0,"BG.jpg",0,120
//Break Periods
//Storyboard Layer 0 (Background)
//Storyboard Layer 1 (Fail)
//Storyboard Layer 2 (Pass)
//Storyboard Layer 3 (Foreground)
//Storyboard Sound Samples

[TimingPoints]
1082,451.127819548872,4,1,0,75,1,0
15518,-100,4,1,0,65,0,0
46194,-100,4,1,0,75,0,0
60630,-100,4,1,0,85,0,1
94916,-100,4,1,0,75,0,0
95142,-100,4,1,0,45,0,0
95818,-100,4,1,0,35,0,0
96721,-100,4,1,0,25,0,0
97623,-100,4,1,0,15,0,0
98525,-100,4,1,0,5,0,0

[HitObjects]
256,192,630,5,0,0:0:0:0:
256,192,856,1,0,0:0:0:0:
256,192,1082,1,8,0:0:0:0:
256,192,1533,1,8,0:0:0:0:
256,192,1984,1,0,0:0:0:0:
256,192,2435,1,8,0:0:0:0:
256,192,2886,1,8,0:0:0:0:
256,192,3112,1,8,0:0:0:0:
256,192,3337,1,0,0:0:0:0:
256,192,3563,1,8,0:0:0:0:
256,192,3788,1,0,0:0:0:0:
256,192,4239,1,0,0:0:0:0:
256,192,4465,1,0,0:0:0:0:
256,192,4691,1,8,0:0:0:0:
256,192,5142,1,0,0:0:0:0:
256,192,5367,1,8,0:0:0:0:
256,192,5593,1,8,0:0:0:0:
256,192,6044,1,0,0:0:0:0:
256,192,6495,1,0,0:0:0:0:
256,192,7172,1,8,0:0:0:0:
256,192,7285,1,8,0:0:0:0:
256,192,7397,1,0,0:0:0:0:
256,192,7848,1,0,0:0:0:0:
256,192,8074,1,0,0:0:0:0:
256,192,8300,1,8,0:0:0:0:
256,192,8751,1,8,0:0:0:0:
256,192,9202,1,0,0:0:0:0:
256,192,9653,1,8,0:0:0:0:
256,192,10104,1,8,0:0:0:0:
256,192,10330,1,8,0:0:0:0:
256,192,10555,1,0,0:0:0:0:
256,192,10781,1,8,0:0:0:0:
256,192,11006,1,0,0:0:0:0:
256,192,11232,1,0,0:0:0:0:
256,192,11345,1,0,0:0:0:0:
256,192,11457,1,8,0:0:0:0:
256,192,11570,1,8,0:0:0:0:
256,192,11683,1,0,0:0:0:0:
256,192,11909,1,0,0:0:0:0:
256,192,12360,1,0,0:0:0:0:
256,192,12585,1,0,0:0:0:0:
256,192,12698,1,8,0:0:0:0:
256,192,12811,1,8,0:0:0:0:
256,192,13036,1,0,0:0:0:0:
256,192,13262,1,8,0:0:0:0:
256,192,13488,1,0,0:0:0:0:
256,192,13600,1,0,0:0:0:0:
256,192,13713,1,0,0:0:0:0:
256,192,13939,1,0,0:0:0:0:
256,192,14164,1,8,0:0:0:0:
256,192,14390,1,8,0:0:0:0:
256,192,14503,1,0,0:0:0:0:
256,192,14615,1,8,0:0:0:0:
256,192,15518,1,0,0:0:0:0:
256,192,15969,1,8,0:0:0:0:
256,192,16420,1,0,0:0:0:0:
256,192,16871,1,8,0:0:0:0:
256,192,17097,1,0,0:0:0:0:
256,192,17322,1,0,0:0:0:0:
256,192,17999,1,0,0:0:0:0:
256,192,18224,1,0,0:0:0:0:
256,192,18675,1,8,0:0:0:0:
256,192,18901,1,0,0:0:0:0:
256,192,19127,1,0,0:0:0:0:
256,192,19578,1,8,0:0:0:0:
256,192,20029,1,8,0:0:0:0:
256,192,20254,1,0,0:0:0:0:
256,192,20367,1,0,0:0:0:0:
256,192,20480,1,8,0:0:0:0:
256,192,20706,1,0,0:0:0:0:
256,192,20931,1,8,0:0:0:0:
256,192,21608,1,8,0:0:0:0:
256,192,21833,1,8,0:0:0:0:
256,192,22285,1,0,0:0:0:0:
256,192,22736,1,8,0:0:0:0:
256,192,23412,1,8,0:0:0:0:
256,192,23638,1,0,0:0:0:0:
256,192,23863,1,0,0:0:0:0:
256,192,23976,1,0,0:0:0:0:
256,192,24089,1,8,0:0:0:0:
256,192,24315,1,0,0:0:0:0:
256,192,24540,1,0,0:0:0:0:
256,192,25217,1,8,0:0:0:0:
256,192,25442,1,8,0:0:0:0:
256,192,25894,1,8,0:0:0:0:
256,192,26119,1,0,0:0:0:0:
256,192,26345,1,8,0:0:0:0:
256,192,27021,1,0,0:0:0:0:
256,192,27247,1,0,0:0:0:0:
256,192,27698,1,8,0:0:0:0:
256,192,27924,1,0,0:0:0:0:
256,192,28036,1,0,0:0:0:0:
256,192,28149,1,8,0:0:0:0:
256,192,28375,1,0,0:0:0:0:
256,192,28600,1,8,0:0:0:0:
256,192,29051,1,0,0:0:0:0:
256,192,29277,1,8,0:0:0:0:
256,192,29954,1,0,0:0:0:0:
256,192,30405,1,8,0:0:0:0:
256,192,30856,1,0,0:0:0:0:
256,192,31307,1,8,0:0:0:0:
256,192,31533,1,0,0:0:0:0:
256,192,31758,1,0,0:0:0:0:
256,192,32435,1,8,0:0:0:0:
256,192,32548,1,0,0:0:0:0:
256,192,32660,1,8,0:0:0:0:
256,192,33112,1,8,0:0:0:0:
256,192,33337,1,0,0:0:0:0:
256,192,33563,1,0,0:0:0:0:
256,192,34014,1,8,0:0:0:0:
256,192,34465,1,8,0:0:0:0:
256,192,34691,1,0,0:0:0:0:
256,192,34803,1,0,0:0:0:0:
256,192,34916,1,8,0:0:0:0:
256,192,35142,1,0,0:0:0:0:
256,192,35367,1,8,0:0:0:0:
256,192,36044,1,8,0:0:0:0:
256,192,36269,1,8,0:0:0:0:
256,192,36721,1,0,0:0:0:0:
256,192,37172,1,8,0:0:0:0:
256,192,37848,1,8,0:0:0:0:
256,192,38074,1,0,0:0:0:0:
256,192,38300,1,0,0:0:0:0:
256,192,38412,1,0,0:0:0:0:
256,192,38525,1,8,0:0:0:0:
256,192,38751,1,0,0:0:0:0:
256,192,38976,1,0,0:0:0:0:
256,192,39653,1,8,0:0:0:0:
256,192,39878,1,8,0:0:0:0:
256,192,40330,1,8,0:0:0:0:
256,192,40555,1,0,0:0:0:0:
256,192,40781,1,8,0:0:0:0:
256,192,41457,1,8,0:0:0:0:
256,192,41683,1,0,0:0:0:0:
256,192,41909,1,0,0:0:0:0:
256,192,42134,1,8,0:0:0:0:
256,192,42360,1,0,0:0:0:0:
256,192,42472,1,0,0:0:0:0:
256,192,42585,1,8,0:0:0:0:
256,192,45969,1,0,0:0:0:0:
256,192,46194,1,8,0:0:0:0:
256,192,46871,1,0,0:0:0:0:
256,192,47097,1,0,0:0:0:0:
256,192,47773,1,0,0:0:0:0:
256,192,47999,1,8,0:0:0:0:
256,192,48450,1,8,0:0:0:0:
256,192,48675,1,0,0:0:0:0:
256,192,48901,1,8,0:0:0:0:
256,192,49352,1,0,0:0:0:0:
256,192,49578,1,0,0:0:0:0:
256,192,49803,1,8,0:0:0:0:
256,192,50480,1,0,0:0:0:0:
256,192,50706,1,0,0:0:0:0:
256,192,51157,1,8,0:0:0:0:
256,192,51608,1,0,0:0:0:0:
256,192,52285,1,8,0:0:0:0:
256,192,52397,1,8,0:0:0:0:
256,192,52510,1,0,0:0:0:0:
256,192,52736,1,0,0:0:0:0:
256,192,52961,1,8,0:0:0:0:
256,192,53412,1,0,0:0:0:0:
256,192,53863,1,8,0:0:0:0:
256,192,54089,1,0,0:0:0:0:
256,192,54540,1,0,0:0:0:0:
256,192,54766,1,8,0:0:0:0:
256,192,54991,1,0,0:0:0:0:
256,192,55217,1,0,0:0:0:0:
256,192,56119,1,8,0:0:0:0:
256,192,56457,1,8,0:0:0:0:
256,192,56570,1,8,0:0:0:0:
256,192,56796,1,0,0:0:0:0:
256,192,57021,1,8,0:0:0:0:
256,192,57360,1,8,0:0:0:0:
256,192,57698,1,0,0:0:0:0:
256,192,57811,1,0,0:0:0:0:
256,192,57924,1,8,0:0:0:0:
256,192,58262,1,8,0:0:0:0:
256,192,58600,1,0,0:0:0:0:
256,192,58713,1,0,0:0:0:0:
256,192,58826,1,8,0:0:0:0:
256,192,59051,1,0,0:0:0:0:
256,192,59164,1,0,0:0:0:0:
256,192,59277,1,0,0:0:0:0:
256,192,59503,1,0,0:0:0:0:
256,192,59728,1,8,0:0:0:0:
256,192,59954,1,0,0:0:0:0:
256,192,60179,1,8,0:0:0:0:
256,192,60292,1,8,0:0:0:0:
256,192,60405,1,0,0:0:0:0:
256,192,60630,1,12,0:0:0:0:
256,192,61081,1,0,0:0:0:0:
256,192,61307,1,0,0:0:0:0:
256,192,61533,1,8,0:0:0:0:
256,192,61984,1,0,0:0:0:0:
256,192,62209,1,8,0:0:0:0:
256,192,62322,1,8,0:0:0:0:
256,192,62435,1,8,0:0:0:0:
256,192,62660,1,0,0:0:0:0:
256,192,62886,1,8,0:0:0:0:
256,192,63112,1,0,0:0:0:0:
256,192,63224,1,0,0:0:0:0:
256,192,63337,1,8,0:0:0:0:
256,192,63788,1,0,0:0:0:0:
256,192,64014,1,0,0:0:0:0:
256,192,64239,1,8,0:0:0:0:
256,192,64691,1,8,0:0:0:0:
256,192,64916,1,0,0:0:0:0:
256,192,65029,1,0,0:0:0:0:
256,192,65142,1,8,0:0:0:0:
256,192,65367,1,0,0:0:0:0:
256,192,65593,1,8,0:0:0:0:
256,192,65818,1,0,0:0:0:0:
256,192,65931,1,0,0:0:0:0:
256,192,66044,1,0,0:0:0:0:
256,192,66269,1,0,0:0:0:0:
256,192,66495,1,8,0:0:0:0:
256,192,66721,1,0,0:0:0:0:
256,192,66833,1,8,0:0:0:0:
256,192,66946,1,0,0:0:0:0:
256,192,67172,1,0,0:0:0:0:
256,192,67285,1,0,0:0:0:0:
256,192,67397,1,8,0:0:0:0:
256,192,67510,1,8,0:0:0:0:
256,192,67623,1,0,0:0:0:0:
256,192,67848,1,8,0:0:0:0:
256,192,68300,1,0,0:0:0:0:
256,192,68525,1,0,0:0:0:0:
256,192,68751,1,8,0:0:0:0:
256,192,69202,1,0,0:0:0:0:
256,192,69427,1,8,0:0:0:0:
256,192,69540,1,8,0:0:0:0:
256,192,69653,1,8,0:0:0:0:
256,192,69878,1,0,0:0:0:0:
256,192,70104,1,8,0:0:0:0:
256,192,70330,1,0,0:0:0:0:
256,192,70442,1,0,0:0:0:0:
256,192,70555,1,8,0:0:0:0:
256,192,70781,1,0,0:0:0:0:
256,192,70894,1,8,0:0:0:0:
256,192,71006,1,8,0:0:0:0:
256,192,71232,1,0,0:0:0:0:
256,192,71457,1,8,0:0:0:0:
256,192,71683,1,0,0:0:0:0:
256,192,71796,1,0,0:0:0:0:
256,192,71909,1,8,0:0:0:0:
256,192,72134,1,8,0:0:0:0:
256,192,72360,1,0,0:0:0:0:
256,192,72585,1,0,0:0:0:0:
256,192,72698,1,0,0:0:0:0:
256,192,72811,1,8,0:0:0:0:
256,192,73036,1,0,0:0:0:0:
256,192,73262,1,8,0:0:0:0:
256,192,73488,1,0,0:0:0:0:
256,192,73713,1,8,0:0:0:0:
256,192,73826,1,8,0:0:0:0:
256,192,73939,1,0,0:0:0:0:
256,192,74164,1,8,0:0:0:0:
256,192,74277,1,8,0:0:0:0:
256,192,74390,1,0,0:0:0:0:
256,192,74615,1,8,0:0:0:0:
256,192,75066,1,12,0:0:0:0:
256,192,75518,1,0,0:0:0:0:
256,192,75743,1,0,0:0:0:0:
256,192,75969,1,8,0:0:0:0:
256,192,76420,1,0,0:0:0:0:
256,192,76645,1,8,0:0:0:0:
256,192,76871,1,8,0:0:0:0:
256,192,77097,1,0,0:0:0:0:
256,192,77209,1,0,0:0:0:0:
256,192,77322,1,8,0:0:0:0:
256,192,77548,1,8,0:0:0:0:
256,192,77773,1,0,0:0:0:0:
256,192,78224,1,0,0:0:0:0:
256,192,78450,1,0,0:0:0:0:
256,192,78675,1,8,0:0:0:0:
256,192,78901,1,0,0:0:0:0:
256,192,79127,1,8,0:0:0:0:
256,192,79352,1,8,0:0:0:0:
256,192,79465,1,8,0:0:0:0:
256,192,79578,1,0,0:0:0:0:
256,192,79803,1,0,0:0:0:0:
256,192,80029,1,8,0:0:0:0:
256,192,80254,1,0,0:0:0:0:
256,192,80367,1,0,0:0:0:0:
256,192,80480,1,8,0:0:0:0:
256,192,80706,1,0,0:0:0:0:
256,192,80931,1,8,0:0:0:0:
256,192,81157,1,0,0:0:0:0:
256,192,81269,1,0,0:0:0:0:
256,192,81382,1,8,0:0:0:0:
256,192,81608,1,0,0:0:0:0:
256,192,81721,1,0,0:0:0:0:
256,192,81833,1,8,0:0:0:0:
256,192,81946,1,8,0:0:0:0:
256,192,82059,1,0,0:0:0:0:
256,192,82285,1,8,0:0:0:0:
256,192,82736,1,0,0:0:0:0:
256,192,82961,1,0,0:0:0:0:
256,192,83187,1,8,0:0:0:0:
256,192,83638,1,0,0:0:0:0:
256,192,83863,1,8,0:0:0:0:
256,192,84089,1,8,0:0:0:0:
256,192,84315,1,0,0:0:0:0:
256,192,84427,1,0,0:0:0:0:
256,192,84540,1,8,0:0:0:0:
256,192,84766,1,8,0:0:0:0:
256,192,84991,1,0,0:0:0:0:
256,192,85217,1,0,0:0:0:0:
256,192,85330,1,0,0:0:0:0:
256,192,85442,1,8,0:0:0:0:
256,192,85668,1,0,0:0:0:0:
256,192,85781,1,0,0:0:0:0:
256,192,85894,1,8,0:0:0:0:
256,192,86119,1,0,0:0:0:0:
256,192,86345,1,8,0:0:0:0:
256,192,86570,1,8,0:0:0:0:
256,192,86683,1,8,0:0:0:0:
256,192,86796,1,0,0:0:0:0:
256,192,87021,1,0,0:0:0:0:
256,192,87134,1,0,0:0:0:0:
256,192,87247,1,8,0:0:0:0:
256,192,87360,1,8,0:0:0:0:
256,192,87472,1,8,0:0:0:0:
256,192,87698,1,0,0:0:0:0:
256,192,88149,1,8,0:0:0:0:
256,192,88600,1,0,0:0:0:0:
256,192,88826,1,0,0:0:0:0:
256,192,89051,1,8,0:0:0:0:
256,192,89277,1,8,0:0:0:0:
256,192,89503,1,0,0:0:0:0:
256,192,89954,1,8,0:0:0:0:
256,192,90405,1,0,0:0:0:0:
256,192,90856,1,8,0:0:0:0:
256,192,91081,1,8,0:0:0:0:
256,192,91307,1,0,0:0:0:0:
256,192,91758,1,8,0:0:0:0:
256,192,92209,1,0,0:0:0:0:
256,192,92660,1,8,0:0:0:0:
256,192,92886,1,0,0:0:0:0:
256,192,93112,1,8,0:0:0:0:
256,192,93337,1,0,0:0:0:0:
256,192,93450,1,0,0:0:0:0:
256,192,93563,1,8,0:0:0:0:
256,192,93788,1,0,0:0:0:0:
256,192,94014,1,8,0:0:0:0:
256,192,94239,1,0,0:0:0:0:
256,192,94352,1,0,0:0:0:0:
256,192,94465,1,8,0:0:0:0:
256,192,94578,1,8,0:0:0:0:
256,192,94691,1,0,0:0:0:0:
256,192,94916,1,4,0:0:0:0:
256,192,95142,12,0,98525,0:0:0:0:
