osu file format v14

[General]
AudioFilename: typeMARS - Triumph & Regret.mp3
AudioLeadIn: 0
PreviewTime: 131787
Countdown: 0
SampleSet: Soft
StackLeniency: 0.7
Mode: 3
LetterboxInBreaks: 0
SpecialStyle: 0
WidescreenStoryboard: 0

[Editor]
Bookmarks: 22072,42644,192215,197015,197187,197358,197530,251872,252044,252215,252387
DistanceSpacing: 1
BeatDivisor: 4
GridSize: 32
TimelineZoom: 2.700002

[Metadata]
Title:Triumph & Regret
TitleUnicode:Triumph & Regret
Artist:typeMARS
ArtistUnicode:typeMARS
Creator:[ A v a l o n ]
Version:Regret
Source:Dynamix
Tags:Zyon 載音 Rhythm Game Marathon Lucky Lotus & Touitsu Recordings - Dawn of the Sol - Day Three Indonesia Doujin Music Circle
BeatmapID:767046
BeatmapSetID:347650

[Difficulty]
HPDrainRate:8.5
CircleSize:4
OverallDifficulty:8.5
ApproachRate:5
SliderMultiplier:1.4
SliderTickRate:1

[Events]
//Background and Video events
0,0,"bg ye.jpg",0,0
//Break Periods
//Storyboard Layer 0 (Background)
//Storyboard Layer 1 (Fail)
//Storyboard Layer 2 (Pass)
//Storyboard Layer 3 (Foreground)
//Storyboard Sound Samples
Sample,11101,0,"Cymbal.wav",80
Sample,22415,0,"Clap.wav",65
Sample,23101,0,"Clap.wav",65
Sample,23787,0,"Clap.wav",65
Sample,24472,0,"Clap.wav",65
Sample,25158,0,"Clap.wav",65
Sample,25844,0,"Clap.wav",65
Sample,26530,0,"Clap.wav",65
Sample,27215,0,"Clap.wav",65
Sample,27901,0,"Clap.wav",65
Sample,28587,0,"Clap.wav",65
Sample,29272,0,"Clap.wav",65
Sample,29958,0,"Clap.wav",65
Sample,30644,0,"Clap.wav",65
Sample,31330,0,"Clap.wav",65
Sample,32015,0,"Clap.wav",65
Sample,32701,0,"Clap.wav",65
Sample,33387,0,"Clap.wav",65
Sample,34072,0,"Clap.wav",65
Sample,34758,0,"Clap.wav",65
Sample,35444,0,"Clap.wav",65
Sample,36130,0,"Clap.wav",65
Sample,36815,0,"Clap.wav",65
Sample,37501,0,"Clap.wav",65
Sample,38187,0,"Clap.wav",65
Sample,38872,0,"Clap.wav",65
Sample,39558,0,"Clap.wav",65
Sample,40244,0,"Clap.wav",65
Sample,40930,0,"Clap.wav",65
Sample,41615,0,"Clap.wav",65
Sample,42301,0,"Clap.wav",65
Sample,132130,0,"Clap.wav",65
Sample,132815,0,"Clap.wav",65
Sample,133501,0,"Clap.wav",65
Sample,134187,0,"Clap.wav",65
Sample,134872,0,"Clap.wav",65
Sample,135558,0,"Clap.wav",65
Sample,136244,0,"Clap.wav",65
Sample,136930,0,"Clap.wav",65
Sample,137615,0,"Clap.wav",65
Sample,138301,0,"Clap.wav",65
Sample,138987,0,"Clap.wav",65
Sample,139672,0,"Clap.wav",65
Sample,140358,0,"Clap.wav",65
Sample,141044,0,"Clap.wav",65
Sample,141730,0,"Clap.wav",65
Sample,142415,0,"Clap.wav",65
Sample,142587,0,"Clap.wav",65
Sample,143101,0,"Clap.wav",65
Sample,143787,0,"Clap.wav",65
Sample,144472,0,"Clap.wav",65
Sample,145158,0,"Clap.wav",65
Sample,145844,0,"Clap.wav",65
Sample,146530,0,"Clap.wav",65
Sample,147215,0,"Clap.wav",65
Sample,147901,0,"Clap.wav",65
Sample,148587,0,"Clap.wav",65
Sample,149272,0,"Clap.wav",65
Sample,149958,0,"Clap.wav",65
Sample,150644,0,"Clap.wav",65
Sample,151330,0,"Clap.wav",65
Sample,152015,0,"Clap.wav",65
Sample,176015,0,"Clap.wav",65
Sample,176701,0,"Clap.wav",65
Sample,177387,0,"Clap.wav",65
Sample,178072,0,"Clap.wav",65
Sample,178758,0,"Clap.wav",65
Sample,179444,0,"Clap.wav",65
Sample,180130,0,"Clap.wav",65
Sample,180815,0,"Clap.wav",65
Sample,181501,0,"Clap.wav",65
Sample,182187,0,"Clap.wav",65
Sample,182872,0,"Clap.wav",65
Sample,183558,0,"Clap.wav",65
Sample,184244,0,"Clap.wav",65
Sample,184930,0,"Clap.wav",65
Sample,185615,0,"Clap.wav",65
Sample,186301,0,"Clap.wav",65
Sample,186987,0,"Clap.wav",65
Sample,187330,0,"Clap.wav",65
Sample,187672,0,"Clap.wav",65
Sample,188015,0,"Clap.wav",65
Sample,188358,0,"Clap.wav",65
Sample,188701,0,"Clap.wav",65
Sample,189044,0,"Clap.wav",65
Sample,189387,0,"Clap.wav",65
Sample,189730,0,"Clap.wav",65
Sample,190072,0,"Clap.wav",65
Sample,190415,0,"Clap.wav",65
Sample,190758,0,"Clap.wav",65
Sample,191101,0,"Clap.wav",65
Sample,191444,0,"Clap.wav",65
Sample,191787,0,"Clap.wav",65
Sample,192130,0,"Clap.wav",65
Sample,241158,0,"Clap Hand.wav",50
Sample,249730,0,"Cymbal.wav",80
Sample,250415,0,"Cymbal.wav",80
Sample,274758,0,"Clap.wav",65
Sample,275444,0,"Clap.wav",65
Sample,275958,0,"Hat.wav",80
Sample,276130,0,"Clap.wav",65
Sample,276815,0,"Clap.wav",65
Sample,277501,0,"Clap.wav",65
Sample,278187,0,"Clap.wav",65
Sample,278701,0,"Hat.wav",80
Sample,278872,0,"Clap.wav",65
Sample,279558,0,"Clap.wav",65
Sample,280244,0,"Clap.wav",65
Sample,280930,0,"Clap.wav",65
Sample,281444,0,"Hat.wav",80
Sample,281615,0,"Clap.wav",65
Sample,282301,0,"Clap.wav",65
Sample,282987,0,"Clap.wav",65
Sample,283672,0,"Clap.wav",65
Sample,284358,0,"Clap.wav",65
Sample,285044,0,"Clap.wav",65
Sample,285730,0,"Clap.wav",65
Sample,286072,0,"Clap.wav",65
Sample,286415,0,"Clap.wav",65
Sample,286758,0,"Clap.wav",65
Sample,286930,0,"Hat.wav",80
Sample,287101,0,"Clap.wav",65
Sample,287444,0,"Clap.wav",65
Sample,287787,0,"Clap.wav",65
Sample,288130,0,"Clap.wav",65
Sample,288472,0,"Clap.wav",65
Sample,288815,0,"Clap.wav",65
Sample,289158,0,"Clap.wav",65
Sample,289501,0,"Clap.wav",65
Sample,289672,0,"Hat.wav",80
Sample,289844,0,"Clap.wav",65
Sample,290187,0,"Clap.wav",65
Sample,290530,0,"Clap.wav",65
Sample,290872,0,"Clap.wav",65
Sample,291215,0,"Clap.wav",65
Sample,291558,0,"Clap.wav",65
Sample,291901,0,"Clap.wav",65
Sample,292244,0,"Clap.wav",65
Sample,292587,0,"Clap.wav",65
Sample,292930,0,"Clap.wav",65
Sample,293272,0,"Clap.wav",65
Sample,293615,0,"Clap.wav",65
Sample,293958,0,"Clap.wav",65

[TimingPoints]
130,342.857142857143,4,2,1,60,1,0
131787,-100,4,2,1,60,0,1
152358,-200,4,2,1,60,0,1
152530,-66.6666666666667,4,2,1,60,0,1
152615,-200,4,2,1,60,0,1
152787,-66.6666666666667,4,2,1,60,0,1
152872,-200,4,2,1,60,0,1
153044,-66.6666666666667,4,2,1,60,0,1
153130,-200,4,2,1,60,0,1
153302,-66.6666666666667,4,2,1,60,0,1
153387,-133.333333333333,4,2,1,60,0,1
153472,-80,4,2,1,60,0,1
153558,-133.333333333333,4,2,1,60,0,1
153643,-80,4,2,1,60,0,1
153730,-100,4,2,1,60,0,1
174301,-100,4,2,1,60,0,0
175330,-200,4,2,1,60,0,0
175501,-100,4,2,1,60,0,0
175558,-80,4,2,1,60,0,0
175615,-66.6666666666667,4,2,1,60,0,0
175672,-100,4,2,1,60,0,0
252472,-100,4,2,1,60,0,1
273044,-100,4,2,1,60,0,0
274415,-100,4,2,1,60,0,1
296358,-100,4,2,1,60,0,0

[HitObjects]
320,192,130,5,0,0:0:0:0:
448,192,130,1,0,0:0:0:55:Kick.wav
192,192,130,1,0,0:0:0:0:
64,192,301,1,0,0:0:0:0:
320,192,472,1,0,0:0:0:0:
448,192,472,1,0,0:0:0:55:Kick.wav
64,192,644,1,0,0:0:0:0:
320,192,815,1,0,0:0:0:0:
448,192,815,1,0,0:0:0:55:Kick.wav
192,192,901,1,0,0:0:0:0:
64,192,1072,1,0,0:0:0:0:
320,192,1158,1,0,0:0:0:0:
448,192,1158,1,0,0:0:0:55:Kick.wav
192,192,1330,1,0,0:0:0:0:
320,192,1501,1,0,0:0:0:0:
448,192,1501,1,0,0:0:0:55:Kick.wav
64,192,1672,1,0,0:0:0:0:
320,192,1844,1,0,0:0:0:0:
448,192,1844,1,0,0:0:0:55:Kick.wav
64,192,2015,1,0,0:0:0:0:
320,192,2187,1,0,0:0:0:0:
448,192,2187,1,0,0:0:0:55:Kick.wav
192,192,2272,1,0,0:0:0:0:
64,192,2444,1,0,0:0:0:0:
320,192,2530,1,0,0:0:0:0:
448,192,2530,1,0,0:0:0:55:Kick.wav
192,192,2701,1,0,0:0:0:0:
320,192,2787,1,0,0:0:0:0:
192,192,2872,1,0,0:0:0:0:
64,192,2872,1,0,0:0:0:55:Kick.wav
448,192,3044,1,0,0:0:0:0:
64,192,3215,1,0,0:0:0:55:Kick.wav
192,192,3215,1,0,0:0:0:0:
448,192,3387,1,0,0:0:0:0:
192,192,3558,1,0,0:0:0:0:
64,192,3558,1,0,0:0:0:55:Kick.wav
320,192,3644,1,0,0:0:0:0:
448,192,3815,1,0,0:0:0:0:
192,192,3901,1,0,0:0:0:0:
64,192,3901,1,0,0:0:0:55:Kick.wav
320,192,4072,1,0,0:0:0:0:
192,192,4244,1,0,0:0:0:0:
64,192,4244,1,0,0:0:0:55:Kick.wav
448,192,4415,1,0,0:0:0:0:
64,192,4587,1,0,0:0:0:55:Kick.wav
192,192,4587,1,0,0:0:0:0:
448,192,4758,1,0,0:0:0:0:
192,192,4930,1,0,0:0:0:0:
64,192,4930,1,0,0:0:0:55:Kick.wav
320,192,5015,1,0,0:0:0:0:
448,192,5187,1,0,0:0:0:0:
192,192,5272,1,0,0:0:0:0:
64,192,5272,1,0,0:0:0:55:Kick.wav
320,192,5444,1,0,0:1:0:0:
192,192,5530,1,0,0:0:0:0:
320,192,5615,1,0,0:0:0:0:
448,192,5615,1,0,0:0:0:55:Kick.wav
64,192,5787,1,0,0:0:0:0:
192,192,5958,1,0,0:0:0:0:
320,192,5958,1,0,0:0:0:55:Kick.wav
64,192,6130,1,0,0:0:0:0:
320,192,6301,1,0,0:0:0:0:
448,192,6301,1,0,0:0:0:55:Kick.wav
192,192,6387,1,0,0:0:0:0:
448,192,6558,1,0,0:0:0:0:
64,192,6644,1,0,0:0:0:55:Kick.wav
320,192,6644,1,0,0:0:0:0:
448,192,6815,1,0,0:0:0:0:
192,192,6987,1,0,0:0:0:0:
64,192,6987,1,0,0:0:0:55:Kick.wav
320,192,7158,1,0,0:0:0:0:
192,192,7330,1,0,0:0:0:0:
448,192,7330,1,0,0:0:0:55:Kick.wav
64,192,7501,1,0,0:0:0:0:
320,192,7672,1,0,0:0:0:0:
448,192,7672,1,0,0:0:0:55:Kick.wav
192,192,7758,1,0,0:0:0:0:
448,192,7930,1,0,0:0:0:0:
320,192,8015,1,0,0:0:0:0:
64,192,8015,1,0,0:0:0:55:Kick.wav
192,192,8187,1,0,0:0:0:0:
64,192,8272,1,0,0:0:0:0:
320,192,8358,1,0,0:0:0:0:
448,192,8358,1,0,0:0:0:55:Kick.wav
192,192,8530,1,0,0:0:0:0:
320,192,8701,1,0,0:0:0:0:
448,192,8701,1,0,0:0:0:55:Kick.wav
64,192,8872,1,0,0:0:0:0:
320,192,9044,1,0,0:0:0:0:
448,192,9044,1,0,0:0:0:55:Kick.wav
192,192,9130,1,0,0:0:0:0:
320,192,9301,1,0,0:0:0:0:
64,192,9387,1,0,0:0:0:0:
448,192,9387,1,0,0:0:0:55:Kick.wav
192,192,9558,1,0,0:0:0:0:
320,192,9730,1,0,0:0:0:55:Kick.wav
448,192,9730,128,0,11101:0:0:0:80:Cymbal.wav
64,192,9730,128,0,10415:0:0:0:0:
192,192,10072,128,0,10415:0:0:0:0:
320,192,10415,128,0,11101:0:0:0:0:
64,192,10758,1,0,0:0:0:60:Clap Hand.wav
192,192,10758,1,0,0:0:0:0:
192,192,11101,1,0,0:0:0:55:Kick.wav
64,192,11101,1,0,0:0:0:65:Clap.wav
448,192,11272,1,0,0:0:0:0:
320,192,11444,1,0,0:0:0:0:
192,192,11444,1,0,0:0:0:55:Kick.wav
64,192,11444,1,0,0:0:0:65:Clap.wav
448,192,11615,1,0,0:0:0:0:
192,192,11787,1,0,0:0:0:55:Kick.wav
64,192,11787,1,0,0:0:0:65:Clap.wav
320,192,11872,1,0,0:0:0:0:
64,192,12044,1,0,0:0:0:0:
192,192,12130,1,0,0:0:0:0:
448,192,12130,1,0,0:0:0:65:Clap.wav
320,192,12130,1,0,0:0:0:55:Kick.wav
64,192,12301,1,0,0:0:0:0:
320,192,12472,1,0,0:0:0:55:Kick.wav
448,192,12472,1,0,0:0:0:65:Clap.wav
64,192,12644,1,0,0:0:0:0:
192,192,12815,1,0,0:0:0:0:
320,192,12815,1,0,0:0:0:55:Kick.wav
448,192,12815,1,0,0:0:0:65:Clap.wav
64,192,12987,1,0,0:0:0:0:
320,192,13158,1,0,0:0:0:55:Kick.wav
448,192,13158,1,0,0:0:0:65:Clap.wav
192,192,13244,1,0,0:0:0:0:
448,192,13415,1,0,0:0:0:0:
320,192,13501,1,0,0:0:0:0:
64,192,13501,1,0,0:0:0:65:Clap.wav
192,192,13501,1,0,0:0:0:55:Kick.wav
448,192,13672,1,0,0:0:0:0:
320,192,13758,1,0,0:0:0:0:
192,192,13844,1,0,0:0:0:55:Kick.wav
64,192,13844,1,0,0:0:0:65:Clap.wav
448,192,14015,1,0,0:0:0:0:
64,192,14187,1,0,0:0:0:65:Clap.wav
192,192,14187,1,0,0:0:0:55:Kick.wav
320,192,14187,1,0,0:0:0:0:
448,192,14358,1,0,0:0:0:0:
64,192,14530,1,0,0:0:0:65:Clap.wav
192,192,14530,1,0,0:0:0:55:Kick.wav
320,192,14615,1,0,0:0:0:0:
64,192,14787,1,0,0:0:0:0:
192,192,14872,1,0,0:0:0:55:Kick.wav
448,192,14872,1,0,0:0:0:65:Clap.wav
320,192,14872,1,0,0:0:0:0:
64,192,15044,1,0,0:0:0:0:
320,192,15215,1,0,0:0:0:55:Kick.wav
448,192,15215,1,0,0:0:0:65:Clap.wav
64,192,15387,1,0,0:0:0:0:
192,192,15558,1,0,0:0:0:0:
320,192,15558,1,0,0:0:0:55:Kick.wav
448,192,15558,1,0,0:0:0:65:Clap.wav
64,192,15730,1,0,0:0:0:0:
320,192,15901,1,0,0:0:0:55:Kick.wav
448,192,15901,1,0,0:0:0:65:Clap.wav
192,192,15987,1,0,0:0:0:0:
448,192,16158,1,0,0:0:0:0:
320,192,16244,1,0,0:0:0:55:Kick.wav
192,192,16244,1,0,0:0:0:0:
64,192,16244,1,0,0:0:0:65:Clap.wav
448,192,16415,1,0,0:0:0:0:
320,192,16501,1,0,0:0:0:0:
192,192,16587,1,0,0:0:0:55:Kick.wav
64,192,16587,1,0,0:0:0:65:Clap.wav
448,192,16758,1,0,0:0:0:0:
192,192,16758,1,0,0:0:0:55:Clap.wav
64,192,16930,1,0,0:0:0:65:Clap.wav
320,192,16930,1,0,0:0:0:55:Kick.wav
64,192,17101,1,0,0:0:0:0:
448,192,17101,1,0,0:0:0:55:Clap.wav
320,192,17272,1,0,0:0:0:55:Kick.wav
448,192,17272,1,0,0:0:0:65:Clap.wav
192,192,17358,1,0,0:0:0:0:
64,192,17444,1,0,0:0:0:0:
320,192,17444,1,0,0:0:0:55:Clap.wav
192,192,17530,1,0,0:0:0:0:
64,192,17615,1,0,0:0:0:55:Kick.wav
448,192,17615,1,0,0:0:0:65:Clap.wav
448,192,17787,1,0,0:0:0:0:
320,192,17787,1,0,0:0:0:55:Clap.wav
64,192,17872,1,0,0:0:0:0:
192,192,17958,1,0,0:0:0:55:Kick.wav
320,192,17958,1,0,0:0:0:65:Clap.wav
448,192,18130,1,0,0:0:0:55:Clap.wav
64,192,18130,1,0,0:0:0:0:
64,192,18301,1,0,0:0:0:55:Kick.wav
320,192,18301,1,0,0:0:0:65:Clap.wav
448,192,18472,1,0,0:0:0:55:Clap.wav
192,192,18472,1,0,0:0:0:0:
448,192,18644,1,0,0:0:0:55:Kick.wav
320,192,18644,1,0,0:0:0:65:Clap.wav
64,192,18730,1,0,0:0:0:0:
192,192,18815,1,0,0:0:0:0:
320,192,18815,1,0,0:0:0:55:Clap.wav
448,192,18901,1,0,0:0:0:0:
192,192,18987,1,0,0:0:0:65:Clap.wav
64,192,18987,1,0,0:0:0:55:Kick.wav
448,192,19158,1,0,0:0:0:0:
320,192,19158,1,0,0:0:0:55:Clap.wav
192,192,19330,1,0,0:0:0:65:Clap.wav
64,192,19330,1,0,0:0:0:55:Kick.wav
320,192,19415,1,0,0:0:0:0:
192,192,19501,1,0,0:0:0:0:
448,192,19501,1,0,0:0:0:55:Kick.wav
320,192,19587,1,0,0:0:0:0:
64,192,19672,1,0,0:0:0:65:Clap.wav
448,192,19672,1,0,0:0:0:55:Kick.wav
192,192,19758,1,0,0:0:0:0:
320,192,19844,1,0,0:0:0:0:
448,192,19844,1,0,0:0:0:55:Kick.wav
64,192,19930,1,0,0:0:0:0:
320,192,20015,1,0,0:0:0:55:Kick.wav
192,192,20015,1,0,0:0:0:65:Clap.wav
448,192,20101,1,0,0:0:0:0:
192,192,20187,1,0,0:0:0:55:Kick.wav
64,192,20187,1,0,0:0:0:0:
320,192,20272,1,0,0:0:0:0:
64,192,20358,1,0,0:0:0:65:Clap.wav
448,192,20358,1,0,0:0:0:55:Kick.wav
192,192,20444,1,0,0:0:0:0:
320,192,20530,1,0,0:0:0:55:Kick.wav
64,192,20530,1,0,0:0:0:0:
192,192,20615,1,0,0:0:0:0:
448,192,20701,1,0,0:0:0:55:Kick.wav
320,192,20744,1,0,0:0:0:20:Kick.wav
192,192,20787,1,0,0:0:0:20:Kick.wav
64,192,20830,1,0,0:0:0:20:Kick.wav
448,192,20872,1,0,0:0:0:20:Kick.wav
320,192,20915,1,0,0:0:0:20:Kick.wav
192,192,20958,1,0,0:0:0:20:Kick.wav
64,192,21001,1,0,0:0:0:20:Kick.wav
448,192,21044,1,0,0:0:0:20:Kick.wav
320,192,21087,1,0,0:0:0:20:Kick.wav
192,192,21130,1,0,0:0:0:20:Kick.wav
64,192,21172,1,0,0:0:0:20:Kick.wav
448,192,21215,1,0,0:0:0:20:Kick.wav
320,192,21258,1,0,0:0:0:20:Kick.wav
192,192,21301,1,0,0:0:0:20:Kick.wav
64,192,21344,1,0,0:0:0:20:Kick.wav
448,192,21387,1,0,0:0:0:20:Kick.wav
320,192,21430,1,0,0:0:0:20:Kick.wav
64,192,21472,1,0,0:0:0:20:Kick.wav
192,192,21515,1,0,0:0:0:20:Kick.wav
448,192,21558,1,0,0:0:0:20:Kick.wav
320,192,21601,1,0,0:0:0:20:Kick.wav
64,192,21644,1,0,0:0:0:20:Kick.wav
192,192,21687,1,0,0:0:0:20:Kick.wav
448,192,21730,1,0,0:0:0:20:Kick.wav
320,192,21772,1,0,0:0:0:20:Kick.wav
64,192,21815,1,0,0:0:0:20:Kick.wav
192,192,21858,1,0,0:0:0:20:Kick.wav
448,192,21901,1,0,0:0:0:20:Kick.wav
320,192,21944,1,0,0:0:0:20:Kick.wav
64,192,21987,1,0,0:0:0:20:Kick.wav
192,192,22030,1,0,0:0:0:20:Kick.wav
320,192,22072,1,0,0:0:0:80:Cymbal.wav
448,192,22072,1,0,0:0:0:55:Kick.wav
448,192,22244,1,0,0:0:0:80:Hat.wav
64,192,22330,1,0,0:0:0:0:
192,192,22330,1,0,0:0:0:0:
320,192,22415,1,0,0:0:0:60:Kick.wav
448,192,22501,1,0,0:0:0:0:
64,192,22501,1,0,0:0:0:0:
192,192,22587,1,0,0:0:0:80:Hat.wav
320,192,22758,1,0,0:0:0:0:
64,192,22758,1,0,0:0:0:60:Kick.wav
192,192,22930,1,0,0:0:0:80:Hat.wav
64,192,23015,1,0,0:0:0:0:
448,192,23015,1,0,0:0:0:0:
320,192,23101,1,0,0:0:0:60:Kick.wav
192,192,23187,1,0,0:0:0:0:
448,192,23187,1,0,0:0:0:0:
320,192,23272,1,0,0:0:0:80:Hat.wav
64,192,23444,1,0,0:0:0:0:
448,192,23444,1,0,0:0:0:60:Kick.wav
192,192,23615,1,0,0:0:0:80:Hat.wav
320,192,23701,1,0,0:0:0:0:
64,192,23701,1,0,0:0:0:0:
192,192,23787,1,0,0:0:0:60:Kick.wav
448,192,23872,1,0,0:0:0:0:
320,192,23872,1,0,0:0:0:0:
64,192,23958,1,0,0:1:0:80:Hat.wav
320,192,24130,1,0,0:0:0:0:
448,192,24130,1,0,0:0:0:60:Kick.wav
192,192,24215,1,0,0:0:0:0:
320,192,24301,1,0,0:0:0:80:Hat.wav
64,192,24301,1,0,0:0:0:0:
192,192,24387,1,0,0:0:0:0:
64,192,24472,1,0,0:0:0:0:
448,192,24472,1,0,0:0:0:60:Kick.wav
320,192,24558,1,0,0:0:0:0:
448,192,24644,1,0,0:0:0:0:
192,192,24644,1,0,0:0:0:80:Hat.wav
320,192,24730,1,0,0:0:0:0:
64,192,24815,1,0,0:0:0:60:Kick.wav
192,192,24815,1,0,0:0:0:0:
448,192,24987,1,0,0:0:0:80:Hat.wav
320,192,25072,1,0,0:0:0:0:
64,192,25072,1,0,0:0:0:0:
192,192,25158,1,0,0:0:0:60:Kick.wav
64,192,25244,1,0,0:0:0:0:
448,192,25244,1,0,0:0:0:0:
320,192,25330,1,0,0:0:0:80:Hat.wav
192,192,25501,1,0,0:0:0:0:
448,192,25501,1,0,0:0:0:60:Kick.wav
64,192,25672,1,0,0:0:0:80:Hat.wav
192,192,25758,1,0,0:0:0:0:
320,192,25758,1,0,0:0:0:0:
448,192,25844,1,0,0:0:0:60:Kick.wav
192,192,25930,1,0,0:0:0:0:
64,192,25930,1,0,0:0:0:0:
320,192,26015,1,0,0:0:0:80:Hat.wav
192,192,26187,1,0,0:0:0:0:
64,192,26187,1,0,0:0:0:0:
448,192,26187,1,0,0:0:0:60:Kick.wav
320,192,26358,1,0,0:0:0:80:Hat.wav
448,192,26444,1,0,0:0:0:0:
320,192,26530,1,0,0:0:0:60:Kick.wav
64,192,26530,1,0,0:0:0:0:
192,192,26615,1,0,0:0:0:0:
64,192,26701,1,0,0:0:0:80:Hat.wav
448,192,26701,1,0,0:0:0:0:
320,192,26872,1,0,0:0:0:60:Kick.wav
448,192,26872,1,0,0:0:0:0:
64,192,26958,1,0,0:0:0:0:
192,192,26958,1,0,0:0:0:0:
320,192,27044,1,0,0:0:0:80:Hat.wav
448,192,27044,1,0,0:0:0:0:
64,192,27130,1,0,0:0:0:0:
192,192,27215,1,0,0:0:0:0:
320,192,27215,1,0,0:0:0:60:Kick.wav
448,192,27301,1,0,0:0:0:0:
192,192,27387,1,0,0:0:0:80:Hat.wav
64,192,27387,1,0,0:0:0:0:
320,192,27472,1,0,0:0:0:0:
64,192,27558,1,0,0:0:0:0:
448,192,27558,1,0,0:0:0:60:Kick.wav
320,192,27730,1,0,0:0:0:80:Hat.wav
192,192,27815,1,0,0:0:0:0:
320,192,27901,1,0,0:0:0:60:Kick.wav
64,192,27901,1,0,0:0:0:0:
192,192,27987,1,0,0:0:0:0:
448,192,27987,1,0,0:0:0:0:
320,192,28072,1,0,0:0:0:80:Hat.wav
448,192,28244,1,0,0:0:0:60:Kick.wav
64,192,28244,1,0,0:0:0:0:
192,192,28330,1,0,0:0:0:0:
320,192,28415,1,0,0:0:0:80:Hat.wav
192,192,28501,1,0,0:0:0:0:
64,192,28501,1,0,0:0:0:0:
448,192,28587,1,0,0:0:0:60:Kick.wav
64,192,28672,1,0,0:0:0:0:
320,192,28672,1,0,0:0:0:0:
192,192,28758,1,0,0:0:0:80:Hat.wav
448,192,28930,1,0,0:0:0:60:Kick.wav
320,192,28930,1,0,0:0:0:0:
192,192,29101,1,0,0:0:0:80:Hat.wav
64,192,29187,1,0,0:0:0:0:
448,192,29187,1,0,0:0:0:0:
320,192,29272,1,0,0:0:0:60:Kick.wav
192,192,29358,1,0,0:0:0:0:
64,192,29358,1,0,0:0:0:0:
448,192,29444,1,0,0:0:0:80:Hat.wav
320,192,29615,1,0,0:0:0:60:Kick.wav
192,192,29615,1,0,0:0:0:0:
64,192,29701,1,0,0:0:0:0:
448,192,29787,1,0,0:0:0:80:Hat.wav
192,192,29787,1,0,0:0:0:0:
320,192,29872,1,0,0:0:0:0:
64,192,29958,1,0,0:0:0:60:Kick.wav
192,192,29958,1,0,0:0:0:0:
448,192,30044,1,0,0:0:0:0:
64,192,30130,1,0,0:0:0:0:
320,192,30130,1,0,0:0:0:80:Hat.wav
192,192,30215,1,0,0:0:0:0:
448,192,30301,1,0,0:0:0:60:Kick.wav
320,192,30301,1,0,0:0:0:0:
192,192,30472,1,0,0:0:0:80:Hat.wav
64,192,30558,1,0,0:0:0:0:
448,192,30558,1,0,0:0:0:0:
320,192,30644,1,0,0:0:0:60:Kick.wav
192,192,30730,1,0,0:0:0:0:
64,192,30730,1,0,0:0:0:0:
448,192,30815,1,0,0:0:0:80:Hat.wav
64,192,30987,1,0,0:0:0:60:Kick.wav
320,192,30987,1,0,0:0:0:0:
448,192,31072,1,0,0:0:0:0:
192,192,31158,1,0,0:0:0:80:Hat.wav
448,192,31244,1,0,0:0:0:0:
320,192,31244,1,0,0:0:0:0:
64,192,31330,1,0,0:0:0:60:Kick.wav
320,192,31415,1,0,0:0:0:0:
192,192,31415,1,0,0:0:0:0:
448,192,31501,1,0,0:0:0:80:Hat.wav
320,192,31672,1,0,0:0:0:0:
448,192,31672,1,0,0:0:0:0:
64,192,31672,1,0,0:0:0:60:Kick.wav
192,192,31844,1,0,0:0:0:80:Hat.wav
448,192,31930,1,0,0:0:0:0:
64,192,31930,1,0,0:0:0:0:
320,192,32015,1,0,0:0:0:60:Kick.wav
448,192,32101,1,0,0:0:0:0:
192,192,32101,1,0,0:0:0:0:
320,192,32187,1,0,0:0:0:80:Hat.wav
64,192,32358,1,0,0:0:0:0:
448,192,32358,1,0,0:0:0:0:
192,192,32358,1,0,0:0:0:60:Kick.wav
192,192,32530,1,0,0:0:0:0:
320,192,32530,1,0,0:0:0:80:Hat.wav
448,192,32530,1,0,0:0:0:60:Kick.wav
64,192,32701,1,0,0:0:0:0:
448,192,32701,1,0,0:0:0:60:Kick.wav
320,192,32701,1,0,0:0:0:0:
320,192,32872,1,0,0:0:0:80:Hat.wav
64,192,32872,1,0,0:0:0:0:
192,192,32872,1,0,0:0:0:60:Kick.wav
192,192,33044,1,0,0:0:0:80:Cymbal.wav
448,192,33044,1,0,0:0:0:60:Kick.wav
64,192,33044,1,0,0:0:0:0:
320,192,33215,1,0,0:0:0:80:Hat.wav
64,192,33301,1,0,0:0:0:0:
448,192,33301,1,0,0:0:0:0:
192,192,33387,1,0,0:0:0:60:Kick.wav
320,192,33472,1,0,0:0:0:0:
448,192,33472,1,0,0:0:0:0:
64,192,33558,1,0,0:0:0:80:Hat.wav
64,192,33730,1,0,0:0:0:0:
192,192,33730,1,0,0:0:0:60:Kick.wav
448,192,33815,1,0,0:0:0:0:
192,192,33901,1,0,0:0:0:80:Hat.wav
448,192,33987,1,0,0:0:0:0:
320,192,33987,1,0,0:0:0:0:
64,192,34072,1,0,0:0:0:60:Kick.wav
320,192,34158,1,0,0:0:0:0:
192,192,34158,1,0,0:0:0:0:
448,192,34244,1,0,0:0:0:80:Hat.wav
64,192,34415,1,0,0:0:0:60:Kick.wav
192,192,34415,1,0,0:0:0:0:
320,192,34587,1,0,0:0:0:80:Hat.wav
64,192,34672,1,0,0:0:0:0:
448,192,34672,1,0,0:0:0:0:
192,192,34758,1,0,0:0:0:60:Kick.wav
320,192,34844,1,0,0:0:0:0:
448,192,34844,1,0,0:0:0:0:
64,192,34930,1,0,0:0:0:80:Hat.wav
448,192,35101,1,0,0:0:0:0:
192,192,35101,1,0,0:0:0:60:Kick.wav
320,192,35187,1,0,0:0:0:0:
64,192,35272,1,0,0:0:0:0:
448,192,35272,1,0,0:0:0:80:Hat.wav
192,192,35358,1,0,0:0:0:0:
64,192,35444,1,0,0:0:0:60:Kick.wav
320,192,35444,1,0,0:0:0:0:
192,192,35530,1,0,0:0:0:0:
448,192,35615,1,0,0:0:0:80:Hat.wav
320,192,35615,1,0,0:0:0:0:
64,192,35701,1,0,0:0:0:0:
448,192,35787,1,0,0:0:0:0:
192,192,35787,1,0,0:0:0:60:Kick.wav
320,192,35958,1,0,0:0:0:80:Hat.wav
64,192,36044,1,0,0:0:0:0:
448,192,36044,1,0,0:0:0:0:
192,192,36130,1,0,0:0:0:60:Kick.wav
64,192,36215,1,0,0:0:0:0:
320,192,36215,1,0,0:0:0:0:
192,192,36301,1,0,0:0:0:80:Hat.wav
448,192,36472,1,0,0:0:0:0:
320,192,36472,1,0,0:0:0:60:Kick.wav
64,192,36558,1,0,0:0:0:0:
192,192,36644,1,0,0:0:0:80:Hat.wav
448,192,36730,1,0,0:0:0:0:
320,192,36730,1,0,0:0:0:0:
192,192,36815,1,0,0:0:0:60:Kick.wav
64,192,36901,1,0,0:0:0:0:
448,192,36901,1,0,0:0:0:0:
320,192,36987,1,0,0:0:0:80:Hat.wav
192,192,37072,1,0,0:0:0:0:
320,192,37158,1,0,0:0:0:0:
448,192,37158,1,0,0:0:0:60:Kick.wav
64,192,37330,1,0,0:0:0:80:Hat.wav
320,192,37415,1,0,0:0:0:0:
192,192,37415,1,0,0:0:0:0:
448,192,37501,1,0,0:0:0:60:Kick.wav
192,192,37587,1,0,0:0:0:0:
64,192,37587,1,0,0:0:0:0:
320,192,37672,1,0,0:0:0:80:Hat.wav
448,192,37844,1,0,0:0:0:60:Kick.wav
64,192,37844,1,0,0:0:0:0:
192,192,37930,1,0,0:0:0:0:
64,192,38015,1,0,0:0:0:0:
320,192,38015,1,0,0:0:0:80:Hat.wav
192,192,38101,1,0,0:0:0:0:
320,192,38187,1,0,0:0:0:0:
448,192,38187,1,0,0:0:0:60:Kick.wav
64,192,38358,1,0,0:0:0:0:
192,192,38358,1,0,0:0:0:80:Hat.wav
320,192,38444,1,0,0:0:0:0:
448,192,38530,1,0,0:0:0:60:Kick.wav
64,192,38530,1,0,0:0:0:0:
192,192,38701,1,0,0:0:0:80:Hat.wav
320,192,38787,1,0,0:0:0:0:
448,192,38787,1,0,0:0:0:0:
64,192,38872,1,0,0:0:0:60:Kick.wav
192,192,38958,1,0,0:0:0:0:
320,192,38958,1,0,0:0:0:0:
448,192,39044,1,0,0:0:0:80:Hat.wav
64,192,39215,1,0,0:0:0:60:Kick.wav
192,192,39215,1,0,0:0:0:0:
320,192,39301,1,0,0:0:0:0:
64,192,39387,1,0,0:0:0:80:Hat.wav
192,192,39472,1,0,0:0:0:0:
448,192,39472,1,0,0:0:0:0:
320,192,39558,1,0,0:0:0:60:Kick.wav
64,192,39644,1,0,0:0:0:0:
192,192,39644,1,0,0:0:0:0:
448,192,39730,1,0,0:0:0:80:Hat.wav
320,192,39815,1,0,0:0:0:0:
192,192,39901,1,0,0:0:0:0:
448,192,39901,1,0,0:0:0:60:Kick.wav
64,192,40072,1,0,0:0:0:80:Hat.wav
192,192,40158,1,0,0:0:0:0:
320,192,40158,1,0,0:0:0:0:
448,192,40244,1,0,0:0:0:60:Kick.wav
64,192,40330,1,0,0:0:0:0:
192,192,40330,1,0,0:0:0:0:
320,192,40415,1,0,0:0:0:80:Hat.wav
64,192,40501,1,0,0:0:0:0:
192,192,40587,1,0,0:0:0:0:
448,192,40587,1,0,0:0:0:60:Kick.wav
320,192,40672,1,0,0:0:0:0:
64,192,40758,1,0,0:0:0:0:
192,192,40758,1,0,0:0:0:80:Hat.wav
448,192,40844,1,0,0:0:0:0:
192,192,40930,1,0,0:0:0:60:Kick.wav
320,192,40930,1,0,0:0:0:0:
64,192,41015,1,0,0:0:0:0:
320,192,41101,1,0,0:0:0:80:Hat.wav
448,192,41101,1,0,0:0:0:0:
192,192,41187,1,0,0:0:0:0:
64,192,41272,1,0,0:0:0:60:Kick.wav
448,192,41272,1,0,0:0:0:0:
448,192,41444,1,0,0:0:0:60:Kick.wav
320,192,41444,1,0,0:0:0:80:Hat.wav
64,192,41530,1,0,0:0:0:0:
320,192,41615,1,0,0:0:0:0:
192,192,41615,1,0,0:0:0:60:Kick.wav
448,192,41701,1,0,0:0:0:0:
192,192,41787,1,0,0:0:0:80:Hat.wav
64,192,41787,1,0,0:0:0:60:Kick.wav
320,192,41872,1,0,0:0:0:0:
64,192,41958,1,0,0:0:0:60:Kick.wav
448,192,41958,1,0,0:0:0:0:
192,192,42044,1,0,0:0:0:0:
320,192,42130,1,0,0:0:0:80:Hat.wav
448,192,42130,1,0,0:0:0:60:Kick.wav
64,192,42215,1,0,0:0:0:0:
192,192,42301,1,0,0:0:0:0:
320,192,42301,1,0,0:0:0:60:Kick.wav
448,192,42387,1,0,0:0:0:0:
192,192,42472,1,0,0:0:0:80:Hat.wav
64,192,42472,1,0,0:0:0:60:Kick.wav
64,192,42644,1,0,0:0:0:0:
448,192,42644,1,0,0:0:0:0:
320,192,42730,1,0,0:0:0:0:
192,192,42815,1,0,0:0:0:0:
320,192,42901,1,0,0:0:0:0:
448,192,42987,1,0,0:0:0:0:
64,192,43072,1,0,0:0:0:0:
192,192,43158,1,0,0:0:0:0:
320,192,43244,1,0,0:0:0:0:
448,192,43330,128,0,43415:0:0:0:0:
320,192,43415,128,0,43501:0:0:0:0:
192,192,43501,128,0,43587:0:0:0:0:
64,192,43587,128,0,43672:0:0:0:0:
448,192,43672,128,0,43758:0:0:0:0:
320,192,43758,128,0,43844:0:0:0:0:
192,192,43844,128,0,43930:0:0:0:0:
64,192,43930,128,0,44015:0:0:0:0:
320,192,44015,1,0,0:0:0:80:Cymbal.wav
448,192,44015,1,0,0:0:0:65:Kick.wav
192,192,44187,1,0,0:0:0:80:Hat.wav
320,192,44272,1,0,0:0:0:0:
192,192,44358,1,0,0:0:0:65:Clap.wav
448,192,44358,1,0,0:0:0:60:Kick.wav
64,192,44444,1,0,0:0:0:0:
192,192,44530,1,0,0:0:0:80:Hat.wav
320,192,44615,1,0,0:0:0:0:
64,192,44701,1,0,0:0:0:0:
448,192,44701,1,0,0:0:0:60:Kick.wav
192,192,44787,1,0,0:0:0:0:
320,192,44872,1,0,0:0:0:80:Hat.wav
192,192,44958,1,0,0:0:0:0:
64,192,45044,1,0,0:0:0:65:Clap.wav
448,192,45044,1,0,0:0:0:60:Kick.wav
320,192,45130,1,0,0:0:0:0:
192,192,45215,1,0,0:0:0:80:Hat.wav
320,192,45301,1,0,0:0:0:0:
192,192,45387,1,0,0:0:0:0:
64,192,45387,1,0,0:0:0:60:Kick.wav
448,192,45472,1,0,0:0:0:0:
320,192,45558,1,0,0:0:0:80:Hat.wav
192,192,45644,1,0,0:0:0:0:
320,192,45730,1,0,0:0:0:65:Clap.wav
448,192,45730,1,0,0:0:0:60:Kick.wav
64,192,45815,1,0,0:0:0:0:
192,192,45901,1,0,0:0:0:80:Hat.wav
320,192,45987,1,0,0:0:0:0:
64,192,46072,1,0,0:0:0:60:Kick.wav
448,192,46072,1,0,0:0:0:0:
192,192,46158,1,0,0:0:0:0:
320,192,46244,1,0,0:0:0:80:Hat.wav
192,192,46330,1,0,0:0:0:0:
64,192,46415,1,0,0:0:0:60:Kick.wav
448,192,46415,1,0,0:0:0:65:Clap.wav
320,192,46501,1,0,0:0:0:0:
192,192,46587,1,0,0:0:0:80:Hat.wav
320,192,46672,1,0,0:0:0:0:
64,192,46758,1,0,0:0:0:60:Kick.wav
192,192,46758,1,0,0:0:0:0:
448,192,46844,1,0,0:0:0:0:
320,192,46930,1,0,0:0:0:80:Hat.wav
192,192,47015,1,0,0:0:0:0:
448,192,47101,1,0,0:0:0:60:Kick.wav
320,192,47101,1,0,0:0:0:65:Clap.wav
64,192,47187,1,0,0:0:0:0:
192,192,47272,1,0,0:0:0:80:Hat.wav
320,192,47358,1,0,0:0:0:0:
64,192,47444,1,0,0:0:0:0:
448,192,47444,1,0,0:0:0:60:Kick.wav
192,192,47530,1,0,0:0:0:0:
320,192,47615,1,0,0:0:0:80:Hat.wav
192,192,47701,1,0,0:0:0:0:
320,192,47787,1,0,0:0:0:65:Clap.wav
448,192,47787,1,0,0:0:0:60:Kick.wav
64,192,47872,1,0,0:0:0:0:
192,192,47958,1,0,0:0:0:80:Hat.wav
320,192,48044,1,0,0:0:0:0:
192,192,48130,1,0,0:0:0:0:
64,192,48130,1,0,0:0:0:60:Kick.wav
448,192,48215,1,0,0:0:0:0:
320,192,48301,1,0,0:0:0:80:Hat.wav
192,192,48387,1,0,0:0:0:0:
448,192,48472,1,0,0:0:0:65:Clap.wav
64,192,48472,1,0,0:0:0:60:Kick.wav
320,192,48558,1,0,0:0:0:0:
192,192,48644,1,0,0:0:0:80:Hat.wav
320,192,48730,1,0,0:0:0:0:
64,192,48815,1,0,0:0:0:60:Kick.wav
448,192,48815,1,0,0:0:0:0:
192,192,48901,1,0,0:0:0:0:
320,192,48987,1,0,0:0:0:80:Hat.wav
192,192,49072,1,0,0:0:0:0:
64,192,49158,1,0,0:0:0:60:Kick.wav
448,192,49158,1,0,0:0:0:65:Clap.wav
320,192,49158,1,0,0:0:0:0:
192,192,49244,1,0,0:0:0:0:
448,192,49330,1,0,0:0:0:80:Hat.wav
320,192,49415,1,0,0:0:0:0:
448,192,49501,1,0,0:0:0:0:
192,192,49501,1,0,0:0:0:0:
64,192,49501,1,0,0:0:0:60:Kick.wav
320,192,49672,1,0,0:0:0:80:Hat.wav
192,192,49758,1,0,0:0:0:0:
64,192,49844,1,0,0:0:0:60:Kick.wav
448,192,49844,1,0,0:0:0:65:Clap.wav
320,192,49930,1,0,0:0:0:0:
192,192,50015,1,0,0:0:0:80:Hat.wav
320,192,50101,1,0,0:0:0:0:
64,192,50187,1,0,0:0:0:60:Kick.wav
192,192,50187,1,0,0:0:0:0:
448,192,50272,1,0,0:0:0:0:
320,192,50358,1,0,0:0:0:80:Hat.wav
192,192,50444,1,0,0:0:0:0:
64,192,50530,1,0,0:0:0:65:Clap.wav
448,192,50530,1,0,0:0:0:60:Kick.wav
320,192,50615,1,0,0:0:0:0:
192,192,50701,1,0,0:0:0:80:Hat.wav
320,192,50787,1,0,0:0:0:0:
64,192,50872,1,0,0:0:0:0:
448,192,50872,1,0,0:0:0:60:Kick.wav
192,192,50958,1,0,0:0:0:0:
320,192,51044,1,0,0:0:0:80:Hat.wav
192,192,51130,1,0,0:0:0:0:
320,192,51215,1,0,0:0:0:65:Clap.wav
448,192,51215,1,0,0:0:0:60:Kick.wav
64,192,51301,1,0,0:0:0:0:
320,192,51387,1,0,0:0:0:80:Hat.wav
192,192,51472,1,0,0:0:0:0:
64,192,51558,1,0,0:0:0:0:
448,192,51558,1,0,0:0:0:60:Kick.wav
320,192,51644,1,0,0:0:0:0:
192,192,51730,1,0,0:0:0:80:Hat.wav
320,192,51815,1,0,0:0:0:0:
192,192,51901,1,0,0:0:0:65:Clap.wav
64,192,51901,1,0,0:0:0:60:Kick.wav
448,192,51987,1,0,0:0:0:0:
320,192,52072,1,0,0:0:0:80:Hat.wav
192,192,52158,1,0,0:0:0:0:
448,192,52244,1,0,0:0:0:60:Kick.wav
320,192,52244,1,0,0:0:0:0:
64,192,52330,1,0,0:0:0:0:
320,192,52415,1,0,0:0:0:80:Hat.wav
192,192,52501,1,0,0:0:0:0:
64,192,52587,1,0,0:0:0:65:Clap.wav
448,192,52587,1,0,0:0:0:60:Kick.wav
320,192,52672,1,0,0:0:0:0:
192,192,52758,1,0,0:0:0:80:Hat.wav
320,192,52844,1,0,0:0:0:0:
448,192,52930,1,0,0:0:0:60:Kick.wav
64,192,52930,1,0,0:0:0:0:
192,192,53015,1,0,0:0:0:0:
320,192,53101,1,0,0:0:0:80:Hat.wav
192,192,53187,1,0,0:0:0:0:
448,192,53272,1,0,0:0:0:60:Kick.wav
320,192,53272,1,0,0:0:0:65:Clap.wav
64,192,53358,1,0,0:0:0:0:
192,192,53444,1,0,0:0:0:80:Hat.wav
320,192,53530,1,0,0:0:0:0:
64,192,53615,1,0,0:0:0:60:Kick.wav
192,192,53615,1,0,0:0:0:0:
448,192,53701,1,0,0:0:0:0:
64,192,53787,1,0,0:0:0:60:Kick.wav
320,192,53787,1,0,0:0:0:80:Hat.wav
192,192,53872,1,0,0:0:0:0:
448,192,53958,1,0,0:0:0:60:Kick.wav
320,192,53958,1,0,0:0:0:65:Clap.wav
64,192,54044,1,0,0:0:0:0:
448,192,54130,1,0,0:0:0:60:Kick.wav
192,192,54130,1,0,0:0:0:80:Hat.wav
320,192,54215,1,0,0:0:0:0:
192,192,54301,1,0,0:0:0:0:
64,192,54301,1,0,0:0:0:60:Kick.wav
448,192,54387,1,0,0:0:0:0:
64,192,54472,1,0,0:0:0:60:Kick.wav
320,192,54472,1,0,0:0:0:80:Hat.wav
192,192,54558,1,0,0:0:0:0:
320,192,54644,1,0,0:0:0:65:Clap.wav
448,192,54644,1,0,0:0:0:60:Kick.wav
192,192,54730,1,0,0:0:0:60:Kick.wav
64,192,54730,1,0,0:0:0:0:
448,192,54815,1,0,0:0:0:60:Kick.wav
320,192,54815,1,0,0:0:0:0:
192,192,54901,1,0,0:0:0:60:Kick.wav
64,192,54901,1,0,0:0:0:0:
448,192,54987,1,0,0:0:0:60:Kick.wav
320,192,54987,1,0,0:0:0:80:Cymbal.wav
64,192,54987,1,0,0:0:0:0:
192,192,55158,1,0,0:0:0:80:Hat.wav
320,192,55244,1,0,0:0:0:0:
64,192,55330,1,0,0:0:0:65:Clap.wav
448,192,55330,1,0,0:0:0:60:Kick.wav
192,192,55415,1,0,0:0:0:0:
320,192,55501,1,0,0:0:0:80:Hat.wav
64,192,55587,1,0,0:0:0:0:
448,192,55672,1,0,0:0:0:60:Kick.wav
192,192,55672,1,0,0:0:0:65:Clap.wav
320,192,55758,1,0,0:0:0:0:
192,192,55844,1,0,0:0:0:80:Hat.wav
448,192,55930,1,0,0:0:0:0:
320,192,56015,1,0,0:0:0:65:Clap.wav
64,192,56015,1,0,0:0:0:60:Kick.wav
192,192,56101,1,0,0:0:0:0:
448,192,56187,1,0,0:0:0:80:Hat.wav
320,192,56272,1,0,0:0:0:0:
448,192,56358,1,0,0:0:0:60:Kick.wav
192,192,56358,1,0,0:0:0:65:Clap.wav
64,192,56444,1,0,0:0:0:0:
192,192,56530,1,0,0:0:0:80:Hat.wav
320,192,56615,1,0,0:0:0:0:
448,192,56701,1,0,0:0:0:60:Kick.wav
64,192,56701,1,0,0:0:0:65:Clap.wav
192,192,56787,1,0,0:0:0:0:
320,192,56872,1,0,0:0:0:80:Hat.wav
192,192,56958,1,0,0:0:0:0:
448,192,57044,1,0,0:0:0:60:Kick.wav
64,192,57044,1,0,0:0:0:65:Clap.wav
320,192,57130,1,0,0:0:0:0:
192,192,57215,1,0,0:0:0:80:Hat.wav
448,192,57301,1,0,0:0:0:0:
64,192,57387,1,0,0:0:0:60:Kick.wav
320,192,57387,1,0,0:0:0:65:Clap.wav
192,192,57472,1,0,0:0:0:0:
448,192,57558,1,0,0:0:0:80:Hat.wav
320,192,57644,1,0,0:0:0:0:
448,192,57730,1,0,0:0:0:60:Kick.wav
192,192,57730,1,0,0:0:0:65:Clap.wav
64,192,57815,1,0,0:0:0:0:
192,192,57901,1,0,0:0:0:80:Hat.wav
320,192,57987,1,0,0:0:0:0:
448,192,58072,1,0,0:0:0:60:Kick.wav
64,192,58072,1,0,0:0:0:65:Clap.wav
192,192,58158,1,0,0:0:0:0:
320,192,58244,1,0,0:0:0:80:Hat.wav
64,192,58330,1,0,0:0:0:0:
448,192,58415,1,0,0:0:0:60:Kick.wav
192,192,58415,1,0,0:0:0:65:Clap.wav
320,192,58501,1,0,0:0:0:0:
192,192,58587,1,0,0:0:0:80:Hat.wav
448,192,58672,1,0,0:0:0:0:
64,192,58758,1,0,0:0:0:65:Clap.wav
320,192,58758,1,0,0:0:0:60:Kick.wav
192,192,58844,1,0,0:0:0:0:
448,192,58930,1,0,0:0:0:80:Hat.wav
320,192,59015,1,0,0:0:0:0:
448,192,59101,1,0,0:0:0:60:Kick.wav
192,192,59101,1,0,0:0:0:65:Clap.wav
64,192,59187,1,0,0:0:0:0:
192,192,59272,1,0,0:0:0:80:Hat.wav
320,192,59358,1,0,0:0:0:0:
64,192,59444,1,0,0:0:0:65:Clap.wav
448,192,59444,1,0,0:0:0:60:Kick.wav
192,192,59530,1,0,0:0:0:0:
320,192,59615,1,0,0:0:0:80:Hat.wav
448,192,59701,1,0,0:0:0:0:
64,192,59787,1,0,0:0:0:60:Kick.wav
320,192,59787,1,0,0:0:0:65:Clap.wav
192,192,59872,1,0,0:0:0:0:
448,192,59958,1,0,0:0:0:80:Hat.wav
320,192,60044,1,0,0:0:0:0:
192,192,60130,1,0,0:0:0:0:
448,192,60130,1,0,0:0:0:65:Clap.wav
64,192,60130,1,0,0:0:0:60:Kick.wav
320,192,60215,1,0,0:0:0:0:
64,192,60301,1,0,0:0:0:80:Hat.wav
192,192,60387,1,0,0:0:0:0:
448,192,60472,1,0,0:0:0:65:Clap.wav
320,192,60472,1,0,0:0:0:60:Kick.wav
64,192,60472,1,0,0:0:0:0:
192,192,60644,1,0,0:0:0:60:Kick.wav
320,192,60644,1,0,0:0:0:65:Clap.wav
448,192,60730,1,0,0:0:0:0:
192,192,60815,1,0,0:0:0:65:Clap.wav
64,192,60815,1,0,0:0:0:60:Kick.wav
320,192,60901,1,0,0:0:0:0:
64,192,60987,1,0,0:0:0:60:Kick.wav
448,192,60987,1,0,0:0:0:65:Clap.wav
192,192,61158,1,0,0:0:0:60:Kick.wav
320,192,61158,1,0,0:0:0:65:Clap.wav
64,192,61330,1,0,0:0:0:60:Kick.wav
448,192,61330,1,0,0:0:0:65:Clap.wav
320,192,61415,1,0,0:0:0:0:
192,192,61501,1,0,0:0:0:65:Clap.wav
64,192,61501,1,0,0:0:0:60:Kick.wav
448,192,61587,1,0,0:0:0:0:
192,192,61672,1,0,0:0:0:60:Kick.wav
320,192,61672,1,0,0:0:0:65:Clap.wav
64,192,61844,1,0,0:0:0:60:Kick.wav
448,192,61844,1,0,0:0:0:65:Clap.wav
448,192,62015,1,0,0:0:0:60:Kick.wav
320,192,62015,1,0,0:0:0:65:Clap.wav
64,192,62101,1,0,0:0:0:0:
320,192,62187,1,0,0:0:0:60:Kick.wav
192,192,62187,1,0,0:0:0:65:Clap.wav
448,192,62272,1,0,0:0:0:0:
192,192,62358,1,0,0:0:0:60:Kick.wav
64,192,62358,1,0,0:0:0:65:Clap.wav
320,192,62444,1,0,0:0:0:0:
64,192,62530,1,0,0:0:0:65:Clap.wav
448,192,62530,1,0,0:0:0:60:Kick.wav
192,192,62701,1,0,0:0:0:65:Clap.wav
320,192,62701,1,0,0:0:0:60:Kick.wav
448,192,62872,1,0,0:0:0:60:Kick.wav
64,192,62872,1,0,0:0:0:65:Clap.wav
192,192,63044,1,0,0:0:0:60:Kick.wav
64,192,63044,1,0,0:0:0:65:Clap.wav
320,192,63215,1,0,0:0:0:50:Kick.wav
448,192,63215,1,0,0:0:0:0:
64,192,63301,1,0,0:0:0:0:
192,192,63301,1,0,0:0:0:50:Kick.wav
448,192,63387,1,0,0:0:0:0:
320,192,63387,1,0,0:0:0:50:Kick.wav
64,192,63472,1,0,0:0:0:0:
192,192,63472,1,0,0:0:0:50:Kick.wav
448,192,63558,1,0,0:0:0:0:
320,192,63558,1,0,0:0:0:50:Kick.wav
64,192,63644,1,0,0:0:0:0:
192,192,63644,1,0,0:0:0:50:Kick.wav
448,192,63730,1,0,0:0:0:0:
320,192,63730,1,0,0:0:0:50:Kick.wav
192,192,63815,1,0,0:0:0:50:Kick.wav
64,192,63815,1,0,0:0:0:0:
448,192,63901,1,0,0:0:0:0:
320,192,63901,1,0,0:0:0:50:Kick.wav
64,192,63987,1,0,0:0:0:0:
192,192,63987,1,0,0:0:0:50:Kick.wav
448,192,64072,1,0,0:0:0:0:
320,192,64072,1,0,0:0:0:50:Kick.wav
64,192,64158,1,0,0:0:0:0:
192,192,64158,1,0,0:0:0:50:Kick.wav
448,192,64244,1,0,0:0:0:0:
320,192,64244,1,0,0:0:0:50:Kick.wav
64,192,64330,1,0,0:0:0:0:
192,192,64330,1,0,0:0:0:50:Kick.wav
448,192,64415,1,0,0:0:0:0:
320,192,64415,1,0,0:0:0:50:Kick.wav
64,192,64501,1,0,0:0:0:0:
192,192,64501,1,0,0:0:0:50:Kick.wav
448,192,64587,1,0,0:0:0:20:Kick.wav
320,192,64630,1,0,0:0:0:20:Kick.wav
64,192,64672,1,0,0:0:0:20:Kick.wav
192,192,64715,1,0,0:0:0:20:Kick.wav
320,192,64758,1,0,0:0:0:20:Kick.wav
448,192,64801,1,0,0:0:0:20:Kick.wav
64,192,64844,1,0,0:0:0:20:Kick.wav
192,192,64887,1,0,0:0:0:20:Kick.wav
448,192,64930,1,0,0:0:0:20:Kick.wav
320,192,64972,1,0,0:0:0:20:Kick.wav
192,192,65015,1,0,0:0:0:20:Kick.wav
64,192,65058,1,0,0:0:0:20:Kick.wav
448,192,65101,1,0,0:0:0:20:Kick.wav
320,192,65144,1,0,0:0:0:20:Kick.wav
64,192,65187,1,0,0:0:0:20:Kick.wav
192,192,65230,1,0,0:0:0:20:Kick.wav
320,192,65272,1,0,0:0:0:20:Kick.wav
448,192,65272,1,0,0:0:0:0:
64,192,65315,1,0,0:0:0:20:Kick.wav
192,192,65358,1,0,0:0:0:20:Kick.wav
448,192,65401,1,0,0:0:0:20:Kick.wav
320,192,65444,1,0,0:0:0:20:Kick.wav
64,192,65444,1,0,0:0:0:0:
192,192,65487,1,0,0:0:0:20:Kick.wav
448,192,65530,1,0,0:0:0:20:Kick.wav
320,192,65572,1,0,0:0:0:20:Kick.wav
192,192,65615,1,0,0:0:0:20:Kick.wav
64,192,65615,1,0,0:0:0:0:
448,192,65658,1,0,0:0:0:20:Kick.wav
320,192,65701,1,0,0:0:0:20:Kick.wav
64,192,65744,1,0,0:0:0:20:Kick.wav
192,192,65787,1,0,0:0:0:20:Kick.wav
448,192,65787,1,0,0:0:0:0:
320,192,65830,1,0,0:0:0:20:Kick.wav
64,192,65872,1,0,0:0:0:20:Kick.wav
192,192,65915,1,0,0:0:0:20:Kick.wav
448,192,65958,1,0,0:0:0:80:Cymbal.wav
320,192,65958,1,0,0:0:0:65:Kick.wav
192,192,66130,1,0,0:0:0:0:
64,192,66301,1,0,0:0:0:0:
448,192,66472,1,0,0:0:0:0:
320,192,66644,1,0,0:0:0:0:
192,192,66815,1,0,0:0:0:0:
64,192,66987,1,0,0:0:0:0:
448,192,67158,1,0,0:0:0:0:
320,192,67330,1,0,0:0:0:0:
192,192,67501,1,0,0:0:0:0:
64,192,67672,1,0,0:0:0:0:
448,192,67844,1,0,0:0:0:0:
320,192,68015,1,0,0:0:0:0:
192,192,68187,1,0,0:0:0:0:
64,192,68358,1,0,0:0:0:0:
448,192,68530,1,0,0:0:0:0:
320,192,68701,1,0,0:0:0:0:
192,192,68872,1,0,0:0:0:0:
448,192,69044,1,0,0:0:0:0:
64,192,69215,1,0,0:0:0:0:
192,192,69387,1,0,0:0:0:0:
320,192,69558,1,0,0:0:0:0:
64,192,69730,1,0,0:0:0:0:
448,192,69901,1,0,0:0:0:0:
320,192,70072,1,0,0:0:0:0:
192,192,70244,1,0,0:0:0:0:
448,192,70415,1,0,0:0:0:0:
64,192,70587,1,0,0:0:0:0:
192,192,70758,1,0,0:0:0:0:
320,192,70930,1,0,0:0:0:0:
64,192,71101,1,0,0:0:0:0:
192,192,71272,1,0,0:0:0:0:
448,192,71444,1,0,0:0:0:0:
320,192,71615,1,0,0:0:0:0:
192,192,71787,1,0,0:0:0:0:
64,192,71958,1,0,0:0:0:0:
448,192,72130,1,0,0:0:0:0:
320,192,72301,1,0,0:0:0:0:
192,192,72472,1,0,0:0:0:0:
64,192,72644,1,0,0:0:0:0:
448,192,72815,1,0,0:0:0:0:
320,192,72987,1,0,0:0:0:0:
192,192,73158,1,0,0:0:0:0:
64,192,73330,1,0,0:0:0:0:
448,192,73501,1,0,0:0:0:0:
320,192,73672,1,0,0:0:0:0:
192,192,73844,1,0,0:0:0:0:
64,192,74015,1,0,0:0:0:0:
320,192,74187,1,0,0:0:0:0:
192,192,74358,1,0,0:0:0:0:
448,192,74530,1,0,0:0:0:0:
64,192,74701,1,0,0:0:0:0:
320,192,74872,1,0,0:0:0:0:
192,192,75044,1,0,0:0:0:0:
448,192,75215,1,0,0:0:0:0:
64,192,75387,1,0,0:0:0:0:
320,192,75558,1,0,0:0:0:0:
192,192,75730,1,0,0:0:0:0:
448,192,75901,1,0,0:0:0:0:
64,192,76072,1,0,0:0:0:0:
320,192,76244,1,0,0:0:0:0:
192,192,76415,1,0,0:0:0:0:
448,192,76587,1,0,0:0:0:0:
64,192,76758,1,0,0:0:0:0:
320,192,76930,1,0,0:0:0:0:
192,192,77101,1,0,0:0:0:0:
64,192,77272,1,0,0:0:0:0:
448,192,77444,1,0,0:0:0:0:
192,192,77615,1,0,0:0:0:0:
320,192,77787,1,0,0:0:0:0:
448,192,77958,1,0,0:0:0:0:
64,192,78130,1,0,0:0:0:0:
320,192,78301,1,0,0:0:0:0:
192,192,78472,1,0,0:0:0:0:
64,192,78644,1,0,0:0:0:0:
448,192,78815,1,0,0:0:0:0:
192,192,78987,1,0,0:0:0:0:
320,192,79158,1,0,0:0:0:0:
448,192,79330,1,0,0:0:0:0:
64,192,79501,1,0,0:0:0:0:
320,192,79672,1,0,0:0:0:0:
192,192,79844,1,0,0:0:0:0:
64,192,80015,1,0,0:0:0:0:
448,192,80187,1,0,0:0:0:0:
192,192,80358,1,0,0:0:0:0:
320,192,80530,1,0,0:0:0:0:
64,192,80701,1,0,0:0:0:0:
448,192,80872,1,0,0:0:0:0:
192,192,81044,1,0,0:0:0:0:
320,192,81215,1,0,0:0:0:0:
64,192,81387,1,0,0:0:0:0:
448,192,81558,1,0,0:0:0:0:
192,192,81730,1,0,0:0:0:0:
320,192,81901,1,0,0:0:0:0:
64,192,82072,1,0,0:0:0:0:
192,192,82244,1,0,0:0:0:0:
448,192,82415,1,0,0:0:0:0:
320,192,82587,1,0,0:0:0:0:
192,192,82758,1,0,0:0:0:0:
64,192,82930,1,0,0:0:0:0:
448,192,83101,1,0,0:0:0:0:
320,192,83272,1,0,0:0:0:0:
192,192,83444,1,0,0:0:0:0:
64,192,83615,1,0,0:0:0:0:
448,192,83787,1,0,0:0:0:0:
320,192,83958,1,0,0:0:0:0:
192,192,84130,1,0,0:0:0:0:
64,192,84301,1,0,0:0:0:0:
448,192,84472,1,0,0:0:0:0:
320,192,84644,1,0,0:0:0:0:
192,192,84815,1,0,0:0:0:0:
64,192,84987,1,0,0:0:0:0:
320,192,85158,1,0,0:0:0:0:
192,192,85330,1,0,0:0:0:0:
448,192,85501,1,0,0:0:0:0:
64,192,85672,1,0,0:0:0:0:
320,192,85844,1,0,0:0:0:0:
192,192,86015,1,0,0:0:0:0:
448,192,86187,1,0,0:0:0:0:
64,192,86358,1,0,0:0:0:0:
320,192,86530,1,0,0:0:0:0:
192,192,86701,1,0,0:0:0:0:
448,192,86872,1,0,0:0:0:0:
64,192,87044,1,0,0:0:0:0:
192,192,87215,1,0,0:0:0:0:
448,192,87215,1,0,0:0:0:50:Kick.wav
320,192,87387,1,0,0:0:0:50:Kick.wav
64,192,87387,1,0,0:0:0:0:
64,192,87558,1,0,0:0:0:0:
448,192,87558,1,0,0:0:0:50:Kick.wav
192,192,87730,1,0,0:0:0:0:
448,192,87730,1,0,0:0:0:50:Kick.wav
320,192,87901,1,0,0:0:0:80:Cymbal.wav
64,192,87901,1,0,0:0:0:0:
448,192,87901,1,0,0:0:0:65:Kick.wav
320,192,88072,1,0,0:0:0:0:
192,192,88072,1,0,0:0:0:0:
448,192,88244,1,0,0:0:0:50:Clap Hand.wav
64,192,88244,1,0,0:0:0:0:
192,192,88244,1,0,0:0:0:0:
64,192,88415,1,0,0:0:0:0:
320,192,88587,1,0,0:0:0:0:
192,192,88672,1,0,0:0:0:0:
448,192,88758,1,0,0:0:0:0:
320,192,88758,1,0,0:0:0:55:Kick.wav
192,192,88930,1,0,0:0:0:0:
64,192,88930,1,0,0:0:0:50:Clap Hand.wav
448,192,88930,1,0,0:0:0:0:
320,192,89101,1,0,0:0:0:0:
448,192,89187,1,0,0:0:0:0:
64,192,89272,1,0,0:0:0:0:
192,192,89358,1,0,0:0:0:0:
448,192,89444,1,0,0:0:0:0:
320,192,89444,1,0,0:0:0:55:Kick.wav
192,192,89615,1,0,0:0:0:0:
64,192,89615,1,0,0:0:0:50:Clap Hand.wav
320,192,89615,1,0,0:0:0:0:
448,192,89787,1,0,0:0:0:0:
320,192,89872,1,0,0:0:0:0:
64,192,89958,1,0,0:0:0:0:
192,192,90044,1,0,0:0:0:0:
320,192,90130,1,0,0:0:0:55:Kick.wav
448,192,90130,1,0,0:0:0:0:
192,192,90301,1,0,0:0:0:0:
64,192,90301,1,0,0:0:0:50:Clap Hand.wav
320,192,90301,1,0,0:0:0:0:
448,192,90472,1,0,0:0:0:0:
192,192,90558,1,0,0:0:0:0:
320,192,90644,1,0,0:0:0:55:Kick.wav
448,192,90644,1,0,0:0:0:0:
320,192,90815,1,0,0:0:0:0:
64,192,90815,1,0,0:0:0:0:
192,192,90987,1,0,0:0:0:50:Clap Hand.wav
448,192,90987,1,0,0:0:0:0:
64,192,90987,1,0,0:0:0:0:
320,192,91158,1,0,0:0:0:0:
192,192,91244,1,0,0:0:0:0:
320,192,91330,1,0,0:0:0:0:
448,192,91415,1,0,0:0:0:0:
64,192,91501,1,0,0:0:0:0:
192,192,91501,1,0,0:0:0:55:Kick.wav
320,192,91672,1,0,0:0:0:0:
448,192,91672,1,0,0:0:0:50:Clap Hand.wav
64,192,91672,1,0,0:0:0:0:
192,192,91844,1,0,0:0:0:0:
320,192,91930,1,0,0:0:0:0:
192,192,92015,1,0,0:0:0:0:
64,192,92101,1,0,0:0:0:0:
320,192,92187,1,0,0:0:0:55:Kick.wav
448,192,92187,1,0,0:0:0:0:
192,192,92358,1,0,0:0:0:0:
64,192,92358,1,0,0:0:0:50:Clap Hand.wav
448,192,92358,1,0,0:0:0:0:
320,192,92530,1,0,0:0:0:0:
448,192,92615,1,0,0:0:0:0:
64,192,92701,1,0,0:0:0:0:
192,192,92787,1,0,0:0:0:0:
448,192,92872,1,0,0:0:0:0:
320,192,92872,1,0,0:0:0:55:Kick.wav
64,192,93044,1,0,0:0:0:50:Clap Hand.wav
192,192,93044,1,0,0:0:0:0:
320,192,93044,1,0,0:0:0:0:
64,192,93215,1,0,0:0:0:50:Clap Hand.wav
448,192,93215,1,0,0:0:0:0:
320,192,93301,1,0,0:0:0:0:
192,192,93301,1,0,0:0:0:50:Clap Hand.wav
64,192,93387,1,0,0:0:0:55:Kick.wav
448,192,93387,1,0,0:0:0:80:Cymbal.wav
320,192,93558,1,0,0:0:0:0:
192,192,93558,1,0,0:0:0:0:
448,192,93730,1,0,0:0:0:50:Clap Hand.wav
192,192,93730,1,0,0:0:0:0:
64,192,93730,1,0,0:0:0:0:
320,192,93901,1,0,0:0:0:0:
448,192,93987,1,0,0:0:0:0:
192,192,94072,1,0,0:0:0:0:
64,192,94158,1,0,0:0:0:0:
320,192,94244,1,0,0:0:0:0:
448,192,94244,1,0,0:0:0:55:Kick.wav
448,192,94415,1,0,0:0:0:50:Clap Hand.wav
192,192,94415,1,0,0:0:0:0:
64,192,94415,1,0,0:0:0:0:
320,192,94587,1,0,0:0:0:0:
448,192,94672,1,0,0:0:0:0:
192,192,94758,1,0,0:0:0:0:
64,192,94844,1,0,0:0:0:0:
448,192,94930,1,0,0:0:0:0:
320,192,94930,1,0,0:0:0:55:Kick.wav
192,192,95101,1,0,0:0:0:0:
64,192,95101,1,0,0:0:0:50:Clap Hand.wav
448,192,95101,1,0,0:0:0:0:
320,192,95272,1,0,0:0:0:0:
448,192,95358,1,0,0:0:0:0:
192,192,95444,1,0,0:0:0:0:
64,192,95530,1,0,0:0:0:0:
448,192,95615,1,0,0:0:0:0:
320,192,95615,1,0,0:0:0:55:Kick.wav
64,192,95787,1,0,0:0:0:50:Clap Hand.wav
320,192,95787,1,0,0:0:0:0:
192,192,95787,1,0,0:0:0:0:
448,192,95958,1,0,0:0:0:0:
192,192,96044,1,0,0:0:0:0:
320,192,96130,1,0,0:0:0:55:Kick.wav
448,192,96130,1,0,0:0:0:0:
64,192,96301,1,0,0:0:0:0:
320,192,96301,1,0,0:0:0:55:Kick.wav
192,192,96472,1,0,0:0:0:0:
64,192,96472,1,0,0:0:0:50:Clap Hand.wav
448,192,96472,1,0,0:0:0:0:
320,192,96644,1,0,0:0:0:0:
448,192,96730,1,0,0:0:0:0:
64,192,96815,1,0,0:0:0:0:
192,192,96901,1,0,0:0:0:0:
320,192,96987,1,0,0:0:0:55:Kick.wav
448,192,96987,1,0,0:0:0:0:
192,192,97158,1,0,0:0:0:0:
448,192,97158,1,0,0:0:0:50:Clap Hand.wav
64,192,97158,1,0,0:0:0:0:
320,192,97330,1,0,0:0:0:0:
448,192,97415,1,0,0:0:0:0:
64,192,97501,1,0,0:0:0:0:
192,192,97587,1,0,0:0:0:0:
320,192,97672,1,0,0:0:0:55:Kick.wav
448,192,97672,1,0,0:0:0:0:
192,192,97844,1,0,0:0:0:0:
64,192,97844,1,0,0:0:0:50:Clap Hand.wav
448,192,97844,1,0,0:0:0:0:
64,192,98015,1,0,0:0:0:0:
192,192,98101,1,0,0:0:0:0:
448,192,98187,1,0,0:0:0:0:
320,192,98187,1,0,0:0:0:55:Kick.wav
448,192,98358,1,0,0:0:0:0:
64,192,98358,1,0,0:0:0:50:Clap Hand.wav
192,192,98358,1,0,0:0:0:0:
320,192,98530,1,0,0:0:0:50:Kick.wav
448,192,98530,1,0,0:0:0:0:
192,192,98615,1,0,0:0:0:50:Kick.wav
64,192,98615,1,0,0:0:0:0:
320,192,98701,1,0,0:0:0:50:Kick.wav
448,192,98701,1,0,0:0:0:0:
192,192,98787,1,0,0:0:0:50:Kick.wav
64,192,98787,1,0,0:0:0:0:
320,192,98872,1,0,0:0:0:60:Kick.wav
448,192,98872,1,0,0:0:0:80:Cymbal.wav
64,192,98872,1,0,0:0:0:0:
320,192,99044,1,0,0:0:0:0:
192,192,99044,1,0,0:0:0:0:
64,192,99215,1,0,0:0:0:0:
448,192,99215,1,0,0:0:0:50:Clap Hand.wav
192,192,99215,1,0,0:0:0:0:
64,192,99387,1,0,0:0:0:0:
192,192,99472,1,0,0:0:0:0:
320,192,99558,1,0,0:0:0:0:
192,192,99644,1,0,0:0:0:0:
320,192,99730,1,0,0:0:0:55:Kick.wav
448,192,99730,1,0,0:0:0:0:
192,192,99901,1,0,0:0:0:0:
64,192,99901,1,0,0:0:0:50:Clap Hand.wav
448,192,99901,1,0,0:0:0:0:
320,192,100072,1,0,0:0:0:0:
448,192,100158,1,0,0:0:0:0:
64,192,100244,1,0,0:0:0:0:
192,192,100330,1,0,0:0:0:0:
448,192,100415,1,0,0:0:0:0:
320,192,100415,1,0,0:0:0:55:Kick.wav
64,192,100587,1,0,0:0:0:50:Clap Hand.wav
192,192,100587,1,0,0:0:0:0:
448,192,100587,1,0,0:0:0:0:
64,192,100758,1,0,0:0:0:0:
192,192,100844,1,0,0:0:0:0:
320,192,100930,1,0,0:0:0:0:
192,192,101015,1,0,0:0:0:0:
448,192,101101,1,0,0:0:0:0:
320,192,101101,1,0,0:0:0:55:Kick.wav
64,192,101272,1,0,0:0:0:50:Clap Hand.wav
192,192,101272,1,0,0:0:0:0:
448,192,101272,1,0,0:0:0:0:
64,192,101444,1,0,0:0:0:0:
192,192,101530,1,0,0:0:0:0:
320,192,101615,1,0,0:0:0:55:Kick.wav
448,192,101615,1,0,0:0:0:0:
320,192,101787,1,0,0:0:0:55:Kick.wav
64,192,101787,1,0,0:0:0:0:
192,192,101958,1,0,0:0:0:0:
448,192,101958,1,0,0:0:0:50:Clap Hand.wav
64,192,101958,1,0,0:0:0:0:
320,192,102130,1,0,0:0:0:0:
192,192,102215,1,0,0:0:0:0:
320,192,102301,1,0,0:0:0:0:
448,192,102387,1,0,0:0:0:0:
192,192,102472,1,0,0:0:0:55:Kick.wav
64,192,102472,1,0,0:0:0:0:
320,192,102644,1,0,0:0:0:0:
448,192,102644,1,0,0:0:0:50:Clap Hand.wav
64,192,102644,1,0,0:0:0:0:
192,192,102815,1,0,0:0:0:0:
320,192,102901,1,0,0:0:0:0:
192,192,102987,1,0,0:0:0:0:
64,192,103072,1,0,0:0:0:0:
320,192,103158,1,0,0:0:0:55:Kick.wav
448,192,103158,1,0,0:0:0:0:
64,192,103330,1,0,0:0:0:50:Clap Hand.wav
192,192,103330,1,0,0:0:0:0:
448,192,103330,1,0,0:0:0:0:
320,192,103501,1,0,0:0:0:0:
448,192,103587,1,0,0:0:0:0:
64,192,103672,1,0,0:0:0:0:
192,192,103758,1,0,0:0:0:0:
320,192,103844,1,0,0:0:0:55:Kick.wav
448,192,103844,1,0,0:0:0:0:
64,192,104015,1,0,0:0:0:50:Clap Hand.wav
192,192,104015,1,0,0:0:0:0:
320,192,104015,1,0,0:0:0:0:
64,192,104187,1,0,0:0:0:50:Clap Hand.wav
448,192,104187,1,0,0:0:0:0:
320,192,104272,1,0,0:0:0:0:
192,192,104272,1,0,0:0:0:50:Clap Hand.wav
64,192,104358,1,0,0:0:0:80:Cymbal.wav
448,192,104358,1,0,0:0:0:55:Kick.wav
320,192,104530,1,0,0:0:0:0:
192,192,104530,1,0,0:0:0:0:
448,192,104701,1,0,0:0:0:50:Clap Hand.wav
192,192,104701,1,0,0:0:0:0:
64,192,104701,1,0,0:0:0:0:
320,192,104872,1,0,0:0:0:0:
192,192,104958,1,0,0:0:0:0:
64,192,105044,1,0,0:0:0:0:
192,192,105130,1,0,0:0:0:0:
320,192,105215,1,0,0:0:0:55:Kick.wav
448,192,105215,1,0,0:0:0:0:
192,192,105387,1,0,0:0:0:0:
64,192,105387,1,0,0:0:0:50:Clap Hand.wav
448,192,105387,1,0,0:0:0:0:
320,192,105558,1,0,0:0:0:0:
448,192,105644,1,0,0:0:0:0:
192,192,105730,1,0,0:0:0:0:
64,192,105815,1,0,0:0:0:0:
320,192,105901,1,0,0:0:0:55:Kick.wav
448,192,105901,1,0,0:0:0:0:
192,192,106072,1,0,0:0:0:0:
448,192,106072,1,0,0:0:0:50:Clap Hand.wav
64,192,106072,1,0,0:0:0:0:
320,192,106244,1,0,0:0:0:0:
448,192,106330,1,0,0:0:0:0:
192,192,106415,1,0,0:0:0:0:
64,192,106501,1,0,0:0:0:0:
320,192,106587,1,0,0:0:0:55:Kick.wav
448,192,106587,1,0,0:0:0:0:
192,192,106758,1,0,0:0:0:0:
64,192,106758,1,0,0:0:0:50:Clap Hand.wav
320,192,106758,1,0,0:0:0:0:
192,192,106930,1,0,0:0:0:0:
448,192,107101,1,0,0:0:0:0:
320,192,107101,1,0,0:0:0:55:Kick.wav
320,192,107272,1,0,0:0:0:55:Kick.wav
64,192,107272,1,0,0:0:0:0:
64,192,107444,1,0,0:0:0:50:Clap Hand.wav
448,192,107444,1,0,0:0:0:0:
192,192,107444,1,0,0:0:0:0:
320,192,107615,1,0,0:0:0:0:
64,192,107701,1,0,0:0:0:0:
448,192,107787,1,0,0:0:0:0:
320,192,107787,1,0,0:0:0:55:Kick.wav
192,192,107872,1,0,0:0:0:0:
64,192,107958,1,0,0:0:0:50:Clap Hand.wav
448,192,107958,1,0,0:0:0:0:
320,192,108044,1,0,0:0:0:0:
64,192,108130,1,0,0:0:0:50:Clap Hand.wav
192,192,108130,1,0,0:0:0:0:
320,192,108301,1,0,0:0:0:50:Kick.wav
448,192,108301,1,0,0:0:0:0:
192,192,108387,1,0,0:0:0:50:Kick.wav
64,192,108387,1,0,0:0:0:0:
320,192,108472,1,0,0:0:0:60:Kick.wav
448,192,108472,128,0,109844:0:0:0:80:Cymbal.wav
192,192,108644,1,0,0:0:0:0:
64,192,108815,1,0,0:0:0:0:
320,192,108987,1,0,0:0:0:0:
192,192,109158,1,0,0:0:0:0:
320,192,109330,1,0,0:0:0:0:
64,192,109501,1,0,0:0:0:0:
192,192,109672,1,0,0:0:0:0:
320,192,109844,5,0,0:0:0:80:Cymbal.wav
64,192,109844,1,0,0:0:0:60:Kick.wav
64,192,110101,1,0,0:0:0:0:
448,192,110358,1,0,0:0:0:0:
320,192,110615,1,0,0:0:0:0:
64,192,110872,1,0,0:0:0:0:
192,192,111044,1,0,0:0:0:0:
448,192,111215,1,0,0:0:0:0:
448,192,111472,1,0,0:0:0:0:
64,192,111730,1,0,0:0:0:0:
192,192,111987,1,0,0:0:0:0:
448,192,112244,1,0,0:0:0:0:
320,192,112415,1,0,0:0:0:0:
64,192,112587,1,0,0:0:0:0:
64,192,112844,1,0,0:0:0:0:
448,192,113101,1,0,0:0:0:0:
320,192,113358,1,0,0:0:0:0:
64,192,113615,1,0,0:0:0:0:
192,192,113787,1,0,0:0:0:0:
448,192,113958,1,0,0:0:0:0:
448,192,114215,1,0,0:0:0:0:
64,192,114472,1,0,0:0:0:0:
192,192,114730,1,0,0:0:0:0:
448,192,114987,1,0,0:0:0:0:
64,192,115158,1,0,0:0:0:0:
320,192,115330,1,0,0:0:0:0:
320,192,115587,1,0,0:0:0:0:
192,192,115844,1,0,0:0:0:0:
192,192,116101,1,0,0:0:0:0:
320,192,116358,1,0,0:0:0:0:
64,192,116530,1,0,0:0:0:0:
448,192,116701,1,0,0:0:0:0:
448,192,116958,1,0,0:0:0:0:
64,192,117215,1,0,0:0:0:0:
64,192,117472,1,0,0:0:0:0:
448,192,117730,1,0,0:0:0:0:
64,192,117901,1,0,0:0:0:0:
320,192,118072,1,0,0:0:0:0:
320,192,118330,1,0,0:0:0:0:
192,192,118587,1,0,0:0:0:0:
192,192,118844,1,0,0:0:0:0:
320,192,119101,1,0,0:0:0:0:
64,192,119272,1,0,0:0:0:0:
448,192,119444,1,0,0:0:0:0:
448,192,119701,1,0,0:0:0:0:
64,192,119958,1,0,0:0:0:0:
64,192,120215,1,0,0:0:0:0:
448,192,120472,1,0,0:0:0:0:
320,192,120644,1,0,0:0:0:0:
192,192,120815,1,0,0:0:0:60:Clap.wav
64,192,120815,1,0,0:0:0:55:Kick.wav
448,192,120815,1,0,0:0:0:80:Cymbal.wav
448,192,121072,1,0,0:0:0:0:
192,192,121158,1,0,0:0:0:60:Clap.wav
64,192,121158,1,0,0:0:0:55:Kick.wav
448,192,121330,1,0,0:0:0:0:
192,192,121501,1,0,0:0:0:60:Clap.wav
64,192,121501,1,0,0:0:0:55:Kick.wav
320,192,121587,1,0,0:0:0:0:
448,192,121672,1,0,0:0:0:0:
192,192,121844,1,0,0:0:0:60:Clap.wav
64,192,121844,1,0,0:0:0:55:Kick.wav
320,192,122015,1,0,0:0:0:0:
448,192,122187,1,0,0:0:0:60:Clap.wav
64,192,122187,1,0,0:0:0:55:Kick.wav
64,192,122444,1,0,0:0:0:0:
320,192,122530,1,0,0:0:0:60:Clap.wav
448,192,122530,1,0,0:0:0:55:Kick.wav
64,192,122701,1,0,0:0:0:0:
320,192,122872,1,0,0:0:0:60:Clap.wav
448,192,122872,1,0,0:0:0:55:Kick.wav
192,192,122958,1,0,0:0:0:0:
64,192,123044,1,0,0:0:0:0:
320,192,123215,1,0,0:0:0:60:Clap.wav
448,192,123215,1,0,0:0:0:55:Kick.wav
192,192,123387,1,0,0:0:0:0:
320,192,123387,1,0,0:0:0:55:Kick.wav
448,192,123558,1,0,0:0:0:60:Clap.wav
64,192,123558,1,0,0:0:0:80:Cymbal.wav
192,192,123558,1,0,0:0:0:55:Kick.wav
448,192,123815,1,0,0:0:0:0:
192,192,123901,1,0,0:0:0:55:Kick.wav
64,192,123901,1,0,0:0:0:60:Clap.wav
448,192,124072,1,0,0:0:0:0:
192,192,124244,1,0,0:0:0:55:Kick.wav
64,192,124244,1,0,0:0:0:60:Clap.wav
320,192,124330,1,0,0:0:0:0:
448,192,124415,1,0,0:0:0:0:
192,192,124587,1,0,0:0:0:55:Kick.wav
64,192,124587,1,0,0:0:0:60:Clap.wav
320,192,124758,1,0,0:0:0:0:
448,192,124930,1,0,0:0:0:55:Kick.wav
64,192,124930,1,0,0:0:0:60:Clap.wav
64,192,125187,1,0,0:0:0:0:
320,192,125272,1,0,0:0:0:60:Clap.wav
448,192,125272,1,0,0:0:0:55:Kick.wav
64,192,125444,1,0,0:0:0:0:
320,192,125615,1,0,0:0:0:60:Clap.wav
448,192,125615,1,0,0:0:0:55:Kick.wav
64,192,125701,1,0,0:0:0:0:
192,192,125787,1,0,0:0:0:0:
320,192,125787,1,0,0:0:0:60:Kick.wav
64,192,125958,1,0,0:0:0:60:Clap.wav
448,192,125958,1,0,0:0:0:55:Kick.wav
320,192,126130,1,0,0:0:0:55:Kick.wav
192,192,126130,1,0,0:0:0:0:
64,192,126301,1,0,0:0:0:80:Cymbal.wav
448,192,126301,1,0,0:0:0:55:Kick.wav
320,192,126301,1,0,0:0:0:0:
192,192,126472,1,0,0:0:0:60:Clap.wav
448,192,126472,1,0,0:0:0:0:
64,192,126558,1,0,0:0:0:0:
320,192,126644,1,0,0:0:0:0:
448,192,126644,1,0,0:0:0:55:Kick.wav
64,192,126815,1,0,0:0:0:0:
192,192,126815,1,0,0:0:0:60:Clap.wav
448,192,126987,1,0,0:0:0:55:Kick.wav
320,192,126987,1,0,0:0:0:0:
64,192,127072,1,0,0:0:0:0:
448,192,127158,1,0,0:0:0:0:
192,192,127158,1,0,0:0:0:60:Clap.wav
320,192,127330,1,0,0:0:0:0:
64,192,127330,1,0,0:0:0:55:Kick.wav
64,192,127501,1,0,0:0:0:60:Clap.wav
448,192,127501,1,0,0:0:0:0:
192,192,127672,1,0,0:0:0:80:Cymbal.wav
320,192,127672,1,0,0:0:0:0:
448,192,127672,1,0,0:0:0:55:Kick.wav
64,192,127844,1,0,0:0:0:0:
320,192,127844,1,0,0:0:0:60:Clap.wav
448,192,127930,1,0,0:0:0:0:
64,192,128015,1,0,0:0:0:55:Kick.wav
192,192,128015,1,0,0:0:0:0:
448,192,128187,1,0,0:0:0:0:
320,192,128187,1,0,0:0:0:60:Clap.wav
64,192,128358,1,0,0:0:0:55:Kick.wav
192,192,128358,1,0,0:0:0:0:
448,192,128444,1,0,0:0:0:0:
64,192,128530,1,0,0:0:0:0:
320,192,128530,1,0,0:0:0:60:Clap.wav
448,192,128701,1,0,0:0:0:55:Kick.wav
192,192,128701,1,0,0:0:0:0:
64,192,128872,1,0,0:0:0:60:Clap.wav
320,192,128872,1,0,0:0:0:55:Kick.wav
64,192,129044,1,0,0:0:0:80:Cymbal.wav
192,192,129044,1,0,0:0:0:0:
448,192,129044,1,0,0:0:0:55:Kick.wav
320,192,129130,1,0,0:0:0:0:
448,192,129215,1,0,0:0:0:55:Kick.wav
192,192,129215,1,0,0:0:0:60:Clap.wav
320,192,129301,1,0,0:0:0:0:
64,192,129387,1,0,0:0:0:0:
448,192,129387,1,0,0:0:0:55:Kick.wav
192,192,129472,1,0,0:0:0:0:
320,192,129558,1,0,0:0:0:55:Kick.wav
64,192,129558,1,0,0:0:0:60:Clap.wav
192,192,129644,1,0,0:0:0:0:
320,192,129730,1,0,0:0:0:50:Kick.wav
448,192,129730,1,0,0:0:0:80:Cymbal.wav
192,192,129815,1,0,0:0:0:50:Kick.wav
64,192,129815,1,0,0:0:0:0:
320,192,129901,1,0,0:0:0:50:Kick.wav
448,192,129901,1,0,0:0:0:0:
192,192,129987,1,0,0:0:0:50:Kick.wav
64,192,129987,1,0,0:0:0:0:
320,192,130072,1,0,0:0:0:50:Kick.wav
448,192,130072,1,0,0:0:0:0:
192,192,130158,1,0,0:0:0:50:Kick.wav
64,192,130158,1,0,0:0:0:0:
320,192,130244,1,0,0:0:0:50:Kick.wav
448,192,130244,1,0,0:0:0:0:
192,192,130330,1,0,0:0:0:50:Kick.wav
64,192,130330,1,0,0:0:0:0:
448,192,130415,1,0,0:0:0:20:Kick.wav
320,192,130458,1,0,0:0:0:20:Kick.wav
64,192,130501,1,0,0:0:0:20:Kick.wav
192,192,130544,1,0,0:0:0:20:Kick.wav
448,192,130587,1,0,0:0:0:20:Kick.wav
320,192,130630,1,0,0:0:0:20:Kick.wav
64,192,130672,1,0,0:0:0:20:Kick.wav
192,192,130715,1,0,0:0:0:20:Kick.wav
448,192,130758,1,0,0:0:0:20:Kick.wav
320,192,130801,1,0,0:0:0:20:Kick.wav
64,192,130844,1,0,0:0:0:20:Kick.wav
192,192,130887,1,0,0:0:0:20:Kick.wav
448,192,130930,1,0,0:0:0:20:Kick.wav
320,192,130972,1,0,0:0:0:20:Kick.wav
64,192,131015,1,0,0:0:0:20:Kick.wav
192,192,131058,1,0,0:0:0:20:Kick.wav
448,192,131101,1,0,0:0:0:0:
320,192,131101,1,0,0:0:0:20:Kick.wav
64,192,131144,1,0,0:0:0:20:Kick.wav
192,192,131187,1,0,0:0:0:20:Kick.wav
448,192,131230,1,0,0:0:0:20:Kick.wav
320,192,131272,1,0,0:0:0:20:Kick.wav
64,192,131272,1,0,0:0:0:0:
192,192,131315,1,0,0:0:0:20:Kick.wav
448,192,131358,1,0,0:0:0:20:Kick.wav
320,192,131401,1,0,0:0:0:20:Kick.wav
192,192,131444,1,0,0:0:0:20:Kick.wav
64,192,131444,1,0,0:0:0:0:
448,192,131487,1,0,0:0:0:20:Kick.wav
320,192,131530,1,0,0:0:0:20:Kick.wav
64,192,131572,1,0,0:0:0:20:Kick.wav
448,192,131615,1,0,0:0:0:0:
192,192,131615,1,0,0:0:0:20:Kick.wav
320,192,131658,1,0,0:0:0:20:Kick.wav
64,192,131701,1,0,0:0:0:20:Kick.wav
192,192,131744,1,0,0:0:0:20:Kick.wav
448,192,131787,1,0,0:0:0:80:Cymbal.wav
320,192,131787,1,0,0:0:0:65:Kick.wav
64,192,131958,1,0,0:0:0:80:Hat.wav
320,192,132044,1,0,0:0:0:0:
448,192,132044,1,0,0:0:0:0:
192,192,132130,1,0,0:0:0:60:Kick.wav
320,192,132301,1,0,0:0:0:80:Hat.wav
64,192,132301,1,0,0:0:0:0:
448,192,132472,1,0,0:0:0:60:Kick.wav
64,192,132558,1,0,0:0:0:0:
192,192,132558,1,0,0:0:0:0:
320,192,132644,1,0,0:0:0:80:Hat.wav
64,192,132730,1,0,0:0:0:0:
448,192,132815,1,0,0:0:0:60:Kick.wav
192,192,132815,1,0,0:0:0:0:
64,192,132987,1,0,0:0:0:0:
320,192,132987,1,0,0:0:0:80:Hat.wav
64,192,133158,1,0,0:0:0:0:
448,192,133158,1,0,0:0:0:60:Kick.wav
192,192,133330,1,0,0:0:0:80:Hat.wav
448,192,133415,1,0,0:0:0:0:
320,192,133415,1,0,0:0:0:0:
64,192,133501,1,0,0:0:0:60:Kick.wav
192,192,133672,1,0,0:0:0:80:Hat.wav
320,192,133672,1,0,0:0:0:0:
448,192,133844,1,0,0:0:0:60:Kick.wav
192,192,133930,1,0,0:0:0:0:
64,192,133930,1,0,0:0:0:0:
320,192,134015,1,0,0:0:0:80:Hat.wav
64,192,134101,1,0,0:0:0:0:
192,192,134187,1,0,0:0:0:0:
448,192,134187,1,0,0:0:0:60:Kick.wav
320,192,134358,1,0,0:0:0:80:Hat.wav
64,192,134358,1,0,0:0:0:0:
320,192,134530,1,0,0:0:0:0:
448,192,134530,1,0,0:0:0:60:Kick.wav
64,192,134701,1,0,0:0:0:80:Hat.wav
320,192,134787,1,0,0:0:0:0:
448,192,134787,1,0,0:0:0:0:
192,192,134872,1,0,0:0:0:60:Kick.wav
448,192,135044,1,0,0:0:0:0:
64,192,135044,1,0,0:0:0:80:Hat.wav
320,192,135215,1,0,0:0:0:60:Kick.wav
192,192,135301,1,0,0:0:0:0:
448,192,135301,1,0,0:0:0:0:
64,192,135387,1,0,0:0:0:80:Hat.wav
320,192,135472,1,0,0:0:0:0:
64,192,135558,1,0,0:0:0:0:
192,192,135558,1,0,0:0:0:60:Kick.wav
320,192,135730,1,0,0:0:0:80:Hat.wav
448,192,135730,1,0,0:0:0:0:
192,192,135901,1,0,0:0:0:60:Kick.wav
64,192,135901,1,0,0:0:0:0:
448,192,136072,1,0,0:0:0:80:Hat.wav
64,192,136158,1,0,0:0:0:0:
192,192,136158,1,0,0:0:0:0:
320,192,136244,1,0,0:0:0:60:Kick.wav
192,192,136415,1,0,0:0:0:0:
448,192,136415,1,0,0:0:0:80:Hat.wav
64,192,136587,1,0,0:0:0:60:Kick.wav
192,192,136672,1,0,0:0:0:0:
320,192,136672,1,0,0:0:0:0:
448,192,136758,1,0,0:0:0:80:Hat.wav
192,192,136844,1,0,0:0:0:0:
320,192,136930,1,0,0:0:0:0:
448,192,136930,1,0,0:0:0:60:Kick.wav
320,192,137101,1,0,0:0:0:80:Hat.wav
64,192,137101,1,0,0:0:0:0:
192,192,137272,1,0,0:0:0:0:
448,192,137272,1,0,0:0:0:60:Kick.wav
64,192,137444,1,0,0:0:0:80:Hat.wav
448,192,137530,1,0,0:0:0:0:
320,192,137530,1,0,0:0:0:0:
192,192,137615,1,0,0:0:0:60:Kick.wav
64,192,137787,1,0,0:0:0:0:
320,192,137787,1,0,0:0:0:80:Hat.wav
448,192,137958,1,0,0:0:0:60:Kick.wav
192,192,138044,1,0,0:0:0:0:
64,192,138044,1,0,0:0:0:0:
320,192,138130,1,0,0:0:0:80:Hat.wav
64,192,138215,1,0,0:0:0:0:
192,192,138301,1,0,0:0:0:0:
448,192,138301,1,0,0:0:0:60:Kick.wav
320,192,138472,1,0,0:0:0:80:Hat.wav
64,192,138472,1,0,0:0:0:0:
320,192,138644,1,0,0:0:0:0:
448,192,138644,1,0,0:0:0:60:Kick.wav
192,192,138815,1,0,0:0:0:80:Hat.wav
64,192,138901,1,0,0:0:0:0:
448,192,138901,1,0,0:0:0:0:
320,192,138987,1,0,0:0:0:60:Kick.wav
448,192,139158,1,0,0:0:0:0:
192,192,139158,1,0,0:0:0:80:Hat.wav
320,192,139330,1,0,0:0:0:60:Kick.wav
64,192,139415,1,0,0:0:0:0:
448,192,139415,1,0,0:0:0:0:
192,192,139501,1,0,0:0:0:80:Hat.wav
320,192,139587,1,0,0:0:0:0:
192,192,139672,1,0,0:0:0:0:
64,192,139672,1,0,0:0:0:60:Kick.wav
448,192,139844,1,0,0:0:0:0:
320,192,139844,1,0,0:0:0:80:Hat.wav
192,192,140015,1,0,0:0:0:0:
64,192,140015,1,0,0:0:0:60:Kick.wav
448,192,140187,1,0,0:0:0:80:Hat.wav
192,192,140272,1,0,0:0:0:0:
64,192,140272,1,0,0:0:0:0:
320,192,140358,1,0,0:0:0:60:Kick.wav
192,192,140530,1,0,0:0:0:0:
448,192,140530,1,0,0:0:0:80:Hat.wav
64,192,140701,1,0,0:0:0:60:Kick.wav
320,192,140787,1,0,0:0:0:0:
448,192,140787,1,0,0:0:0:0:
192,192,140872,1,0,0:0:0:80:Hat.wav
64,192,140958,1,0,0:0:0:0:
320,192,141044,1,0,0:0:0:0:
448,192,141044,1,0,0:0:0:60:Kick.wav
192,192,141215,1,0,0:0:0:80:Hat.wav
64,192,141215,1,0,0:0:0:0:
320,192,141387,1,0,0:0:0:0:
448,192,141387,1,0,0:0:0:60:Kick.wav
192,192,141558,1,0,0:0:0:80:Hat.wav
64,192,141644,1,0,0:0:0:0:
448,192,141644,1,0,0:0:0:0:
320,192,141730,1,0,0:0:0:60:Kick.wav
192,192,141901,1,0,0:0:0:80:Hat.wav
448,192,141901,1,0,0:0:0:0:
320,192,142158,1,0,0:0:0:50:Kick.wav
448,192,142158,1,0,0:0:0:0:
192,192,142244,1,0,0:0:0:50:Kick.wav
64,192,142244,1,0,0:0:0:0:
320,192,142330,1,0,0:0:0:50:Kick.wav
448,192,142330,1,0,0:0:0:0:
192,192,142415,1,0,0:0:0:50:Kick.wav
64,192,142415,1,0,0:0:0:0:
64,192,142587,1,0,0:0:0:0:
448,192,142587,1,0,0:0:0:0:
192,192,142672,1,0,0:0:0:0:
448,192,142758,1,0,0:0:0:80:Cymbal.wav
64,192,142758,1,0,0:0:0:0:
320,192,142758,1,0,0:0:0:60:Kick.wav
192,192,142930,1,0,0:0:0:80:Hat.wav
448,192,143015,1,0,0:0:0:0:
64,192,143015,1,0,0:0:0:0:
320,192,143101,1,0,0:0:0:60:Kick.wav
448,192,143272,1,0,0:0:0:0:
192,192,143272,1,0,0:0:0:80:Hat.wav
64,192,143444,1,0,0:0:0:60:Kick.wav
320,192,143530,1,0,0:0:0:0:
448,192,143530,1,0,0:0:0:0:
192,192,143615,1,0,0:0:0:80:Hat.wav
448,192,143701,1,0,0:0:0:0:
320,192,143787,1,0,0:0:0:0:
64,192,143787,1,0,0:0:0:60:Kick.wav
192,192,143958,1,0,0:0:0:80:Hat.wav
448,192,143958,1,0,0:0:0:0:
64,192,144130,1,0,0:0:0:60:Kick.wav
448,192,144130,1,0,0:0:0:0:
320,192,144301,1,0,0:0:0:80:Hat.wav
64,192,144387,1,0,0:0:0:0:
192,192,144387,1,0,0:0:0:0:
448,192,144472,1,0,0:0:0:60:Kick.wav
320,192,144644,1,0,0:0:0:80:Hat.wav
192,192,144644,1,0,0:0:0:0:
64,192,144815,1,0,0:0:0:60:Kick.wav
320,192,144901,1,0,0:0:0:0:
448,192,144901,1,0,0:0:0:0:
192,192,144987,1,0,0:0:0:80:Hat.wav
64,192,145072,1,0,0:0:0:0:
320,192,145158,1,0,0:0:0:0:
448,192,145158,1,0,0:0:0:60:Kick.wav
448,192,145330,1,0,0:0:0:80:Hat.wav
64,192,145330,1,0,0:0:0:0:
64,192,145501,1,0,0:0:0:60:Kick.wav
320,192,145501,1,0,0:0:0:0:
192,192,145672,1,0,0:0:0:80:Hat.wav
448,192,145758,1,0,0:0:0:0:
320,192,145758,1,0,0:0:0:0:
64,192,145844,1,0,0:0:0:60:Kick.wav
192,192,146015,1,0,0:0:0:80:Hat.wav
320,192,146015,1,0,0:0:0:0:
448,192,146187,1,0,0:0:0:60:Kick.wav
64,192,146272,1,0,0:0:0:0:
192,192,146272,1,0,0:0:0:0:
320,192,146358,1,0,0:0:0:80:Hat.wav
64,192,146444,1,0,0:0:0:0:
192,192,146530,1,0,0:0:0:0:
448,192,146530,1,0,0:0:0:65:Kick.wav
64,192,146701,1,0,0:0:0:80:Hat.wav
448,192,146701,1,0,0:0:0:0:
320,192,146872,1,0,0:0:0:0:
64,192,146872,1,0,0:0:0:60:Kick.wav
192,192,147044,1,0,0:0:0:80:Hat.wav
320,192,147130,1,0,0:0:0:0:
448,192,147130,1,0,0:0:0:0:
64,192,147215,1,0,0:0:0:60:Kick.wav
192,192,147387,1,0,0:0:0:80:Hat.wav
448,192,147387,1,0,0:0:0:0:
320,192,147558,1,0,0:0:0:60:Kick.wav
64,192,147644,1,0,0:0:0:0:
448,192,147644,1,0,0:0:0:0:
192,192,147730,1,0,0:0:0:80:Hat.wav
320,192,147815,1,0,0:0:0:0:
192,192,147901,1,0,0:0:0:0:
64,192,147901,1,0,0:0:0:60:Kick.wav
192,192,148072,1,0,0:0:0:0:
320,192,148072,1,0,0:0:0:80:Hat.wav
320,192,148244,1,0,0:0:0:0:
448,192,148244,1,0,0:0:0:60:Kick.wav
64,192,148415,1,0,0:0:0:80:Hat.wav
448,192,148501,1,0,0:0:0:0:
192,192,148501,1,0,0:0:0:0:
320,192,148587,1,0,0:0:0:60:Kick.wav
64,192,148758,1,0,0:0:0:80:Hat.wav
448,192,148758,1,0,0:0:0:0:
192,192,148930,1,0,0:0:0:60:Kick.wav
64,192,149015,1,0,0:0:0:0:
448,192,149015,1,0,0:0:0:0:
320,192,149101,1,0,0:0:0:80:Hat.wav
192,192,149187,1,0,0:0:0:0:
320,192,149272,1,0,0:0:0:0:
448,192,149272,1,0,0:0:0:60:Kick.wav
192,192,149444,1,0,0:0:0:0:
320,192,149444,1,0,0:0:0:80:Hat.wav
192,192,149615,1,0,0:0:0:0:
64,192,149615,1,0,0:0:0:60:Kick.wav
448,192,149787,1,0,0:0:0:80:Hat.wav
64,192,149872,1,0,0:0:0:0:
320,192,149872,1,0,0:0:0:0:
192,192,149958,1,0,0:0:0:60:Kick.wav
64,192,150130,1,0,0:0:0:0:
448,192,150130,1,0,0:0:0:80:Hat.wav
320,192,150301,1,0,0:0:0:60:Kick.wav
448,192,150387,1,0,0:0:0:0:
192,192,150387,1,0,0:0:0:0:
64,192,150472,1,0,0:0:0:80:Hat.wav
320,192,150558,1,0,0:0:0:0:
192,192,150644,1,0,0:0:0:0:
64,192,150644,1,0,0:0:0:60:Kick.wav
448,192,150815,1,0,0:0:0:0:
320,192,150815,1,0,0:0:0:80:Hat.wav
64,192,150987,1,0,0:0:0:60:Kick.wav
192,192,150987,1,0,0:0:0:0:
320,192,151158,1,0,0:0:0:80:Hat.wav
64,192,151244,1,0,0:0:0:0:
448,192,151244,1,0,0:0:0:0:
192,192,151330,1,0,0:0:0:60:Kick.wav
320,192,151501,1,0,0:0:0:80:Hat.wav
64,192,151501,1,0,0:0:0:0:
448,192,151672,1,0,0:0:0:60:Kick.wav
192,192,151672,1,0,0:0:0:0:
320,192,151758,1,0,0:0:0:0:
64,192,151844,1,0,0:0:0:80:Hat.wav
448,192,151844,1,0,0:0:0:60:Kick.wav
192,192,151930,1,0,0:0:0:0:
320,192,152015,1,0,0:0:0:60:Kick.wav
64,192,152015,1,0,0:0:0:0:
192,192,152101,1,0,0:0:0:0:
320,192,152187,1,0,0:0:0:60:Kick.wav
448,192,152187,1,0,0:0:0:80:Hat.wav
64,192,152272,1,0,0:0:0:0:
192,192,152358,1,0,0:0:0:0:
320,192,152358,1,0,0:0:0:60:Kick.wav
448,192,152358,1,0,0:0:0:80:Cymbal.wav
192,192,152615,1,0,0:0:0:0:
320,192,152615,1,0,0:0:0:60:Kick.wav
448,192,152615,1,0,0:0:0:80:Cymbal.wav
192,192,152872,1,0,0:0:0:80:Cymbal.wav
320,192,152872,1,0,0:0:0:60:Kick.wav
64,192,152872,1,0,0:0:0:0:
64,192,153130,1,0,0:0:0:0:
320,192,153130,1,0,0:0:0:60:Kick.wav
192,192,153130,1,0,0:0:0:80:Cymbal.wav
64,192,153387,1,0,0:0:0:60:Kick.wav
192,192,153387,1,0,0:0:0:0:
448,192,153387,1,0,0:0:0:80:Cymbal.wav
320,192,153558,1,0,0:0:0:0:
64,192,153558,1,0,0:0:0:60:Kick.wav
448,192,153558,1,0,0:0:0:80:Cymbal.wav
448,192,153730,1,0,0:0:0:80:Cymbal.wav
64,192,153730,1,0,0:0:0:60:Kick.wav
192,192,153730,1,0,0:0:0:0:
320,192,153901,1,0,0:0:0:80:Hat.wav
64,192,153987,1,0,0:0:0:0:
192,192,153987,1,0,0:0:0:0:
448,192,154072,1,0,0:0:0:65:Clap.wav
320,192,154072,1,0,0:0:0:60:Kick.wav
448,192,154244,1,0,0:0:0:0:
64,192,154244,1,0,0:0:0:80:Hat.wav
320,192,154415,1,0,0:0:0:60:Kick.wav
192,192,154415,1,0,0:0:0:0:
64,192,154501,1,0,0:0:0:0:
448,192,154501,1,0,0:0:0:0:
320,192,154587,1,0,0:0:0:80:Hat.wav
192,192,154672,1,0,0:0:0:0:
320,192,154758,1,0,0:0:0:60:Kick.wav
448,192,154758,1,0,0:0:0:65:Clap.wav
192,192,154930,1,0,0:0:0:80:Hat.wav
64,192,154930,1,0,0:0:0:0:
448,192,155101,1,0,0:0:0:60:Kick.wav
64,192,155101,1,0,0:0:0:0:
320,192,155272,1,0,0:0:0:80:Hat.wav
192,192,155358,1,0,0:0:0:0:
64,192,155358,1,0,0:0:0:0:
320,192,155444,1,0,0:0:0:60:Kick.wav
448,192,155444,1,0,0:0:0:65:Clap.wav
448,192,155615,1,0,0:0:0:0:
64,192,155615,1,0,0:0:0:80:Hat.wav
320,192,155787,1,0,0:0:0:60:Kick.wav
192,192,155787,1,0,0:0:0:0:
64,192,155872,1,0,0:0:0:0:
448,192,155872,1,0,0:0:0:0:
192,192,155958,1,0,0:0:0:80:Hat.wav
320,192,156044,1,0,0:0:0:0:
192,192,156130,1,0,0:0:0:60:Kick.wav
64,192,156130,1,0,0:0:0:65:Clap.wav
320,192,156301,1,0,0:0:0:80:Hat.wav
448,192,156301,1,0,0:0:0:0:
192,192,156472,1,0,0:0:0:60:Kick.wav
64,192,156472,1,0,0:0:0:0:
448,192,156644,1,0,0:0:0:80:Hat.wav
320,192,156730,1,0,0:0:0:0:
192,192,156730,1,0,0:0:0:0:
448,192,156815,1,0,0:0:0:60:Kick.wav
64,192,156815,1,0,0:0:0:65:Clap.wav
64,192,156987,1,0,0:0:0:0:
320,192,156987,1,0,0:0:0:80:Hat.wav
448,192,157158,1,0,0:0:0:60:Kick.wav
320,192,157158,1,0,0:0:0:0:
192,192,157244,1,0,0:0:0:0:
64,192,157244,1,0,0:0:0:0:
448,192,157330,1,0,0:0:0:80:Hat.wav
320,192,157415,1,0,0:0:0:0:
448,192,157501,1,0,0:0:0:65:Clap.wav
192,192,157501,1,0,0:0:0:60:Kick.wav
64,192,157672,1,0,0:0:0:0:
320,192,157672,1,0,0:0:0:80:Hat.wav
192,192,157844,1,0,0:0:0:60:Kick.wav
448,192,157844,1,0,0:0:0:0:
64,192,158015,1,0,0:0:0:80:Hat.wav
192,192,158101,1,0,0:0:0:0:
320,192,158101,1,0,0:0:0:0:
64,192,158187,1,0,0:0:0:60:Kick.wav
448,192,158187,1,0,0:0:0:65:Clap.wav
448,192,158358,1,0,0:0:0:0:
192,192,158358,1,0,0:0:0:80:Hat.wav
192,192,158530,1,0,0:0:0:0:
64,192,158530,1,0,0:0:0:60:Kick.wav
320,192,158615,1,0,0:0:0:0:
448,192,158615,1,0,0:0:0:0:
64,192,158701,1,0,0:0:0:80:Hat.wav
192,192,158787,1,0,0:0:0:0:
64,192,158872,1,0,0:0:0:60:Kick.wav
320,192,158872,1,0,0:0:0:65:Clap.wav
320,192,159044,1,0,0:0:0:80:Hat.wav
448,192,159044,1,0,0:0:0:0:
64,192,159215,1,0,0:0:0:60:Kick.wav
192,192,159215,1,0,0:0:0:0:
448,192,159387,1,0,0:0:0:80:Hat.wav
64,192,159472,1,0,0:0:0:0:
192,192,159472,1,0,0:0:0:0:
448,192,159558,1,0,0:0:0:65:Clap.wav
320,192,159558,1,0,0:0:0:60:Kick.wav
320,192,159730,1,0,0:0:0:80:Hat.wav
64,192,159730,1,0,0:0:0:0:
448,192,159901,1,0,0:0:0:60:Kick.wav
192,192,159901,1,0,0:0:0:0:
64,192,159987,1,0,0:0:0:0:
320,192,159987,1,0,0:0:0:0:
448,192,160072,1,0,0:0:0:80:Hat.wav
192,192,160158,1,0,0:0:0:0:
320,192,160244,1,0,0:0:0:60:Kick.wav
448,192,160244,1,0,0:0:0:65:Clap.wav
320,192,160415,1,0,0:0:0:80:Hat.wav
64,192,160415,1,0,0:0:0:0:
448,192,160587,1,0,0:0:0:60:Kick.wav
192,192,160587,1,0,0:0:0:0:
64,192,160758,1,0,0:0:0:80:Hat.wav
320,192,160844,1,0,0:0:0:0:
448,192,160844,1,0,0:0:0:0:
192,192,160930,1,0,0:0:0:60:Kick.wav
64,192,160930,1,0,0:0:0:65:Clap.wav
192,192,161101,1,0,0:0:0:80:Hat.wav
448,192,161101,1,0,0:0:0:0:
64,192,161272,1,0,0:0:0:60:Kick.wav
320,192,161272,1,0,0:0:0:0:
448,192,161358,1,0,0:0:0:0:
192,192,161358,1,0,0:0:0:0:
64,192,161444,1,0,0:0:0:80:Hat.wav
320,192,161530,1,0,0:0:0:0:
192,192,161615,1,0,0:0:0:60:Kick.wav
64,192,161615,1,0,0:0:0:65:Clap.wav
448,192,161787,1,0,0:0:0:0:
320,192,161787,1,0,0:0:0:80:Hat.wav
192,192,161958,1,0,0:0:0:60:Kick.wav
64,192,161958,1,0,0:0:0:0:
320,192,162130,1,0,0:0:0:80:Hat.wav
192,192,162215,1,0,0:0:0:0:
64,192,162215,1,0,0:0:0:0:
448,192,162301,1,0,0:0:0:65:Clap.wav
320,192,162301,1,0,0:0:0:60:Kick.wav
64,192,162472,1,0,0:0:0:80:Hat.wav
448,192,162472,1,0,0:0:0:0:
192,192,162644,1,0,0:0:0:0:
320,192,162644,1,0,0:0:0:60:Kick.wav
448,192,162730,1,0,0:0:0:0:
64,192,162730,1,0,0:0:0:0:
320,192,162815,1,0,0:0:0:80:Hat.wav
192,192,162901,1,0,0:0:0:0:
448,192,162987,1,0,0:0:0:65:Clap.wav
64,192,162987,1,0,0:0:0:60:Kick.wav
320,192,163158,1,0,0:0:0:80:Hat.wav
448,192,163158,1,0,0:0:0:0:
64,192,163330,1,0,0:0:0:60:Kick.wav
192,192,163330,1,0,0:0:0:0:
448,192,163501,1,0,0:0:0:80:Hat.wav
320,192,163587,1,0,0:0:0:0:
64,192,163587,1,0,0:0:0:0:
192,192,163672,1,0,0:0:0:60:Kick.wav
448,192,163672,1,0,0:0:0:65:Clap.wav
64,192,163758,1,0,0:0:0:0:
320,192,163844,1,0,0:0:0:80:Hat.wav
192,192,164015,1,0,0:0:0:60:Kick.wav
448,192,164015,1,0,0:0:0:0:
64,192,164015,1,0,0:0:0:80:Cymbal.wav
320,192,164101,1,0,0:0:0:0:
192,192,164358,1,0,0:0:0:0:
448,192,164530,1,0,0:0:0:60:Kick.wav
64,192,164530,1,0,0:0:0:0:
192,192,164615,1,0,0:0:0:0:
320,192,164615,1,0,0:0:0:60:Kick.wav
448,192,164701,1,0,0:0:0:60:Kick.wav
64,192,164701,1,0,0:0:0:80:Cymbal.wav
320,192,164872,1,0,0:0:0:80:Hat.wav
64,192,164958,1,0,0:0:0:0:
192,192,164958,1,0,0:0:0:0:
320,192,165044,1,0,0:0:0:60:Kick.wav
448,192,165044,1,0,0:0:0:65:Clap.wav
64,192,165215,1,0,0:0:0:80:Hat.wav
192,192,165301,1,0,0:0:0:0:
320,192,165387,1,0,0:0:0:60:Kick.wav
448,192,165387,1,0,0:0:0:65:Clap.wav
64,192,165472,1,0,0:0:0:0:
192,192,165558,1,0,0:0:0:80:Hat.wav
320,192,165730,1,0,0:0:0:60:Kick.wav
448,192,165730,1,0,0:0:0:65:Clap.wav
192,192,165901,1,0,0:0:0:80:Hat.wav
64,192,165901,1,0,0:0:0:0:
320,192,166072,1,0,0:0:0:60:Kick.wav
448,192,166072,1,0,0:0:0:65:Clap.wav
64,192,166244,1,0,0:0:0:80:Hat.wav
448,192,166330,1,0,0:0:0:0:
320,192,166330,1,0,0:0:0:0:
192,192,166415,1,0,0:0:0:60:Kick.wav
64,192,166415,1,0,0:0:0:65:Clap.wav
448,192,166587,1,0,0:0:0:80:Hat.wav
320,192,166672,1,0,0:0:0:0:
64,192,166758,1,0,0:0:0:65:Clap.wav
192,192,166758,1,0,0:0:0:60:Kick.wav
448,192,166844,1,0,0:0:0:0:
320,192,166930,1,0,0:0:0:80:Hat.wav
192,192,167101,1,0,0:0:0:60:Kick.wav
64,192,167101,1,0,0:0:0:65:Clap.wav
448,192,167272,1,0,0:0:0:0:
320,192,167272,1,0,0:0:0:80:Hat.wav
64,192,167444,1,0,0:0:0:65:Clap.wav
192,192,167444,1,0,0:0:0:60:Kick.wav
448,192,167615,1,0,0:0:0:80:Hat.wav
192,192,167701,1,0,0:0:0:0:
64,192,167701,1,0,0:0:0:0:
320,192,167787,1,0,0:0:0:60:Kick.wav
448,192,167787,1,0,0:0:0:65:Clap.wav
64,192,167958,1,0,0:0:0:80:Hat.wav
192,192,168044,1,0,0:0:0:0:
320,192,168130,1,0,0:0:0:60:Kick.wav
448,192,168130,1,0,0:0:0:65:Clap.wav
64,192,168215,1,0,0:0:0:0:
192,192,168301,1,0,0:0:0:80:Hat.wav
320,192,168472,1,0,0:0:0:60:Kick.wav
448,192,168472,1,0,0:0:0:65:Clap.wav
192,192,168644,1,0,0:0:0:80:Hat.wav
64,192,168644,1,0,0:0:0:0:
320,192,168815,1,0,0:0:0:60:Kick.wav
448,192,168815,1,0,0:0:0:65:Clap.wav
64,192,168987,1,0,0:0:0:80:Hat.wav
320,192,169072,1,0,0:0:0:0:
448,192,169072,1,0,0:0:0:0:
192,192,169158,1,0,0:0:0:60:Kick.wav
64,192,169158,1,0,0:0:0:65:Clap.wav
448,192,169330,1,0,0:0:0:80:Hat.wav
320,192,169415,1,0,0:0:0:0:
192,192,169501,1,0,0:0:0:60:Kick.wav
64,192,169501,1,0,0:0:0:65:Clap.wav
448,192,169587,1,0,0:0:0:0:
320,192,169672,1,0,0:0:0:80:Hat.wav
192,192,169844,1,0,0:0:0:60:Kick.wav
448,192,169844,1,0,0:0:0:65:Clap.wav
64,192,170015,1,0,0:0:0:0:
320,192,170015,1,0,0:0:0:80:Hat.wav
448,192,170187,1,0,0:0:0:65:Clap.wav
192,192,170187,1,0,0:0:0:60:Kick.wav
64,192,170187,1,0,0:0:0:80:Cymbal.wav
192,192,170358,1,0,0:0:0:80:Hat.wav
320,192,170358,1,0,0:0:0:60:Kick.wav
64,192,170444,1,0,0:0:0:0:
320,192,170530,1,0,0:0:0:65:Clap.wav
448,192,170530,1,0,0:0:0:60:Kick.wav
192,192,170701,1,0,0:0:0:60:Kick.wav
448,192,170701,1,0,0:0:0:80:Hat.wav
64,192,170872,1,0,0:0:0:0:
320,192,170872,1,0,0:0:0:60:Kick.wav
448,192,170958,1,0,0:0:0:0:
64,192,171044,1,0,0:0:0:80:Hat.wav
192,192,171044,1,0,0:0:0:60:Kick.wav
448,192,171215,1,0,0:0:0:60:Kick.wav
192,192,171215,1,0,0:0:0:65:Clap.wav
320,192,171387,1,0,0:0:0:60:Kick.wav
64,192,171387,1,0,0:0:0:80:Hat.wav
448,192,171558,1,0,0:0:0:0:
192,192,171558,1,0,0:0:0:60:Kick.wav
448,192,171730,1,0,0:0:0:80:Hat.wav
320,192,171730,1,0,0:0:0:60:Kick.wav
64,192,171815,1,0,0:0:0:0:
320,192,171901,1,0,0:0:0:65:Clap.wav
192,192,171901,1,0,0:0:0:60:Kick.wav
448,192,172072,1,0,0:0:0:80:Hat.wav
64,192,172072,1,0,0:0:0:60:Kick.wav
192,192,172244,1,0,0:0:0:60:Kick.wav
320,192,172244,1,0,0:0:0:0:
64,192,172330,1,0,0:0:0:0:
448,192,172415,1,0,0:0:0:80:Hat.wav
320,192,172415,1,0,0:0:0:60:Kick.wav
448,192,172587,1,0,0:0:0:60:Kick.wav
192,192,172587,1,0,0:0:0:65:Clap.wav
64,192,172758,1,0,0:0:0:80:Hat.wav
320,192,172758,1,0,0:0:0:60:Kick.wav
320,192,172930,1,0,0:0:0:50:Kick.wav
448,192,172930,1,0,0:0:0:0:
192,192,173015,1,0,0:0:0:50:Kick.wav
64,192,173015,1,0,0:0:0:0:
320,192,173101,1,0,0:0:0:50:Kick.wav
448,192,173101,1,0,0:0:0:0:
192,192,173187,1,0,0:0:0:50:Kick.wav
64,192,173187,1,0,0:0:0:0:
320,192,173272,1,0,0:0:0:50:Kick.wav
448,192,173272,1,0,0:0:0:0:
192,192,173358,1,0,0:0:0:50:Kick.wav
64,192,173358,1,0,0:0:0:0:
320,192,173444,1,0,0:0:0:50:Kick.wav
448,192,173444,1,0,0:0:0:0:
192,192,173530,1,0,0:0:0:50:Kick.wav
64,192,173530,1,0,0:0:0:0:
320,192,173615,1,0,0:0:0:50:Kick.wav
448,192,173615,1,0,0:0:0:0:
192,192,173701,1,0,0:0:0:50:Kick.wav
64,192,173701,1,0,0:0:0:0:
320,192,173787,1,0,0:0:0:50:Kick.wav
448,192,173787,1,0,0:0:0:0:
192,192,173872,1,0,0:0:0:50:Kick.wav
64,192,173872,1,0,0:0:0:0:
320,192,173958,1,0,0:0:0:50:Kick.wav
448,192,173958,1,0,0:0:0:0:
192,192,174044,1,0,0:0:0:50:Kick.wav
64,192,174044,1,0,0:0:0:0:
320,192,174130,1,0,0:0:0:50:Kick.wav
448,192,174130,1,0,0:0:0:0:
192,192,174215,1,0,0:0:0:50:Kick.wav
64,192,174215,1,0,0:0:0:0:
448,192,174301,128,0,174472:0:0:0:0:
320,192,174387,128,0,174472:0:0:0:0:
64,192,174472,128,0,174644:0:0:0:0:
192,192,174558,128,0,174644:0:0:0:0:
320,192,174644,1,0,0:0:0:0:
448,192,174644,1,0,0:0:0:0:
320,192,174730,1,0,0:0:0:0:
448,192,174730,1,0,0:0:0:0:
64,192,174815,1,0,0:0:0:0:
192,192,174815,1,0,0:0:0:0:
192,192,174901,1,0,0:0:0:0:
64,192,174901,1,0,0:0:0:0:
448,192,174987,1,0,0:0:0:20:Kick.wav
320,192,175030,1,0,0:0:0:20:Kick.wav
64,192,175072,1,0,0:0:0:20:Kick.wav
192,192,175115,1,0,0:0:0:20:Kick.wav
448,192,175158,1,0,0:0:0:20:Kick.wav
320,192,175201,1,0,0:0:0:20:Kick.wav
64,192,175244,1,0,0:0:0:20:Kick.wav
192,192,175287,1,0,0:0:0:20:Kick.wav
320,192,175330,128,0,175672:0:0:0:45:Clap Hand.wav
448,192,175330,128,0,175672:0:0:0:0:
64,192,175672,1,0,0:0:0:80:Cymbal.wav
192,192,175672,1,0,0:0:0:60:Kick.wav
320,192,175844,1,0,0:0:0:80:Hat.wav
64,192,175930,1,0,0:0:0:0:
448,192,175930,1,0,0:0:0:0:
192,192,176015,1,0,0:0:0:60:Kick.wav
320,192,176101,1,0,0:0:0:0:
448,192,176101,1,0,0:0:0:0:
64,192,176187,1,0,0:0:0:80:Hat.wav
192,192,176358,1,0,0:0:0:60:Kick.wav
320,192,176358,1,0,0:0:0:0:
448,192,176444,1,0,0:0:0:0:
64,192,176444,1,0,0:0:0:0:
320,192,176530,1,0,0:0:0:80:Hat.wav
192,192,176615,1,0,0:0:0:0:
448,192,176615,1,0,0:0:0:0:
64,192,176701,1,0,0:0:0:60:Kick.wav
320,192,176787,1,0,0:0:0:0:
192,192,176787,1,0,0:0:0:0:
448,192,176872,1,0,0:0:0:80:Hat.wav
320,192,176958,1,0,0:0:0:0:
192,192,177044,1,0,0:0:0:0:
64,192,177044,1,0,0:0:0:60:Kick.wav
448,192,177215,1,0,0:0:0:80:Hat.wav
192,192,177301,1,0,0:0:0:0:
320,192,177301,1,0,0:0:0:0:
64,192,177387,1,0,0:0:0:60:Kick.wav
320,192,177472,1,0,0:0:0:0:
448,192,177472,1,0,0:0:0:0:
192,192,177558,1,0,0:0:0:80:Hat.wav
64,192,177730,1,0,0:0:0:60:Kick.wav
448,192,177730,1,0,0:0:0:0:
192,192,177815,1,0,0:0:0:0:
320,192,177901,1,0,0:0:0:80:Hat.wav
64,192,177901,1,0,0:0:0:0:
448,192,177987,1,0,0:0:0:0:
192,192,178072,1,0,0:0:0:0:
320,192,178072,1,0,0:0:0:60:Kick.wav
64,192,178158,1,0,0:0:0:0:
448,192,178244,1,0,0:0:0:80:Hat.wav
192,192,178244,1,0,0:0:0:0:
320,192,178330,1,0,0:0:0:0:
448,192,178415,1,0,0:0:0:0:
64,192,178415,1,0,0:0:0:60:Kick.wav
192,192,178587,1,0,0:0:0:0:
320,192,178587,1,0,0:0:0:80:Hat.wav
64,192,178672,1,0,0:0:0:0:
448,192,178758,1,0,0:0:0:60:Kick.wav
320,192,178844,1,0,0:0:0:0:
192,192,178844,1,0,0:0:0:0:
64,192,178930,1,0,0:0:0:80:Hat.wav
448,192,179101,1,0,0:0:0:0:
320,192,179101,1,0,0:0:0:60:Kick.wav
192,192,179187,1,0,0:0:0:0:
448,192,179272,1,0,0:0:0:80:Hat.wav
320,192,179358,1,0,0:0:0:0:
64,192,179358,1,0,0:0:0:0:
192,192,179444,1,0,0:0:0:60:Kick.wav
320,192,179530,1,0,0:0:0:0:
448,192,179530,1,0,0:0:0:0:
64,192,179615,1,0,0:0:0:80:Hat.wav
192,192,179701,1,0,0:0:0:0:
320,192,179787,1,0,0:0:0:0:
64,192,179787,1,0,0:0:0:60:Kick.wav
448,192,179958,1,0,0:0:0:80:Hat.wav
192,192,180044,1,0,0:0:0:0:
64,192,180044,1,0,0:0:0:0:
320,192,180130,1,0,0:0:0:60:Kick.wav
448,192,180215,1,0,0:0:0:0:
64,192,180215,1,0,0:0:0:0:
192,192,180301,1,0,0:0:0:80:Hat.wav
320,192,180472,1,0,0:0:0:0:
448,192,180472,1,0,0:0:0:60:Kick.wav
64,192,180558,1,0,0:0:0:0:
192,192,180558,1,0,0:0:0:0:
320,192,180644,1,0,0:0:0:80:Hat.wav
448,192,180644,1,0,0:0:0:0:
64,192,180730,1,0,0:0:0:0:
192,192,180815,1,0,0:0:0:0:
320,192,180815,1,0,0:0:0:60:Kick.wav
64,192,180987,1,0,0:0:0:60:Kick.wav
448,192,180987,1,0,0:0:0:80:Hat.wav
192,192,181072,1,0,0:0:0:0:
64,192,181158,1,0,0:0:0:0:
320,192,181158,1,0,0:0:0:60:Kick.wav
448,192,181330,1,0,0:0:0:80:Hat.wav
192,192,181415,1,0,0:0:0:0:
64,192,181415,1,0,0:0:0:0:
320,192,181501,1,0,0:0:0:60:Kick.wav
192,192,181587,1,0,0:0:0:0:
448,192,181587,1,0,0:0:0:0:
320,192,181672,1,0,0:0:0:80:Hat.wav
64,192,181844,1,0,0:0:0:0:
448,192,181844,1,0,0:0:0:60:Kick.wav
192,192,181930,1,0,0:0:0:0:
320,192,182015,1,0,0:0:0:80:Hat.wav
64,192,182101,1,0,0:0:0:0:
192,192,182101,1,0,0:0:0:0:
448,192,182187,1,0,0:0:0:60:Kick.wav
320,192,182272,1,0,0:0:0:0:
64,192,182272,1,0,0:0:0:0:
192,192,182358,1,0,0:0:0:80:Hat.wav
448,192,182530,1,0,0:0:0:60:Kick.wav
320,192,182530,1,0,0:0:0:0:
64,192,182701,1,0,0:0:0:80:Hat.wav
192,192,182787,1,0,0:0:0:0:
448,192,182787,1,0,0:0:0:0:
320,192,182872,1,0,0:0:0:60:Kick.wav
448,192,182958,1,0,0:0:0:0:
64,192,182958,1,0,0:0:0:0:
192,192,183044,1,0,0:0:0:80:Hat.wav
320,192,183215,1,0,0:0:0:0:
448,192,183215,1,0,0:0:0:60:Kick.wav
192,192,183301,1,0,0:0:0:0:
64,192,183387,1,0,0:0:0:0:
320,192,183387,1,0,0:0:0:80:Hat.wav
192,192,183472,1,0,0:0:0:0:
64,192,183558,1,0,0:0:0:60:Kick.wav
448,192,183558,1,0,0:0:0:0:
320,192,183644,1,0,0:0:0:0:
448,192,183730,1,0,0:0:0:80:Hat.wav
192,192,183730,1,0,0:0:0:0:
320,192,183815,1,0,0:0:0:0:
64,192,183901,1,0,0:0:0:60:Kick.wav
192,192,183901,1,0,0:0:0:0:
448,192,184072,1,0,0:0:0:80:Hat.wav
192,192,184158,1,0,0:0:0:0:
320,192,184158,1,0,0:0:0:0:
64,192,184244,1,0,0:0:0:60:Kick.wav
448,192,184330,1,0,0:0:0:0:
320,192,184330,1,0,0:0:0:0:
192,192,184415,1,0,0:0:0:80:Hat.wav
64,192,184587,1,0,0:0:0:60:Kick.wav
448,192,184587,1,0,0:0:0:0:
320,192,184672,1,0,0:0:0:0:
192,192,184758,1,0,0:0:0:80:Hat.wav
448,192,184844,1,0,0:0:0:0:
64,192,184844,1,0,0:0:0:0:
320,192,184930,1,0,0:0:0:60:Kick.wav
64,192,185015,1,0,0:0:0:0:
192,192,185015,1,0,0:0:0:0:
448,192,185101,1,0,0:0:0:80:Hat.wav
64,192,185272,1,0,0:0:0:0:
320,192,185272,1,0,0:0:0:60:Kick.wav
192,192,185444,1,0,0:0:0:80:Hat.wav
448,192,185530,1,0,0:0:0:0:
64,192,185530,1,0,0:0:0:0:
320,192,185615,1,0,0:0:0:60:Kick.wav
448,192,185701,1,0,0:0:0:0:
192,192,185701,1,0,0:0:0:0:
320,192,185787,1,0,0:0:0:80:Hat.wav
64,192,185958,1,0,0:0:0:60:Kick.wav
192,192,185958,1,0,0:0:0:0:
448,192,186044,1,0,0:0:0:0:
320,192,186044,1,0,0:0:0:50:Kick.wav
64,192,186130,1,0,0:0:0:60:Kick.wav
192,192,186130,1,0,0:0:0:80:Hat.wav
448,192,186301,1,0,0:0:0:0:
64,192,186301,1,0,0:0:0:50:Kick.wav
192,192,186387,1,0,0:0:0:50:Kick.wav
320,192,186387,1,0,0:0:0:0:
448,192,186472,1,0,0:0:0:80:Hat.wav
64,192,186472,1,0,0:0:0:50:Kick.wav
192,192,186558,1,0,0:0:0:50:Kick.wav
320,192,186558,1,0,0:0:0:0:
448,192,186644,1,0,0:0:0:80:Cymbal.wav
64,192,186644,1,0,0:0:0:60:Kick.wav
320,192,186815,1,0,0:0:0:80:Hat.wav
448,192,186901,1,0,0:0:0:0:
64,192,186901,1,0,0:0:0:0:
192,192,186987,1,0,0:0:0:60:Kick.wav
320,192,187072,1,0,0:0:0:0:
448,192,187072,1,0,0:0:0:0:
64,192,187158,1,0,0:0:0:80:Hat.wav
320,192,187244,1,0,0:0:0:0:
192,192,187330,1,0,0:0:0:60:Kick.wav
64,192,187330,1,0,0:0:0:0:
448,192,187501,1,0,0:0:0:80:Hat.wav
320,192,187587,1,0,0:0:0:0:
192,192,187587,1,0,0:0:0:0:
64,192,187672,1,0,0:0:0:60:Kick.wav
448,192,187758,1,0,0:0:0:0:
320,192,187758,1,0,0:0:0:0:
192,192,187844,1,0,0:0:0:80:Hat.wav
448,192,188015,1,0,0:0:0:60:Kick.wav
64,192,188015,1,0,0:0:0:0:
192,192,188187,1,0,0:0:0:80:Hat.wav
64,192,188272,1,0,0:0:0:0:
320,192,188272,1,0,0:0:0:0:
192,192,188358,1,0,0:0:0:60:Kick.wav
448,192,188444,1,0,0:0:0:0:
320,192,188444,1,0,0:0:0:0:
64,192,188530,1,0,0:0:0:80:Hat.wav
192,192,188701,1,0,0:0:0:60:Kick.wav
320,192,188701,1,0,0:0:0:0:
448,192,188787,1,0,0:0:0:0:
64,192,188872,1,0,0:0:0:0:
320,192,188872,1,0,0:0:0:80:Hat.wav
192,192,188958,1,0,0:0:0:0:
320,192,189044,1,0,0:0:0:0:
448,192,189044,1,0,0:0:0:60:Kick.wav
64,192,189130,1,0,0:0:0:0:
192,192,189215,1,0,0:0:0:80:Hat.wav
448,192,189215,1,0,0:0:0:0:
320,192,189301,1,0,0:0:0:0:
192,192,189387,1,0,0:0:0:0:
64,192,189387,1,0,0:0:0:60:Kick.wav
320,192,189558,1,0,0:0:0:80:Hat.wav
64,192,189644,1,0,0:0:0:0:
448,192,189644,1,0,0:0:0:0:
192,192,189730,1,0,0:0:0:60:Kick.wav
448,192,189815,1,0,0:0:0:0:
320,192,189815,1,0,0:0:0:0:
64,192,189901,1,0,0:0:0:80:Hat.wav
320,192,189987,1,0,0:0:0:0:
192,192,190072,1,0,0:0:0:0:
64,192,190072,1,0,0:0:0:60:Kick.wav
320,192,190244,1,0,0:0:0:80:Hat.wav
64,192,190330,1,0,0:0:0:0:
448,192,190330,1,0,0:0:0:0:
192,192,190415,1,0,0:0:0:60:Kick.wav
320,192,190501,1,0,0:0:0:0:
448,192,190501,1,0,0:0:0:0:
64,192,190587,1,0,0:0:0:80:Hat.wav
192,192,190672,1,0,0:0:0:0:
64,192,190758,1,0,0:0:0:60:Kick.wav
320,192,190758,1,0,0:0:0:0:
192,192,190930,1,0,0:0:0:80:Hat.wav
448,192,191015,1,0,0:0:0:0:
64,192,191015,1,0,0:0:0:0:
320,192,191101,1,0,0:0:0:60:Kick.wav
192,192,191187,1,0,0:0:0:0:
448,192,191187,1,0,0:0:0:0:
320,192,191272,1,0,0:0:0:80:Hat.wav
448,192,191444,1,0,0:0:0:60:Kick.wav
64,192,191444,1,0,0:0:0:0:
192,192,191530,1,0,0:0:0:0:
320,192,191615,1,0,0:0:0:80:Hat.wav
192,192,191701,1,0,0:0:0:0:
64,192,191787,1,0,0:0:0:0:
448,192,191787,1,0,0:0:0:60:Kick.wav
320,192,191872,1,0,0:0:0:0:
448,192,191958,1,0,0:0:0:80:Hat.wav
192,192,191958,1,0,0:0:0:0:
320,192,192044,1,0,0:0:0:0:
192,192,192130,1,0,0:0:0:0:
64,192,192130,1,0,0:0:0:60:Kick.wav
448,192,192301,1,0,0:0:0:80:Hat.wav
320,192,192301,1,0,0:0:0:50:Clap.wav
192,192,192387,1,0,0:0:0:0:
448,192,192472,1,0,0:0:0:50:Clap.wav
64,192,192472,1,0,0:0:0:60:Kick.wav
320,192,192558,1,0,0:0:0:0:
64,192,192644,1,0,0:0:0:50:Clap.wav
192,192,192644,1,0,0:0:0:80:Hat.wav
320,192,192815,1,0,0:0:0:50:Clap.wav
448,192,192815,1,0,0:0:0:60:Kick.wav
64,192,192987,1,0,0:0:0:50:Clap.wav
192,192,192987,1,0,0:0:0:80:Hat.wav
320,192,193072,1,0,0:0:0:0:
448,192,193158,1,0,0:0:0:60:Kick.wav
64,192,193158,1,0,0:0:0:50:Clap.wav
192,192,193244,1,0,0:0:0:0:
320,192,193330,1,0,0:0:0:80:Hat.wav
64,192,193330,1,0,0:0:0:50:Clap.wav
192,192,193415,1,0,0:0:0:0:
448,192,193501,1,0,0:0:0:60:Kick.wav
320,192,193501,1,0,0:0:0:50:Clap.wav
192,192,193672,1,0,0:0:0:80:Hat.wav
64,192,193672,1,0,0:0:0:50:Clap.wav
320,192,193758,1,0,0:0:0:0:
448,192,193844,5,0,0:0:0:60:Kick.wav
64,192,193844,1,0,0:0:0:50:Clap.wav
192,192,193930,1,0,0:0:0:0:
320,192,194015,1,0,0:0:0:80:Hat.wav
448,192,194015,1,0,0:0:0:50:Clap.wav
320,192,194187,1,0,0:0:0:50:Clap.wav
64,192,194187,1,0,0:0:0:60:Kick.wav
192,192,194272,1,0,0:0:0:0:
64,192,194358,1,0,0:0:0:50:Clap.wav
448,192,194358,1,0,0:0:0:80:Hat.wav
320,192,194444,1,0,0:0:0:0:
192,192,194530,1,0,0:0:0:60:Kick.wav
448,192,194530,1,0,0:0:0:50:Clap.wav
320,192,194701,1,0,0:0:0:80:Hat.wav
64,192,194701,1,0,0:0:0:50:Clap.wav
192,192,194787,1,0,0:0:0:0:
448,192,194872,1,0,0:0:0:65:Clap.wav
64,192,194872,1,0,0:0:0:60:Kick.wav
320,192,194958,1,0,0:0:0:0:
448,192,195044,1,0,0:0:0:65:Clap.wav
192,192,195044,1,0,0:0:0:60:Kick.wav
320,192,195130,1,0,0:0:0:0:
192,192,195215,1,0,0:0:0:65:Clap.wav
64,192,195215,1,0,0:0:0:60:Kick.wav
448,192,195301,1,0,0:0:0:0:
320,192,195387,1,0,0:0:0:65:Clap.wav
64,192,195387,1,0,0:0:0:60:Kick.wav
192,192,195472,1,0,0:0:0:0:
448,192,195558,1,0,0:0:0:0:
320,192,195558,1,0,0:0:0:50:Kick.wav
64,192,195644,1,0,0:0:0:0:
192,192,195644,1,0,0:0:0:50:Kick.wav
448,192,195730,1,0,0:0:0:0:
320,192,195730,1,0,0:0:0:50:Kick.wav
64,192,195815,1,0,0:0:0:0:
192,192,195815,1,0,0:0:0:50:Kick.wav
448,192,195901,1,0,0:0:0:0:
320,192,195901,1,0,0:0:0:50:Kick.wav
64,192,195987,1,0,0:0:0:0:
192,192,195987,1,0,0:0:0:50:Kick.wav
448,192,196072,1,0,0:0:0:0:
320,192,196072,1,0,0:0:0:50:Kick.wav
64,192,196158,1,0,0:0:0:0:
192,192,196158,1,0,0:0:0:50:Kick.wav
448,192,196244,1,0,0:0:0:20:Kick.wav
320,192,196287,1,0,0:0:0:20:Kick.wav
64,192,196330,1,0,0:0:0:20:Kick.wav
192,192,196372,1,0,0:0:0:20:Kick.wav
448,192,196415,1,0,0:0:0:20:Kick.wav
320,192,196458,1,0,0:0:0:20:Kick.wav
64,192,196501,1,0,0:0:0:20:Kick.wav
192,192,196544,1,0,0:0:0:20:Kick.wav
448,192,196587,1,0,0:0:0:20:Kick.wav
320,192,196630,1,0,0:0:0:20:Kick.wav
64,192,196672,1,0,0:0:0:20:Kick.wav
192,192,196715,1,0,0:0:0:20:Kick.wav
448,192,196758,1,0,0:0:0:20:Kick.wav
320,192,196801,1,0,0:0:0:20:Kick.wav
64,192,196844,1,0,0:0:0:20:Kick.wav
192,192,196887,1,0,0:0:0:20:Kick.wav
320,192,196930,1,0,0:0:0:0:
448,192,196930,1,0,0:0:0:0:
64,192,196972,1,0,0:0:0:0:
192,192,197015,1,0,0:0:0:0:
448,192,197015,1,0,0:0:0:0:
320,192,197058,1,0,0:0:0:0:
64,192,197101,1,0,0:0:0:0:
192,192,197101,1,0,0:0:0:0:
448,192,197144,1,0,0:0:0:0:
320,192,197187,1,0,0:0:0:0:
64,192,197187,1,0,0:0:0:0:
192,192,197230,1,0,0:0:0:0:
320,192,197272,1,0,0:0:0:0:
448,192,197272,1,0,0:0:0:0:
64,192,197315,1,0,0:0:0:0:
192,192,197358,1,0,0:0:0:0:
448,192,197358,1,0,0:0:0:0:
320,192,197401,1,0,0:0:0:0:
192,192,197444,1,0,0:0:0:0:
64,192,197444,1,0,0:0:0:0:
448,192,197487,1,0,0:0:0:0:
64,192,197530,1,0,0:0:0:0:
320,192,197530,1,0,0:0:0:0:
192,192,197572,1,0,0:0:0:0:
448,192,197615,1,0,0:0:0:80:Cymbal.wav
320,192,197615,1,0,0:0:0:65:Kick.wav
64,192,197958,1,0,0:0:0:0:
448,192,198301,1,0,0:0:0:0:
192,192,198472,1,0,0:0:0:0:
320,192,198644,1,0,0:0:0:0:
64,192,198815,1,0,0:0:0:0:
320,192,199158,1,0,0:0:0:0:
192,192,199501,1,0,0:0:0:0:
448,192,199672,1,0,0:0:0:0:
448,192,200015,1,0,0:0:0:0:
320,192,200358,1,0,0:0:0:0:
64,192,200701,1,0,0:0:0:0:
448,192,201044,1,0,0:0:0:0:
192,192,201215,1,0,0:0:0:0:
320,192,201387,1,0,0:0:0:0:
64,192,201558,1,0,0:0:0:0:
192,192,201901,1,0,0:0:0:0:
448,192,202244,1,0,0:0:0:0:
64,192,202415,1,0,0:0:0:0:
192,192,202587,1,0,0:0:0:0:
320,192,202758,1,0,0:0:0:0:
448,192,202930,1,0,0:0:0:0:
192,192,203101,1,0,0:0:0:0:
64,192,203101,1,0,0:0:0:0:
320,192,203444,1,0,0:0:0:0:
64,192,203787,1,0,0:0:0:0:
320,192,203958,1,0,0:0:0:0:
192,192,204130,1,0,0:0:0:0:
448,192,204472,1,0,0:0:0:0:
192,192,204644,1,0,0:0:0:0:
320,192,204815,1,0,0:0:0:0:
64,192,204987,1,0,0:0:0:0:
448,192,205158,1,0,0:0:0:0:
320,192,205330,1,0,0:0:0:0:
192,192,205501,1,0,0:0:0:0:
64,192,205672,1,0,0:0:0:0:
448,192,205844,1,0,0:0:0:0:
320,192,205844,1,0,0:0:0:0:
192,192,206015,1,0,0:0:0:0:
448,192,206187,1,0,0:0:0:0:
192,192,206358,1,0,0:0:0:0:
448,192,206530,1,0,0:0:0:0:
320,192,206701,1,0,0:0:0:0:
192,192,206872,1,0,0:0:0:0:
320,192,207044,1,0,0:0:0:0:
448,192,207215,1,0,0:0:0:0:
320,192,207387,1,0,0:0:0:0:
192,192,207558,1,0,0:0:0:0:
64,192,207730,1,0,0:0:0:0:
192,192,207901,1,0,0:0:0:0:
320,192,208072,1,0,0:0:0:0:
192,192,208244,1,0,0:0:0:0:
320,192,208415,1,0,0:0:0:0:
448,192,208587,1,0,0:0:0:0:
64,192,208587,1,0,0:0:0:0:
192,192,208930,1,0,0:0:0:0:
448,192,209272,1,0,0:0:0:0:
192,192,209444,1,0,0:0:0:0:
320,192,209615,1,0,0:0:0:0:
64,192,209787,1,0,0:0:0:0:
192,192,210130,1,0,0:0:0:0:
320,192,210472,1,0,0:0:0:0:
64,192,210644,1,0,0:0:0:0:
64,192,210987,1,0,0:0:0:0:
448,192,211330,1,0,0:0:0:0:
192,192,211672,1,0,0:0:0:0:
448,192,212015,1,0,0:0:0:0:
192,192,212187,1,0,0:0:0:0:
320,192,212358,1,0,0:0:0:0:
64,192,212530,1,0,0:0:0:0:
192,192,212872,1,0,0:0:0:0:
448,192,213215,1,0,0:0:0:0:
64,192,213387,1,0,0:0:0:0:
192,192,213558,1,0,0:0:0:0:
320,192,213730,1,0,0:0:0:0:
448,192,213901,1,0,0:0:0:0:
192,192,214072,1,0,0:0:0:0:
64,192,214072,1,0,0:0:0:0:
320,192,214415,1,0,0:0:0:0:
64,192,214758,1,0,0:0:0:0:
448,192,214930,1,0,0:0:0:0:
192,192,215101,1,0,0:0:0:0:
320,192,215444,1,0,0:0:0:0:
64,192,215615,1,0,0:0:0:0:
448,192,215787,1,0,0:0:0:0:
192,192,215958,1,0,0:0:0:0:
320,192,216130,1,0,0:0:0:0:
192,192,216301,1,0,0:0:0:0:
64,192,216472,1,0,0:0:0:0:
192,192,216644,1,0,0:0:0:0:
320,192,216815,1,0,0:0:0:0:
448,192,216815,1,0,0:0:0:0:
64,192,216987,1,0,0:0:0:0:
320,192,217158,1,0,0:0:0:0:
64,192,217330,1,0,0:0:0:0:
448,192,217501,1,0,0:0:0:0:
320,192,217672,1,0,0:0:0:0:
192,192,217844,1,0,0:0:0:0:
64,192,218015,1,0,0:0:0:0:
192,192,218187,1,0,0:0:0:0:
320,192,218358,1,0,0:0:0:0:
448,192,218530,1,0,0:0:0:0:
192,192,218701,1,0,0:0:0:0:
320,192,218872,1,0,0:0:0:0:
64,192,219044,1,0,0:0:0:0:
192,192,219215,1,0,0:0:0:0:
320,192,219387,1,0,0:0:0:0:
64,192,219558,1,0,0:0:0:80:Cymbal.wav
192,192,219558,1,0,0:0:0:65:Kick.wav
448,192,219558,128,0,225044:0:0:0:0:
64,192,228130,128,0,230530:0:0:0:0:
320,192,230530,1,0,0:0:0:65:Kick.wav
448,192,230530,1,0,0:0:0:80:Cymbal.wav
192,192,230530,1,0,0:0:0:0:
64,192,230701,1,0,0:0:0:0:
192,192,230787,1,0,0:0:0:0:
448,192,230872,1,0,0:0:0:0:
64,192,231044,1,0,0:0:0:0:
320,192,231130,1,0,0:0:0:0:
192,192,231215,1,0,0:0:0:0:
448,192,231387,1,0,0:0:0:0:
64,192,231472,1,0,0:0:0:0:
320,192,231558,1,0,0:0:0:0:
64,192,231644,1,0,0:0:0:0:
448,192,231901,1,0,0:0:0:0:
192,192,232072,1,0,0:0:0:0:
320,192,232158,1,0,0:0:0:0:
64,192,232244,1,0,0:0:0:0:
448,192,232415,1,0,0:0:0:0:
192,192,232501,1,0,0:0:0:0:
320,192,232587,1,0,0:0:0:0:
64,192,232758,1,0,0:0:0:0:
448,192,232844,1,0,0:0:0:0:
192,192,232930,1,0,0:0:0:0:
448,192,233015,1,0,0:0:0:0:
64,192,233187,1,0,0:0:0:0:
320,192,233272,1,0,0:0:0:0:
192,192,233444,1,0,0:0:0:0:
448,192,233530,1,0,0:0:0:0:
320,192,233615,1,0,0:0:0:0:
64,192,233787,1,0,0:0:0:0:
320,192,233872,1,0,0:0:0:0:
192,192,233958,1,0,0:0:0:0:
448,192,234130,1,0,0:0:0:0:
64,192,234215,1,0,0:0:0:0:
320,192,234301,1,0,0:0:0:0:
64,192,234387,1,0,0:0:0:0:
448,192,234644,1,0,0:0:0:0:
192,192,234815,1,0,0:0:0:0:
320,192,234901,1,0,0:0:0:0:
448,192,234987,1,0,0:0:0:0:
64,192,235158,1,0,0:0:0:0:
192,192,235244,1,0,0:0:0:0:
320,192,235330,1,0,0:0:0:0:
64,192,235501,1,0,0:0:0:0:
192,192,235587,1,0,0:0:0:0:
448,192,235672,1,0,0:0:0:0:
320,192,235758,1,0,0:0:0:0:
192,192,235844,1,0,0:0:0:0:
448,192,235930,1,0,0:0:0:0:
320,192,236015,1,0,0:0:0:0:
64,192,236187,1,0,0:0:0:0:
192,192,236272,1,0,0:0:0:0:
320,192,236358,1,0,0:0:0:0:
448,192,236358,1,0,0:0:0:50:Clap Hand.wav
192,192,236530,1,0,0:0:0:0:
320,192,236615,1,0,0:0:0:0:
448,192,236701,1,0,0:0:0:0:
192,192,236872,1,0,0:0:0:0:
64,192,236958,1,0,0:0:0:0:
320,192,237044,1,0,0:0:0:0:
448,192,237044,1,0,0:0:0:50:Clap Hand.wav
192,192,237130,1,0,0:0:0:0:
448,192,237387,1,0,0:0:0:0:
64,192,237558,1,0,0:0:0:0:
192,192,237644,1,0,0:0:0:0:
320,192,237730,1,0,0:0:0:0:
448,192,237730,1,0,0:0:0:50:Clap Hand.wav
192,192,237901,1,0,0:0:0:0:
320,192,237987,1,0,0:0:0:0:
448,192,238072,1,0,0:0:0:0:
64,192,238244,1,0,0:0:0:0:
192,192,238330,1,0,0:0:0:0:
320,192,238415,1,0,0:0:0:0:
448,192,238415,1,0,0:0:0:50:Clap Hand.wav
64,192,238501,1,0,0:0:0:0:
320,192,238672,1,0,0:0:0:0:
64,192,238758,1,0,0:0:0:0:
192,192,238930,1,0,0:0:0:0:
320,192,239015,1,0,0:0:0:0:
448,192,239101,1,0,0:0:0:50:Clap Hand.wav
64,192,239101,1,0,0:0:0:0:
320,192,239272,1,0,0:0:0:0:
192,192,239358,1,0,0:0:0:0:
448,192,239444,1,0,0:0:0:0:
64,192,239615,1,0,0:0:0:0:
192,192,239701,1,0,0:0:0:0:
320,192,239787,1,0,0:0:0:0:
448,192,239787,1,0,0:0:0:50:Clap Hand.wav
64,192,239872,1,0,0:0:0:0:
192,192,240130,1,0,0:0:0:0:
448,192,240301,1,0,0:0:0:0:
64,192,240387,1,0,0:0:0:0:
320,192,240472,1,0,0:0:0:0:
448,192,240472,1,0,0:0:0:50:Clap Hand.wav
192,192,240644,1,0,0:0:0:50:Clap.wav
448,192,240730,1,0,0:0:0:50:Clap.wav
64,192,240815,1,0,0:0:0:50:Clap.wav
320,192,240901,1,0,0:0:0:50:Clap.wav
192,192,240987,1,0,0:0:0:50:Clap.wav
448,192,241072,1,0,0:0:0:50:Clap.wav
64,192,241158,1,0,0:0:0:50:Clap.wav
320,192,241244,1,0,0:0:0:50:Clap.wav
192,192,241330,1,0,0:0:0:50:Clap.wav
448,192,241415,1,0,0:0:0:50:Clap.wav
320,192,241501,1,0,0:0:0:65:Kick.wav
192,192,241501,1,0,0:0:0:80:Cymbal.wav
64,192,241501,1,0,0:0:0:0:
448,192,241672,1,0,0:0:0:0:
320,192,241758,1,0,0:0:0:0:
192,192,241844,1,0,0:0:0:55:Kick.wav
64,192,241844,1,0,0:0:0:65:Clap.wav
320,192,242015,1,0,0:0:0:0:
448,192,242101,1,0,0:0:0:0:
192,192,242187,1,0,0:0:0:55:Kick.wav
64,192,242187,1,0,0:0:0:65:Clap.wav
448,192,242358,1,0,0:0:0:0:
320,192,242444,1,0,0:0:0:0:
192,192,242530,1,0,0:0:0:55:Kick.wav
64,192,242530,1,0,0:0:0:65:Clap.wav
448,192,242615,1,0,0:0:0:0:
320,192,242701,1,0,0:0:0:0:
192,192,242872,1,0,0:0:0:55:Kick.wav
448,192,242872,1,0,0:0:0:65:Clap.wav
64,192,243044,1,0,0:0:0:0:
192,192,243130,1,0,0:0:0:0:
320,192,243215,1,0,0:0:0:55:Kick.wav
448,192,243215,1,0,0:0:0:65:Clap.wav
192,192,243387,1,0,0:0:0:0:
64,192,243472,1,0,0:0:0:0:
320,192,243558,1,0,0:0:0:55:Kick.wav
448,192,243558,1,0,0:0:0:65:Clap.wav
64,192,243730,1,0,0:0:0:0:
192,192,243815,1,0,0:0:0:0:
320,192,243901,1,0,0:0:0:55:Kick.wav
448,192,243901,1,0,0:0:0:65:Clap.wav
64,192,243987,1,0,0:0:0:0:
448,192,244072,1,0,0:0:0:65:Clap.wav
320,192,244072,1,0,0:0:0:55:Kick.wav
192,192,244158,1,0,0:0:0:0:
448,192,244244,1,0,0:0:0:65:Clap.wav
64,192,244244,1,0,0:0:0:80:Cymbal.wav
320,192,244244,1,0,0:0:0:55:Kick.wav
448,192,244415,1,0,0:0:0:0:
320,192,244501,1,0,0:0:0:0:
192,192,244587,1,0,0:0:0:55:Kick.wav
64,192,244587,1,0,0:0:0:65:Clap.wav
320,192,244758,1,0,0:0:0:0:
448,192,244844,1,0,0:0:0:0:
192,192,244930,1,0,0:0:0:55:Kick.wav
64,192,244930,1,0,0:0:0:65:Clap.wav
448,192,245101,1,0,0:0:0:0:
320,192,245187,1,0,0:0:0:0:
192,192,245272,1,0,0:0:0:55:Kick.wav
64,192,245272,1,0,0:0:0:65:Clap.wav
448,192,245358,1,0,0:0:0:0:
320,192,245444,1,0,0:0:0:0:
448,192,245615,1,0,0:0:0:65:Clap.wav
192,192,245615,1,0,0:0:0:55:Kick.wav
64,192,245787,1,0,0:0:0:0:
192,192,245872,1,0,0:0:0:0:
320,192,245958,1,0,0:0:0:55:Kick.wav
448,192,245958,1,0,0:0:0:65:Clap.wav
192,192,246130,1,0,0:0:0:0:
64,192,246215,1,0,0:0:0:0:
320,192,246301,1,0,0:0:0:55:Kick.wav
448,192,246301,1,0,0:0:0:65:Clap.wav
64,192,246472,1,0,0:0:0:0:
192,192,246558,1,0,0:0:0:0:
320,192,246644,1,0,0:0:0:55:Kick.wav
448,192,246644,1,0,0:0:0:65:Clap.wav
64,192,246730,1,0,0:0:0:0:
320,192,246815,1,0,0:0:0:55:Kick.wav
448,192,246815,1,0,0:0:0:65:Clap.wav
192,192,246901,1,0,0:0:0:0:
320,192,246987,1,0,0:0:0:55:Kick.wav
448,192,246987,1,0,0:0:0:65:Clap.wav
64,192,246987,1,0,0:0:0:80:Cymbal.wav
192,192,247158,1,0,0:0:0:0:
320,192,247244,1,0,0:0:0:0:
448,192,247330,1,0,0:0:0:65:Clap.wav
64,192,247330,1,0,0:0:0:55:Kick.wav
192,192,247501,1,0,0:0:0:0:
64,192,247587,1,0,0:0:0:0:
320,192,247672,1,0,0:0:0:55:Kick.wav
448,192,247672,1,0,0:0:0:65:Clap.wav
192,192,247844,1,0,0:0:0:0:
320,192,247930,1,0,0:0:0:0:
448,192,248015,1,0,0:0:0:65:Clap.wav
64,192,248015,1,0,0:0:0:55:Kick.wav
192,192,248101,1,0,0:0:0:0:
320,192,248187,1,0,0:0:0:55:Kick.wav
448,192,248187,1,0,0:0:0:65:Clap.wav
64,192,248272,1,0,0:0:0:0:
192,192,248358,1,0,0:0:0:80:Cymbal.wav
320,192,248358,1,0,0:0:0:55:Kick.wav
448,192,248358,1,0,0:0:0:65:Clap.wav
64,192,248530,1,0,0:0:0:0:
192,192,248615,1,0,0:0:0:0:
448,192,248701,1,0,0:0:0:65:Clap.wav
320,192,248701,1,0,0:0:0:55:Kick.wav
192,192,248872,1,0,0:0:0:0:
320,192,248958,1,0,0:0:0:0:
64,192,249044,1,0,0:0:0:55:Kick.wav
448,192,249044,1,0,0:0:0:65:Clap.wav
192,192,249215,1,0,0:0:0:0:
320,192,249301,1,0,0:0:0:0:
448,192,249387,1,0,0:0:0:65:Clap.wav
64,192,249387,1,0,0:0:0:55:Kick.wav
192,192,249472,1,0,0:0:0:0:
64,192,249558,1,0,0:0:0:55:Kick.wav
320,192,249558,1,0,0:0:0:65:Clap.wav
192,192,249644,1,0,0:0:0:0:
448,192,249730,1,0,0:0:0:65:Clap.wav
320,192,249730,1,0,0:0:0:55:Kick.wav
64,192,249815,1,0,0:0:0:0:
192,192,249901,1,0,0:0:0:55:Kick.wav
448,192,249901,1,0,0:0:0:65:Clap.wav
320,192,249987,1,0,0:0:0:0:
192,192,250072,1,0,0:0:0:55:Kick.wav
64,192,250072,1,0,0:0:0:65:Clap.wav
448,192,250158,1,0,0:0:0:0:
320,192,250244,1,0,0:0:0:55:Kick.wav
64,192,250244,1,0,0:0:0:65:Clap.wav
192,192,250330,1,0,0:0:0:0:
448,192,250415,1,0,0:0:0:0:
320,192,250415,1,0,0:0:0:50:Kick.wav
192,192,250501,5,0,0:0:0:50:Kick.wav
64,192,250501,1,0,0:0:0:0:
448,192,250587,1,0,0:0:0:0:
320,192,250587,1,0,0:0:0:50:Kick.wav
192,192,250672,5,0,0:0:0:50:Kick.wav
64,192,250672,1,0,0:0:0:0:
448,192,250758,1,0,0:0:0:0:
320,192,250758,1,0,0:0:0:50:Kick.wav
192,192,250844,5,0,0:0:0:50:Kick.wav
64,192,250844,1,0,0:0:0:0:
448,192,250930,1,0,0:0:0:0:
320,192,250930,1,0,0:0:0:50:Kick.wav
192,192,251015,5,0,0:0:0:50:Kick.wav
64,192,251015,1,0,0:0:0:0:
448,192,251101,1,0,0:0:0:20:Kick.wav
320,192,251144,1,0,0:0:0:20:Kick.wav
64,192,251187,1,0,0:0:0:20:Kick.wav
192,192,251230,1,0,0:0:0:20:Kick.wav
448,192,251272,1,0,0:0:0:20:Kick.wav
320,192,251315,1,0,0:0:0:20:Kick.wav
64,192,251358,1,0,0:0:0:20:Kick.wav
192,192,251401,1,0,0:0:0:20:Kick.wav
448,192,251444,1,0,0:0:0:20:Kick.wav
320,192,251487,1,0,0:0:0:20:Kick.wav
64,192,251530,1,0,0:0:0:20:Kick.wav
192,192,251572,1,0,0:0:0:20:Kick.wav
448,192,251615,1,0,0:0:0:20:Kick.wav
320,192,251658,1,0,0:0:0:20:Kick.wav
64,192,251701,1,0,0:0:0:20:Kick.wav
192,192,251744,1,0,0:0:0:20:Kick.wav
448,192,251787,1,0,0:0:0:0:
320,192,251787,1,0,0:0:0:0:
64,192,251830,1,0,0:0:0:0:
448,192,251872,1,0,0:0:0:0:
192,192,251872,1,0,0:0:0:0:
320,192,251915,1,0,0:0:0:0:
64,192,251958,1,0,0:0:0:0:
192,192,251958,1,0,0:0:0:0:
448,192,252001,1,0,0:0:0:0:
64,192,252044,1,0,0:0:0:0:
320,192,252044,1,0,0:0:0:0:
192,192,252087,1,0,0:0:0:0:
320,192,252130,1,0,0:0:0:0:
448,192,252130,1,0,0:0:0:0:
64,192,252172,1,0,0:0:0:0:
192,192,252215,1,0,0:0:0:0:
448,192,252215,1,0,0:0:0:0:
320,192,252258,1,0,0:0:0:0:
192,192,252301,1,0,0:0:0:0:
64,192,252301,1,0,0:0:0:0:
448,192,252344,1,0,0:0:0:0:
320,192,252387,1,0,0:0:0:0:
64,192,252387,1,0,0:0:0:0:
192,192,252430,1,0,0:0:0:0:
448,192,252472,1,0,0:0:0:65:Kick.wav
320,192,252472,1,0,0:0:0:80:Cymbal.wav
64,192,252644,1,0,0:0:0:80:Hat.wav
320,192,252730,1,0,0:0:0:0:
192,192,252815,1,0,0:0:0:65:Clap.wav
448,192,252815,1,0,0:0:0:60:Kick.wav
64,192,252815,1,0,0:0:0:0:
320,192,252987,1,0,0:0:0:80:Hat.wav
192,192,253072,1,0,0:0:0:0:
448,192,253158,1,0,0:0:0:60:Kick.wav
320,192,253158,1,0,0:0:0:0:
64,192,253330,1,0,0:0:0:80:Hat.wav
192,192,253415,1,0,0:0:0:0:
64,192,253501,1,0,0:0:0:65:Clap.wav
448,192,253501,1,0,0:0:0:60:Kick.wav
320,192,253501,1,0,0:0:0:0:
192,192,253587,1,0,0:0:0:0:
320,192,253672,1,0,0:0:0:80:Hat.wav
448,192,253844,1,0,0:0:0:60:Kick.wav
64,192,253844,1,0,0:0:0:0:
192,192,254015,1,0,0:0:0:80:Hat.wav
64,192,254101,1,0,0:0:0:0:
320,192,254187,1,0,0:0:0:65:Clap.wav
448,192,254187,1,0,0:0:0:60:Kick.wav
192,192,254187,1,0,0:0:0:0:
448,192,254358,1,0,0:0:0:80:Hat.wav
320,192,254444,1,0,0:0:0:0:
192,192,254530,1,0,0:0:0:60:Kick.wav
64,192,254530,1,0,0:0:0:0:
320,192,254701,1,0,0:0:0:80:Hat.wav
192,192,254787,1,0,0:0:0:0:
448,192,254872,1,0,0:0:0:60:Kick.wav
64,192,254872,1,0,0:0:0:65:Clap.wav
320,192,254872,1,0,0:0:0:0:
192,192,254958,1,0,0:0:0:0:
448,192,255044,1,0,0:0:0:80:Hat.wav
192,192,255130,1,0,0:0:0:0:
320,192,255215,1,0,0:0:0:0:
448,192,255215,1,0,0:0:0:60:Kick.wav
64,192,255387,1,0,0:0:0:80:Hat.wav
320,192,255472,1,0,0:0:0:0:
448,192,255558,1,0,0:0:0:60:Kick.wav
64,192,255558,1,0,0:0:0:65:Clap.wav
192,192,255558,1,0,0:0:0:0:
320,192,255730,1,0,0:0:0:80:Hat.wav
192,192,255815,1,0,0:0:0:0:
448,192,255901,1,0,0:0:0:0:
320,192,255901,1,0,0:0:0:60:Kick.wav
64,192,256072,1,0,0:0:0:80:Hat.wav
192,192,256158,1,0,0:0:0:0:
448,192,256244,1,0,0:0:0:60:Kick.wav
64,192,256244,1,0,0:0:0:65:Clap.wav
320,192,256244,1,0,0:0:0:0:
192,192,256330,1,0,0:0:0:0:
320,192,256415,1,0,0:0:0:80:Hat.wav
64,192,256587,1,0,0:0:0:0:
448,192,256587,1,0,0:0:0:60:Kick.wav
192,192,256758,1,0,0:0:0:80:Hat.wav
320,192,256844,1,0,0:0:0:0:
448,192,256930,1,0,0:0:0:60:Kick.wav
64,192,256930,1,0,0:0:0:65:Clap.wav
192,192,256930,1,0,0:0:0:0:
320,192,257101,1,0,0:0:0:80:Hat.wav
192,192,257187,1,0,0:0:0:0:
320,192,257272,1,0,0:0:0:0:
448,192,257272,1,0,0:0:0:60:Kick.wav
64,192,257444,1,0,0:0:0:80:Hat.wav
192,192,257530,1,0,0:0:0:0:
64,192,257615,1,0,0:0:0:65:Clap.wav
448,192,257615,1,0,0:0:0:60:Kick.wav
320,192,257615,1,0,0:0:0:0:
192,192,257701,1,0,0:0:0:0:
320,192,257787,1,0,0:0:0:80:Hat.wav
448,192,257787,1,0,0:0:0:60:Kick.wav
192,192,257872,1,0,0:0:0:0:
64,192,257958,1,0,0:0:0:0:
448,192,257958,1,0,0:0:0:60:Kick.wav
320,192,258130,1,0,0:0:0:80:Hat.wav
448,192,258215,1,0,0:0:0:0:
192,192,258301,1,0,0:0:0:65:Clap.wav
64,192,258301,1,0,0:0:0:60:Kick.wav
320,192,258301,1,0,0:0:0:0:
448,192,258472,1,0,0:0:0:80:Hat.wav
192,192,258558,1,0,0:0:0:0:
320,192,258644,1,0,0:0:0:0:
448,192,258644,1,0,0:0:0:60:Kick.wav
64,192,258815,1,0,0:0:0:80:Hat.wav
192,192,258901,1,0,0:0:0:0:
448,192,258987,1,0,0:0:0:60:Kick.wav
64,192,258987,1,0,0:0:0:65:Clap.wav
320,192,258987,1,0,0:0:0:0:
192,192,259072,1,0,0:0:0:0:
320,192,259158,1,0,0:0:0:80:Hat.wav
64,192,259330,1,0,0:0:0:0:
448,192,259330,1,0,0:0:0:60:Kick.wav
320,192,259501,1,0,0:0:0:80:Hat.wav
192,192,259587,1,0,0:0:0:0:
448,192,259672,1,0,0:0:0:65:Clap.wav
64,192,259672,1,0,0:0:0:60:Kick.wav
320,192,259672,1,0,0:0:0:0:
192,192,259844,1,0,0:0:0:80:Hat.wav
64,192,259930,1,0,0:0:0:0:
320,192,260015,1,0,0:0:0:0:
448,192,260015,1,0,0:0:0:60:Kick.wav
192,192,260187,1,0,0:0:0:80:Hat.wav
320,192,260272,1,0,0:0:0:0:
448,192,260358,1,0,0:0:0:60:Kick.wav
64,192,260358,1,0,0:0:0:65:Clap.wav
192,192,260358,1,0,0:0:0:0:
320,192,260444,1,0,0:0:0:0:
64,192,260530,1,0,0:0:0:80:Hat.wav
320,192,260615,1,0,0:0:0:0:
192,192,260701,1,0,0:0:0:0:
64,192,260701,1,0,0:0:0:60:Kick.wav
448,192,260872,1,0,0:0:0:80:Hat.wav
320,192,260958,1,0,0:0:0:0:
64,192,261044,1,0,0:0:0:60:Kick.wav
192,192,261044,1,0,0:0:0:65:Clap.wav
448,192,261044,1,0,0:0:0:0:
320,192,261215,1,0,0:0:0:80:Hat.wav
192,192,261301,1,0,0:0:0:0:
448,192,261387,1,0,0:0:0:0:
320,192,261387,1,0,0:0:0:60:Kick.wav
64,192,261558,1,0,0:0:0:80:Hat.wav
192,192,261644,1,0,0:0:0:0:
64,192,261730,1,0,0:0:0:60:Kick.wav
448,192,261730,1,0,0:0:0:65:Clap.wav
320,192,261730,1,0,0:0:0:0:
192,192,261815,1,0,0:0:0:0:
320,192,261901,1,0,0:0:0:80:Hat.wav
64,192,262072,1,0,0:0:0:60:Kick.wav
448,192,262072,1,0,0:0:0:0:
192,192,262244,1,0,0:0:0:80:Hat.wav
320,192,262330,1,0,0:0:0:0:
448,192,262415,1,0,0:0:0:65:Clap.wav
192,192,262415,1,0,0:0:0:60:Kick.wav
64,192,262415,1,0,0:0:0:0:
320,192,262587,1,0,0:0:0:80:Hat.wav
192,192,262672,1,0,0:0:0:0:
64,192,262758,1,0,0:0:0:60:Kick.wav
320,192,262758,1,0,0:0:0:80:Cymbal.wav
448,192,262758,1,0,0:0:0:0:
192,192,262930,1,0,0:0:0:0:
64,192,263015,1,0,0:0:0:0:
320,192,263101,1,0,0:0:0:0:
192,192,263187,1,0,0:0:0:0:
320,192,263272,1,0,0:0:0:50:Kick.wav
448,192,263272,1,0,0:0:0:0:
64,192,263358,1,0,0:0:0:0:
192,192,263358,1,0,0:0:0:50:Kick.wav
320,192,263444,1,0,0:0:0:65:Kick.wav
448,192,263444,1,0,0:0:0:80:Cymbal.wav
64,192,263615,1,0,0:0:0:80:Hat.wav
320,192,263701,1,0,0:0:0:0:
448,192,263787,1,0,0:0:0:60:Kick.wav
64,192,263787,1,0,0:0:0:65:Clap.wav
192,192,263787,1,0,0:0:0:0:
320,192,263958,1,0,0:0:0:80:Hat.wav
192,192,264044,1,0,0:0:0:0:
448,192,264130,1,0,0:0:0:60:Kick.wav
320,192,264130,1,0,0:0:0:0:
64,192,264301,1,0,0:0:0:80:Hat.wav
192,192,264387,1,0,0:0:0:0:
64,192,264472,1,0,0:0:0:65:Clap.wav
448,192,264472,1,0,0:0:0:60:Kick.wav
320,192,264472,1,0,0:0:0:0:
192,192,264558,1,0,0:0:0:0:
320,192,264644,1,0,0:0:0:80:Hat.wav
448,192,264815,1,0,0:0:0:60:Kick.wav
64,192,264815,1,0,0:0:0:0:
192,192,264987,1,0,0:0:0:80:Hat.wav
64,192,265072,1,0,0:0:0:0:
320,192,265158,1,0,0:0:0:65:Clap.wav
448,192,265158,1,0,0:0:0:60:Kick.wav
192,192,265158,1,0,0:0:0:0:
448,192,265330,1,0,0:0:0:80:Hat.wav
320,192,265415,1,0,0:0:0:0:
192,192,265501,1,0,0:0:0:0:
64,192,265501,1,0,0:0:0:60:Kick.wav
320,192,265672,1,0,0:0:0:80:Hat.wav
192,192,265758,1,0,0:0:0:0:
64,192,265844,1,0,0:0:0:65:Clap.wav
448,192,265844,1,0,0:0:0:60:Kick.wav
320,192,265844,1,0,0:0:0:0:
192,192,265930,1,0,0:0:0:0:
448,192,266015,1,0,0:0:0:80:Hat.wav
192,192,266101,1,0,0:0:0:0:
320,192,266187,1,0,0:0:0:0:
448,192,266187,1,0,0:0:0:60:Kick.wav
64,192,266358,1,0,0:0:0:80:Hat.wav
192,192,266444,1,0,0:0:0:0:
64,192,266530,1,0,0:0:0:60:Kick.wav
448,192,266530,1,0,0:0:0:65:Clap.wav
320,192,266530,1,0,0:0:0:0:
192,192,266701,1,0,0:0:0:80:Hat.wav
448,192,266787,1,0,0:0:0:0:
320,192,266872,1,0,0:0:0:0:
64,192,266872,1,0,0:0:0:60:Kick.wav
192,192,267044,1,0,0:0:0:80:Hat.wav
64,192,267130,1,0,0:0:0:0:
192,192,267215,1,0,0:0:0:65:Clap.wav
320,192,267215,1,0,0:0:0:60:Kick.wav
448,192,267215,1,0,0:0:0:0:
64,192,267301,1,0,0:0:0:0:
320,192,267387,1,0,0:0:0:80:Hat.wav
448,192,267558,1,0,0:0:0:0:
192,192,267558,1,0,0:0:0:60:Kick.wav
64,192,267730,1,0,0:0:0:80:Hat.wav
320,192,267815,1,0,0:0:0:0:
448,192,267901,1,0,0:0:0:65:Clap.wav
192,192,267901,1,0,0:0:0:60:Kick.wav
64,192,267901,1,0,0:0:0:0:
320,192,268072,1,0,0:0:0:80:Hat.wav
192,192,268158,1,0,0:0:0:0:
320,192,268244,1,0,0:0:0:0:
448,192,268244,1,0,0:0:0:60:Kick.wav
64,192,268415,1,0,0:0:0:80:Hat.wav
192,192,268501,1,0,0:0:0:0:
448,192,268587,1,0,0:0:0:60:Kick.wav
64,192,268587,1,0,0:0:0:65:Clap.wav
320,192,268587,1,0,0:0:0:0:
192,192,268672,1,0,0:0:0:0:
448,192,268758,1,0,0:0:0:60:Kick.wav
320,192,268758,1,0,0:0:0:80:Hat.wav
192,192,268844,1,0,0:0:0:0:
448,192,268930,1,0,0:0:0:60:Kick.wav
64,192,268930,1,0,0:0:0:0:
320,192,269101,1,0,0:0:0:80:Hat.wav
192,192,269187,1,0,0:0:0:0:
64,192,269272,1,0,0:0:0:65:Clap.wav
448,192,269272,1,0,0:0:0:60:Kick.wav
320,192,269272,1,0,0:0:0:0:
192,192,269444,1,0,0:0:0:80:Hat.wav
448,192,269530,1,0,0:0:0:0:
320,192,269615,1,0,0:0:0:0:
64,192,269615,1,0,0:0:0:60:Kick.wav
192,192,269787,1,0,0:0:0:80:Hat.wav
64,192,269872,1,0,0:0:0:0:
448,192,269958,1,0,0:0:0:65:Clap.wav
192,192,269958,1,0,0:0:0:60:Kick.wav
320,192,269958,1,0,0:0:0:0:
64,192,270044,1,0,0:0:0:0:
320,192,270130,1,0,0:0:0:80:Hat.wav
448,192,270301,1,0,0:0:0:60:Kick.wav
64,192,270301,1,0,0:0:0:0:
192,192,270472,1,0,0:0:0:80:Hat.wav
64,192,270558,1,0,0:0:0:0:
320,192,270644,1,0,0:0:0:60:Kick.wav
192,192,270644,1,0,0:0:0:65:Clap.wav
448,192,270644,1,0,0:0:0:0:
448,192,270815,1,0,0:0:0:80:Hat.wav
320,192,270901,1,0,0:0:0:0:
192,192,270987,1,0,0:0:0:0:
64,192,270987,1,0,0:0:0:60:Kick.wav
320,192,271158,1,0,0:0:0:80:Hat.wav
192,192,271244,1,0,0:0:0:0:
64,192,271330,1,0,0:0:0:60:Kick.wav
448,192,271330,1,0,0:0:0:65:Clap.wav
320,192,271330,1,0,0:0:0:0:
192,192,271415,1,0,0:0:0:0:
448,192,271501,1,0,0:0:0:80:Hat.wav
192,192,271587,1,0,0:0:0:0:
448,192,271672,1,0,0:0:0:60:Kick.wav
320,192,271672,1,0,0:0:0:0:
64,192,271844,1,0,0:0:0:60:Kick.wav
192,192,271844,1,0,0:0:0:80:Hat.wav
448,192,271930,1,0,0:0:0:0:
320,192,272015,1,0,0:0:0:65:Clap.wav
64,192,272015,1,0,0:0:0:60:Kick.wav
192,192,272187,1,0,0:0:0:80:Hat.wav
448,192,272187,1,0,0:0:0:60:Kick.wav
64,192,272272,1,0,0:0:0:0:
320,192,272358,1,0,0:0:0:0:
448,192,272358,1,0,0:0:0:60:Kick.wav
64,192,272530,1,0,0:0:0:60:Kick.wav
320,192,272530,1,0,0:0:0:80:Hat.wav
192,192,272615,1,0,0:0:0:0:
448,192,272701,1,0,0:0:0:65:Clap.wav
64,192,272701,1,0,0:0:0:60:Kick.wav
320,192,272787,1,0,0:0:0:0:
192,192,272872,1,0,0:0:0:60:Kick.wav
448,192,272872,1,0,0:0:0:80:Hat.wav
192,192,273044,1,0,0:0:0:60:Kick.wav
320,192,273044,1,0,0:0:0:0:
64,192,273044,1,0,0:0:0:80:Cymbal.wav
448,192,273130,1,0,0:0:0:0:
320,192,273215,1,0,0:0:0:0:
192,192,273301,1,0,0:0:0:0:
64,192,273387,1,0,0:0:0:0:
192,192,273472,1,0,0:0:0:0:
320,192,273558,1,0,0:0:0:0:
448,192,273644,1,0,0:0:0:0:
64,192,273730,1,0,0:0:0:0:
192,192,273815,1,0,0:0:0:0:
320,192,273901,1,0,0:0:0:0:
448,192,273987,1,0,0:0:0:0:
320,192,274072,1,0,0:0:0:0:
192,192,274158,1,0,0:0:0:0:
64,192,274244,1,0,0:0:0:0:
192,192,274330,1,0,0:0:0:0:
320,192,274415,1,0,0:0:0:65:Kick.wav
448,192,274415,1,0,0:0:0:80:Cymbal.wav
64,192,274587,1,0,0:0:0:80:Hat.wav
448,192,274672,1,0,0:0:0:0:
192,192,274672,1,0,0:0:0:0:
320,192,274758,1,0,0:0:0:60:Kick.wav
64,192,274844,1,0,0:0:0:0:
192,192,274930,1,0,0:0:0:80:Hat.wav
448,192,274930,1,0,0:0:0:0:
320,192,275015,1,0,0:0:0:0:
64,192,275101,1,0,0:0:0:60:Kick.wav
192,192,275101,1,0,0:0:0:0:
320,192,275272,1,0,0:0:0:80:Hat.wav
448,192,275358,1,0,0:0:0:0:
64,192,275358,1,0,0:0:0:0:
192,192,275444,1,0,0:0:0:60:Kick.wav
320,192,275530,1,0,0:0:0:0:
448,192,275615,1,0,0:0:0:0:
64,192,275615,1,0,0:0:0:80:Hat.wav
192,192,275701,1,0,0:0:0:0:
320,192,275787,1,0,0:0:0:60:Kick.wav
448,192,275787,1,0,0:0:0:0:
192,192,275872,1,0,0:0:0:0:
64,192,275872,1,0,0:0:0:0:
320,192,276044,1,0,0:0:0:0:
64,192,276130,1,0,0:0:0:0:
448,192,276130,1,0,0:0:0:60:Kick.wav
192,192,276215,1,0,0:0:0:0:
320,192,276301,1,0,0:0:0:80:Hat.wav
64,192,276301,1,0,0:0:0:0:
192,192,276387,1,0,0:0:0:0:
320,192,276472,1,0,0:0:0:0:
448,192,276472,1,0,0:0:0:60:Kick.wav
192,192,276644,1,0,0:0:0:80:Hat.wav
448,192,276730,1,0,0:0:0:0:
64,192,276730,1,0,0:0:0:0:
320,192,276815,1,0,0:0:0:60:Kick.wav
192,192,276901,1,0,0:0:0:0:
64,192,276987,1,0,0:0:0:0:
448,192,276987,1,0,0:0:0:80:Hat.wav
320,192,277072,1,0,0:0:0:0:
192,192,277158,1,0,0:0:0:60:Kick.wav
64,192,277158,1,0,0:0:0:0:
448,192,277330,1,0,0:0:0:80:Hat.wav
320,192,277415,1,0,0:0:0:0:
64,192,277415,1,0,0:0:0:0:
192,192,277501,1,0,0:0:0:60:Kick.wav
448,192,277587,1,0,0:0:0:0:
320,192,277672,1,0,0:0:0:80:Hat.wav
64,192,277672,1,0,0:0:0:0:
192,192,277758,1,0,0:0:0:0:
320,192,277844,1,0,0:0:0:0:
448,192,277844,1,0,0:0:0:60:Kick.wav
192,192,278015,1,0,0:0:0:80:Hat.wav
448,192,278101,1,0,0:0:0:0:
64,192,278101,1,0,0:0:0:0:
320,192,278187,1,0,0:0:0:60:Kick.wav
192,192,278272,1,0,0:0:0:0:
448,192,278358,1,0,0:0:0:0:
320,192,278358,1,0,0:0:0:80:Hat.wav
64,192,278444,1,0,0:0:0:0:
192,192,278530,1,0,0:0:0:0:
320,192,278530,1,0,0:0:0:60:Kick.wav
64,192,278615,1,0,0:0:0:0:
448,192,278615,1,0,0:0:0:0:
192,192,278787,1,0,0:0:0:0:
320,192,278872,1,0,0:0:0:0:
448,192,278872,1,0,0:0:0:60:Kick.wav
64,192,278958,1,0,0:0:0:0:
192,192,279044,1,0,0:0:0:80:Hat.wav
448,192,279044,1,0,0:0:0:0:
320,192,279130,1,0,0:0:0:0:
192,192,279215,1,0,0:0:0:0:
64,192,279215,1,0,0:0:0:60:Kick.wav
448,192,279387,1,0,0:0:0:80:Hat.wav
64,192,279472,1,0,0:0:0:0:
192,192,279472,1,0,0:0:0:0:
320,192,279558,1,0,0:0:0:60:Kick.wav
448,192,279558,1,0,0:0:0:0:
64,192,279644,1,0,0:0:0:0:
192,192,279730,1,0,0:0:0:60:Kick.wav
320,192,279730,1,0,0:0:0:80:Hat.wav
448,192,279815,1,0,0:0:0:0:
64,192,279901,1,0,0:0:0:60:Kick.wav
192,192,279901,1,0,0:0:0:0:
320,192,280072,1,0,0:0:0:80:Hat.wav
192,192,280158,1,0,0:0:0:0:
448,192,280158,1,0,0:0:0:0:
320,192,280244,1,0,0:0:0:60:Kick.wav
64,192,280330,1,0,0:0:0:0:
448,192,280415,1,0,0:0:0:0:
192,192,280415,1,0,0:0:0:80:Hat.wav
320,192,280501,1,0,0:0:0:0:
192,192,280587,1,0,0:0:0:0:
64,192,280587,1,0,0:0:0:60:Kick.wav
320,192,280758,1,0,0:0:0:80:Hat.wav
448,192,280844,1,0,0:0:0:0:
64,192,280844,1,0,0:0:0:0:
192,192,280930,1,0,0:0:0:60:Kick.wav
320,192,281015,1,0,0:0:0:0:
64,192,281101,1,0,0:0:0:0:
192,192,281101,1,0,0:0:0:80:Hat.wav
448,192,281187,1,0,0:0:0:0:
192,192,281272,1,0,0:0:0:60:Kick.wav
320,192,281272,1,0,0:0:0:0:
448,192,281358,1,0,0:0:0:0:
64,192,281358,1,0,0:0:0:0:
320,192,281530,1,0,0:0:0:0:
448,192,281615,1,0,0:0:0:60:Kick.wav
64,192,281615,1,0,0:0:0:0:
192,192,281701,1,0,0:0:0:0:
320,192,281787,1,0,0:0:0:80:Hat.wav
64,192,281787,1,0,0:0:0:0:
192,192,281872,1,0,0:0:0:0:
448,192,281958,1,0,0:0:0:60:Kick.wav
320,192,281958,1,0,0:0:0:0:
64,192,282130,1,0,0:0:0:80:Hat.wav
448,192,282215,1,0,0:0:0:0:
320,192,282215,1,0,0:0:0:0:
192,192,282301,1,0,0:0:0:60:Kick.wav
448,192,282387,1,0,0:0:0:0:
320,192,282472,1,0,0:0:0:0:
64,192,282472,1,0,0:0:0:80:Hat.wav
192,192,282558,1,0,0:0:0:0:
320,192,282644,1,0,0:0:0:0:
448,192,282644,1,0,0:0:0:60:Kick.wav
192,192,282815,1,0,0:0:0:80:Hat.wav
448,192,282901,1,0,0:0:0:0:
64,192,282901,1,0,0:0:0:0:
320,192,282987,1,0,0:0:0:60:Kick.wav
192,192,283072,1,0,0:0:0:0:
64,192,283158,1,0,0:0:0:80:Hat.wav
448,192,283158,1,0,0:0:0:0:
320,192,283244,1,0,0:0:0:0:
192,192,283330,1,0,0:0:0:0:
64,192,283330,1,0,0:0:0:60:Kick.wav
320,192,283501,1,0,0:0:0:80:Hat.wav
448,192,283587,1,0,0:0:0:0:
64,192,283587,1,0,0:0:0:0:
192,192,283672,1,0,0:0:0:60:Kick.wav
320,192,283758,1,0,0:0:0:0:
64,192,283844,1,0,0:0:0:80:Hat.wav
448,192,283844,1,0,0:0:0:0:
192,192,283930,1,0,0:0:0:0:
320,192,284015,1,0,0:0:0:60:Kick.wav
448,192,284015,1,0,0:0:0:0:
192,192,284187,1,0,0:0:0:80:Hat.wav
448,192,284272,1,0,0:0:0:0:
64,192,284272,1,0,0:0:0:0:
320,192,284358,1,0,0:0:0:60:Kick.wav
192,192,284444,1,0,0:0:0:0:
448,192,284530,1,0,0:0:0:0:
320,192,284530,1,0,0:0:0:80:Hat.wav
64,192,284615,1,0,0:0:0:0:
448,192,284701,1,0,0:0:0:60:Kick.wav
192,192,284701,1,0,0:0:0:0:
320,192,284787,1,0,0:0:0:0:
448,192,284872,1,0,0:0:0:60:Kick.wav
64,192,284872,1,0,0:0:0:80:Hat.wav
192,192,284958,1,0,0:0:0:0:
320,192,285044,1,0,0:0:0:0:
448,192,285044,1,0,0:0:0:60:Kick.wav
192,192,285130,1,0,0:0:0:60:Kick.wav
64,192,285130,1,0,0:0:0:0:
320,192,285215,1,0,0:0:0:0:
448,192,285215,1,0,0:0:0:60:Kick.wav
192,192,285301,1,0,0:0:0:60:Kick.wav
64,192,285301,1,0,0:0:0:0:
320,192,285387,1,0,0:0:0:80:Cymbal.wav
448,192,285387,1,0,0:0:0:60:Kick.wav
64,192,285387,1,0,0:0:0:0:
192,192,285558,1,0,0:0:0:80:Hat.wav
64,192,285644,1,0,0:0:0:0:
448,192,285644,1,0,0:0:0:0:
320,192,285730,1,0,0:0:0:60:Kick.wav
192,192,285815,1,0,0:0:0:0:
320,192,285901,1,0,0:0:0:0:
448,192,285901,1,0,0:0:0:80:Hat.wav
64,192,285987,1,0,0:0:0:0:
448,192,286072,1,0,0:0:0:60:Kick.wav
192,192,286072,1,0,0:0:0:0:
320,192,286244,1,0,0:0:0:80:Hat.wav
448,192,286330,1,0,0:0:0:0:
64,192,286330,1,0,0:0:0:0:
192,192,286415,1,0,0:0:0:60:Kick.wav
320,192,286501,1,0,0:0:0:0:
192,192,286587,1,0,0:0:0:0:
64,192,286587,1,0,0:0:0:80:Hat.wav
448,192,286672,1,0,0:0:0:0:
192,192,286758,1,0,0:0:0:60:Kick.wav
320,192,286758,1,0,0:0:0:0:
448,192,286844,1,0,0:0:0:0:
64,192,286844,1,0,0:0:0:0:
320,192,287015,1,0,0:0:0:0:
64,192,287101,1,0,0:0:0:0:
192,192,287101,1,0,0:0:0:60:Kick.wav
448,192,287187,1,0,0:0:0:0:
192,192,287272,1,0,0:0:0:80:Hat.wav
320,192,287272,1,0,0:0:0:0:
64,192,287358,1,0,0:0:0:0:
320,192,287444,1,0,0:0:0:0:
448,192,287444,1,0,0:0:0:60:Kick.wav
192,192,287615,1,0,0:0:0:80:Hat.wav
64,192,287701,1,0,0:0:0:0:
448,192,287701,1,0,0:0:0:0:
320,192,287787,1,0,0:0:0:60:Kick.wav
192,192,287872,1,0,0:0:0:0:
64,192,287958,1,0,0:0:0:0:
448,192,287958,1,0,0:0:0:80:Hat.wav
320,192,288044,1,0,0:0:0:0:
64,192,288130,1,0,0:0:0:60:Kick.wav
448,192,288130,1,0,0:0:0:0:
192,192,288130,1,0,0:0:0:80:Cymbal.wav
320,192,288301,1,0,0:0:0:80:Hat.wav
64,192,288387,1,0,0:0:0:0:
448,192,288387,1,0,0:0:0:0:
192,192,288472,1,0,0:0:0:60:Kick.wav
320,192,288558,1,0,0:0:0:0:
64,192,288644,1,0,0:0:0:80:Hat.wav
448,192,288644,1,0,0:0:0:0:
192,192,288730,1,0,0:0:0:0:
448,192,288815,1,0,0:0:0:60:Kick.wav
320,192,288815,1,0,0:0:0:0:
64,192,288987,1,0,0:0:0:80:Hat.wav
192,192,289072,1,0,0:0:0:0:
320,192,289072,1,0,0:0:0:0:
448,192,289158,1,0,0:0:0:60:Kick.wav
64,192,289244,1,0,0:0:0:0:
320,192,289330,1,0,0:0:0:80:Hat.wav
192,192,289330,1,0,0:0:0:0:
448,192,289415,1,0,0:0:0:0:
192,192,289501,1,0,0:0:0:60:Kick.wav
64,192,289501,1,0,0:0:0:0:
320,192,289587,1,0,0:0:0:0:
448,192,289587,1,0,0:0:0:0:
192,192,289758,1,0,0:0:0:0:
448,192,289844,1,0,0:0:0:60:Kick.wav
64,192,289844,1,0,0:0:0:0:
320,192,289930,1,0,0:0:0:0:
448,192,290015,1,0,0:0:0:80:Hat.wav
192,192,290015,1,0,0:0:0:0:
320,192,290101,1,0,0:0:0:0:
192,192,290187,1,0,0:0:0:60:Kick.wav
64,192,290187,1,0,0:0:0:0:
320,192,290358,1,0,0:0:0:80:Hat.wav
448,192,290444,1,0,0:0:0:0:
64,192,290530,1,0,0:0:0:60:Kick.wav
320,192,290530,1,0,0:0:0:0:
192,192,290615,1,0,0:0:0:0:
64,192,290701,1,0,0:0:0:60:Kick.wav
448,192,290701,1,0,0:0:0:80:Hat.wav
320,192,290787,1,0,0:0:0:0:
192,192,290872,1,0,0:0:0:80:Cymbal.wav
64,192,290872,1,0,0:0:0:60:Kick.wav
448,192,290872,1,0,0:0:0:0:
320,192,291044,1,0,0:0:0:60:Kick.wav
448,192,291044,1,0,0:0:0:80:Hat.wav
64,192,291130,1,0,0:0:0:0:
192,192,291215,1,0,0:0:0:0:
320,192,291215,1,0,0:0:0:60:Kick.wav
448,192,291301,1,0,0:0:0:0:
64,192,291387,1,0,0:0:0:60:Kick.wav
192,192,291387,1,0,0:0:0:80:Hat.wav
320,192,291472,1,0,0:0:0:0:
64,192,291558,1,0,0:0:0:60:Kick.wav
448,192,291558,1,0,0:0:0:0:
320,192,291730,1,0,0:0:0:60:Kick.wav
192,192,291730,1,0,0:0:0:80:Hat.wav
64,192,291815,1,0,0:0:0:0:
320,192,291901,1,0,0:0:0:60:Kick.wav
448,192,291901,1,0,0:0:0:0:
192,192,291987,1,0,0:0:0:0:
448,192,292072,1,0,0:0:0:60:Kick.wav
64,192,292072,1,0,0:0:0:80:Hat.wav
192,192,292244,1,0,0:0:0:80:Cymbal.wav
320,192,292244,1,0,0:0:0:60:Kick.wav
448,192,292330,1,0,0:0:0:0:
192,192,292415,1,0,0:0:0:60:Kick.wav
64,192,292415,1,0,0:0:0:80:Hat.wav
448,192,292587,1,0,0:0:0:0:
320,192,292587,1,0,0:0:0:60:Kick.wav
192,192,292758,1,0,0:0:0:80:Hat.wav
64,192,292758,1,0,0:0:0:60:Kick.wav
320,192,292930,1,0,0:0:0:60:Kick.wav
448,192,292930,1,0,0:0:0:0:
192,192,293101,1,0,0:0:0:80:Hat.wav
64,192,293101,1,0,0:0:0:60:Kick.wav
448,192,293187,1,0,0:0:0:0:
192,192,293272,1,0,0:0:0:60:Kick.wav
320,192,293272,1,0,0:0:0:0:
64,192,293358,1,0,0:0:0:0:
320,192,293444,1,0,0:0:0:60:Kick.wav
448,192,293444,1,0,0:0:0:80:Hat.wav
192,192,293530,1,0,0:0:0:0:
448,192,293615,1,0,0:0:0:80:Cymbal.wav
64,192,293615,1,0,0:0:0:60:Kick.wav
320,192,293701,1,0,0:0:0:0:
448,192,293787,1,0,0:0:0:80:Hat.wav
192,192,293787,1,0,0:0:0:60:Kick.wav
320,192,293872,1,0,0:0:0:0:
192,192,293958,1,0,0:0:0:60:Kick.wav
64,192,293958,1,0,0:0:0:0:
448,192,294044,1,0,0:0:0:0:
64,192,294130,1,0,0:0:0:80:Hat.wav
320,192,294130,1,0,0:0:0:60:Kick.wav
192,192,294215,1,0,0:0:0:0:
320,192,294301,5,0,0:0:0:50:Kick.wav
448,192,294301,1,0,0:0:0:80:Cymbal.wav
192,192,294387,5,0,0:0:0:50:Kick.wav
64,192,294387,1,0,0:0:0:0:
320,192,294472,5,0,0:0:0:50:Kick.wav
448,192,294472,1,0,0:0:0:0:
192,192,294558,5,0,0:0:0:50:Kick.wav
64,192,294558,1,0,0:0:0:0:
320,192,294644,5,0,0:0:0:50:Kick.wav
448,192,294644,1,0,0:0:0:0:
192,192,294730,5,0,0:0:0:50:Kick.wav
64,192,294730,1,0,0:0:0:0:
320,192,294815,5,0,0:0:0:50:Kick.wav
448,192,294815,1,0,0:0:0:0:
192,192,294901,5,0,0:0:0:50:Kick.wav
64,192,294901,1,0,0:0:0:0:
448,192,294987,5,0,0:0:0:20:Kick.wav
320,192,295030,1,0,0:0:0:20:Kick.wav
64,192,295072,1,0,0:0:0:20:Kick.wav
192,192,295115,1,0,0:0:0:20:Kick.wav
320,192,295158,1,0,0:0:0:20:Kick.wav
448,192,295201,1,0,0:0:0:20:Kick.wav
64,192,295244,1,0,0:0:0:20:Kick.wav
192,192,295287,1,0,0:0:0:20:Kick.wav
448,192,295330,1,0,0:0:0:20:Kick.wav
320,192,295372,1,0,0:0:0:20:Kick.wav
192,192,295415,1,0,0:0:0:20:Kick.wav
64,192,295458,1,0,0:0:0:20:Kick.wav
448,192,295501,1,0,0:0:0:20:Kick.wav
320,192,295544,1,0,0:0:0:20:Kick.wav
64,192,295587,1,0,0:0:0:20:Kick.wav
192,192,295630,1,0,0:0:0:20:Kick.wav
448,192,295672,1,0,0:0:0:0:
320,192,295672,1,0,0:0:0:20:Kick.wav
64,192,295715,1,0,0:0:0:20:Kick.wav
192,192,295758,1,0,0:0:0:20:Kick.wav
448,192,295801,1,0,0:0:0:20:Kick.wav
320,192,295844,1,0,0:0:0:20:Kick.wav
64,192,295844,1,0,0:0:0:0:
192,192,295887,1,0,0:0:0:20:Kick.wav
448,192,295930,1,0,0:0:0:20:Kick.wav
320,192,295972,1,0,0:0:0:20:Kick.wav
192,192,296015,1,0,0:0:0:20:Kick.wav
64,192,296015,1,0,0:0:0:0:
448,192,296058,1,0,0:0:0:20:Kick.wav
320,192,296101,1,0,0:0:0:20:Kick.wav
64,192,296144,1,0,0:0:0:20:Kick.wav
448,192,296187,1,0,0:0:0:0:
192,192,296187,1,0,0:0:0:20:Kick.wav
320,192,296230,1,0,0:0:0:20:Kick.wav
64,192,296272,1,0,0:0:0:20:Kick.wav
192,192,296315,1,0,0:0:0:20:Kick.wav
448,192,296358,1,0,0:0:0:80:Cymbal.wav
320,192,296358,1,0,0:0:0:65:Kick.wav
64,192,296530,128,0,296701:0:0:0:80:Hat.wav
448,192,296701,1,0,0:0:0:55:Kick.wav
320,192,296701,1,0,0:0:0:65:Clap.wav
64,192,296872,1,0,0:0:0:80:Hat.wav
320,192,297044,1,0,0:0:0:0:
448,192,297044,1,0,0:0:0:55:Kick.wav
192,192,297130,1,0,0:0:0:0:
64,192,297215,1,0,0:0:0:80:Hat.wav
320,192,297301,1,0,0:0:0:0:
192,192,297387,1,0,0:0:0:65:Clap.wav
64,192,297387,1,0,0:0:0:55:Kick.wav
448,192,297558,128,0,297730:0:0:0:80:Hat.wav
192,192,297730,1,0,0:0:0:0:
64,192,297730,1,0,0:0:0:55:Kick.wav
320,192,297901,1,0,0:0:0:80:Hat.wav
192,192,298072,1,0,0:0:0:65:Clap.wav
64,192,298072,1,0,0:0:0:55:Kick.wav
448,192,298244,1,0,0:0:0:80:Hat.wav
192,192,298415,1,0,0:0:0:0:
64,192,298415,1,0,0:0:0:55:Kick.wav
320,192,298501,1,0,0:0:0:0:
448,192,298587,1,0,0:0:0:80:Hat.wav
192,192,298672,1,0,0:0:0:0:
320,192,298758,1,0,0:0:0:65:Clap.wav
448,192,298758,1,0,0:0:0:55:Kick.wav
64,192,298930,1,0,0:0:0:80:Hat.wav
192,192,299015,1,0,0:0:0:0:
320,192,299101,1,0,0:0:0:0:
448,192,299101,1,0,0:0:0:55:Kick.wav
64,192,299272,128,0,299444:0:0:0:80:Hat.wav
320,192,299444,1,0,0:0:0:65:Clap.wav
448,192,299444,1,0,0:0:0:55:Kick.wav
64,192,299615,1,0,0:0:0:80:Hat.wav
320,192,299787,1,0,0:0:0:0:
448,192,299787,1,0,0:0:0:55:Kick.wav
192,192,299872,1,0,0:0:0:0:
64,192,299958,1,0,0:0:0:80:Hat.wav
320,192,300044,1,0,0:0:0:0:
192,192,300130,1,0,0:0:0:65:Clap.wav
64,192,300130,1,0,0:0:0:55:Kick.wav
448,192,300301,128,0,300472:0:0:0:80:Hat.wav
192,192,300472,1,0,0:0:0:0:
64,192,300472,1,0,0:0:0:55:Kick.wav
320,192,300644,1,0,0:0:0:80:Hat.wav
192,192,300815,1,0,0:0:0:65:Clap.wav
64,192,300815,1,0,0:0:0:55:Kick.wav
448,192,300987,1,0,0:0:0:80:Hat.wav
192,192,301158,1,0,0:0:0:0:
64,192,301158,1,0,0:0:0:55:Kick.wav
320,192,301244,1,0,0:0:0:0:
448,192,301330,1,0,0:0:0:80:Hat.wav
192,192,301415,1,0,0:0:0:0:
320,192,301501,1,0,0:0:0:65:Clap.wav
448,192,301501,1,0,0:0:0:55:Kick.wav
64,192,301672,1,0,0:0:0:80:Hat.wav
192,192,301758,1,0,0:0:0:0:
320,192,301844,1,0,0:0:0:0:
448,192,301844,1,0,0:0:0:55:Kick.wav
64,192,302015,128,0,302187:0:0:0:80:Hat.wav
320,192,302187,1,0,0:0:0:65:Clap.wav
448,192,302187,1,0,0:0:0:55:Kick.wav
64,192,302358,1,0,0:0:0:80:Hat.wav
320,192,302530,1,0,0:0:0:0:
448,192,302530,1,0,0:0:0:55:Kick.wav
192,192,302615,1,0,0:0:0:0:
64,192,302701,1,0,0:0:0:80:Hat.wav
192,192,302787,1,0,0:0:0:0:
320,192,302872,1,0,0:0:0:65:Clap.wav
448,192,302872,1,0,0:0:0:55:Kick.wav
64,192,303044,128,0,303215:0:0:0:80:Hat.wav
320,192,303215,1,0,0:0:0:0:
448,192,303215,1,0,0:0:0:55:Kick.wav
192,192,303387,1,0,0:0:0:80:Hat.wav
320,192,303558,1,0,0:0:0:65:Clap.wav
448,192,303558,1,0,0:0:0:55:Kick.wav
64,192,303730,1,0,0:0:0:80:Hat.wav
320,192,303901,1,0,0:0:0:0:
448,192,303901,1,0,0:0:0:55:Kick.wav
192,192,303987,1,0,0:0:0:0:
64,192,304072,1,0,0:0:0:80:Hat.wav
320,192,304158,1,0,0:0:0:0:
192,192,304244,1,0,0:0:0:65:Clap.wav
64,192,304244,1,0,0:0:0:55:Kick.wav
448,192,304415,1,0,0:0:0:80:Hat.wav
320,192,304501,1,0,0:0:0:0:
192,192,304587,1,0,0:0:0:0:
64,192,304587,1,0,0:0:0:55:Kick.wav
448,192,304758,128,0,304930:0:0:0:80:Hat.wav
192,192,304930,1,0,0:0:0:65:Clap.wav
64,192,304930,1,0,0:0:0:55:Kick.wav
448,192,305101,1,0,0:0:0:80:Hat.wav
192,192,305272,1,0,0:0:0:0:
64,192,305272,1,0,0:0:0:55:Kick.wav
320,192,305358,1,0,0:0:0:0:
448,192,305444,1,0,0:0:0:80:Hat.wav
320,192,305530,1,0,0:0:0:0:
192,192,305615,1,0,0:0:0:65:Clap.wav
64,192,305615,1,0,0:0:0:55:Kick.wav
448,192,305787,128,0,305958:0:0:0:80:Hat.wav
192,192,305958,1,0,0:0:0:0:
64,192,305958,1,0,0:0:0:55:Kick.wav
64,192,306130,1,0,0:0:0:55:Kick.wav
192,192,306130,1,0,0:0:0:80:Hat.wav
320,192,306301,1,0,0:0:0:65:Clap.wav
448,192,306301,1,0,0:0:0:55:Kick.wav
320,192,306472,1,0,0:0:0:80:Hat.wav
448,192,306472,1,0,0:0:0:55:Kick.wav
192,192,306644,1,0,0:0:0:0:
64,192,306644,1,0,0:0:0:55:Kick.wav
320,192,306730,1,0,0:0:0:0:
448,192,306815,1,0,0:0:0:80:Hat.wav
64,192,306815,1,0,0:0:0:55:Kick.wav
192,192,306901,1,0,0:0:0:0:
448,192,306987,1,0,0:0:0:65:Clap.wav
320,192,306987,1,0,0:0:0:50:Kick.wav
192,192,307072,1,0,0:0:0:50:Kick.wav
64,192,307072,1,0,0:0:0:0:
448,192,307158,1,0,0:0:0:0:
320,192,307158,1,0,0:0:0:50:Kick.wav
192,192,307244,1,0,0:0:0:50:Kick.wav
64,192,307244,1,0,0:0:0:0:
448,192,307330,1,0,0:0:0:80:Cymbal.wav
320,192,307330,1,0,0:0:0:60:Kick.wav
192,192,307501,128,0,307672:0:0:0:80:Hat.wav
320,192,307672,1,0,0:0:0:65:Clap.wav
64,192,307672,1,0,0:0:0:55:Kick.wav
448,192,307672,1,0,0:0:0:0:
192,192,307844,1,0,0:0:0:80:Hat.wav
64,192,308015,1,0,0:0:0:55:Kick.wav
448,192,308015,1,0,0:0:0:65:Clap.wav
320,192,308101,1,0,0:0:0:0:
192,192,308187,1,0,0:0:0:80:Hat.wav
64,192,308272,1,0,0:0:0:0:
448,192,308358,1,0,0:0:0:55:Kick.wav
320,192,308358,1,0,0:0:0:65:Clap.wav
192,192,308358,1,0,0:0:0:0:
448,192,308530,128,0,308701:0:0:0:80:Hat.wav
64,192,308701,1,0,0:0:0:65:Clap.wav
192,192,308701,1,0,0:0:0:55:Kick.wav
320,192,308872,1,0,0:0:0:80:Hat.wav
448,192,309044,1,0,0:0:0:55:Kick.wav
64,192,309044,1,0,0:0:0:65:Clap.wav
192,192,309044,1,0,0:0:0:0:
320,192,309215,1,0,0:0:0:80:Hat.wav
448,192,309387,1,0,0:0:0:55:Kick.wav
64,192,309387,1,0,0:0:0:65:Clap.wav
192,192,309472,1,0,0:0:0:0:
320,192,309558,1,0,0:0:0:80:Hat.wav
448,192,309644,1,0,0:0:0:0:
192,192,309730,1,0,0:0:0:65:Clap.wav
64,192,309730,1,0,0:0:0:55:Kick.wav
320,192,309730,1,0,0:0:0:0:
64,192,309901,1,0,0:0:0:80:Hat.wav
192,192,309987,1,0,0:0:0:0:
448,192,310072,1,0,0:0:0:65:Clap.wav
320,192,310072,1,0,0:0:0:55:Kick.wav
192,192,310244,128,0,310415:0:0:0:80:Hat.wav
320,192,310415,1,0,0:0:0:55:Kick.wav
448,192,310415,1,0,0:0:0:65:Clap.wav
64,192,310415,1,0,0:0:0:0:
192,192,310587,1,0,0:0:0:80:Hat.wav
448,192,310758,1,0,0:0:0:65:Clap.wav
64,192,310758,1,0,0:0:0:55:Kick.wav
320,192,310844,1,0,0:0:0:0:
192,192,310930,1,0,0:0:0:80:Hat.wav
64,192,311015,1,0,0:0:0:0:
192,192,311101,1,0,0:0:0:65:Clap.wav
320,192,311101,1,0,0:0:0:55:Kick.wav
448,192,311101,1,0,0:0:0:0:
448,192,311272,128,0,311444:0:0:0:80:Hat.wav
64,192,311444,1,0,0:0:0:55:Kick.wav
192,192,311444,1,0,0:0:0:65:Clap.wav
320,192,311615,1,0,0:0:0:80:Hat.wav
448,192,311787,1,0,0:0:0:55:Kick.wav
192,192,311787,1,0,0:0:0:65:Clap.wav
64,192,311787,1,0,0:0:0:0:
320,192,311958,1,0,0:0:0:80:Hat.wav
192,192,312130,1,0,0:0:0:65:Clap.wav
448,192,312130,1,0,0:0:0:55:Kick.wav
320,192,312215,1,0,0:0:0:0:
64,192,312301,1,0,0:0:0:80:Hat.wav
192,192,312387,1,0,0:0:0:0:
320,192,312472,1,0,0:0:0:65:Clap.wav
448,192,312472,1,0,0:0:0:55:Kick.wav
64,192,312472,1,0,0:0:0:0:
448,192,312644,1,0,0:0:0:80:Hat.wav
320,192,312644,1,0,0:0:0:55:Kick.wav
192,192,312730,1,0,0:0:0:0:
320,192,312815,1,0,0:0:0:25:Kick.wav
64,192,312815,1,0,0:0:0:80:Cymbal.wav
448,192,312815,1,0,0:0:0:0:
64,192,312987,1,0,0:0:0:25:Kick.wav
192,192,312987,128,0,313158:0:0:0:0:
320,192,313158,1,0,0:0:0:25:Kick.wav
448,192,313158,1,0,0:0:0:60:Clap.wav
192,192,313330,1,0,0:0:0:25:Kick.wav
64,192,313330,1,0,0:0:0:0:
320,192,313501,1,0,0:0:0:25:Kick.wav
448,192,313501,1,0,0:0:0:60:Clap.wav
192,192,313587,1,0,0:0:0:0:
64,192,313672,1,0,0:0:0:25:Kick.wav
192,192,313758,1,0,0:0:0:0:
320,192,313844,1,0,0:0:0:25:Kick.wav
448,192,313844,1,0,0:0:0:60:Clap.wav
192,192,314015,1,0,0:0:0:25:Kick.wav
64,192,314015,128,0,314187:0:0:0:0:
448,192,314187,1,0,0:0:0:25:Kick.wav
320,192,314187,1,0,0:0:0:60:Clap.wav
192,192,314358,1,0,0:0:0:25:Kick.wav
64,192,314358,1,0,0:0:0:0:
320,192,314530,1,0,0:0:0:25:Kick.wav
448,192,314530,1,0,0:0:0:60:Clap.wav
192,192,314701,1,0,0:0:0:25:Kick.wav
64,192,314701,1,0,0:0:0:0:
448,192,314872,1,0,0:0:0:25:Kick.wav
320,192,314872,1,0,0:0:0:60:Clap.wav
192,192,314958,1,0,0:0:0:0:
64,192,315044,1,0,0:0:0:25:Kick.wav
192,192,315130,1,0,0:0:0:0:
320,192,315215,1,0,0:0:0:25:Kick.wav
448,192,315215,1,0,0:0:0:60:Clap.wav
64,192,315387,1,0,0:0:0:25:Kick.wav
192,192,315472,1,0,0:0:0:0:
320,192,315558,1,0,0:0:0:45:Clap.wav
448,192,315558,1,0,0:0:0:50:Kick.wav
192,192,315644,1,0,0:0:0:45:Clap.wav
64,192,315644,1,0,0:0:0:0:
320,192,315730,1,0,0:0:0:45:Clap.wav
448,192,315730,1,0,0:0:0:0:
192,192,315815,1,0,0:0:0:45:Clap.wav
64,192,315815,1,0,0:0:0:0:
320,192,315901,1,0,0:0:0:45:Clap.wav
448,192,315901,1,0,0:0:0:50:Kick.wav
192,192,315987,1,0,0:0:0:45:Clap.wav
64,192,315987,1,0,0:0:0:0:
320,192,316072,1,0,0:0:0:45:Clap.wav
448,192,316072,1,0,0:0:0:0:
192,192,316158,1,0,0:0:0:45:Clap.wav
64,192,316158,1,0,0:0:0:0:
320,192,316244,1,0,0:0:0:45:Clap.wav
448,192,316244,1,0,0:0:0:50:Kick.wav
192,192,316330,1,0,0:0:0:45:Clap.wav
64,192,316330,1,0,0:0:0:0:
320,192,316415,1,0,0:0:0:45:Clap.wav
448,192,316415,1,0,0:0:0:0:
192,192,316501,1,0,0:0:0:45:Clap.wav
64,192,316501,1,0,0:0:0:0:
320,192,316587,1,0,0:0:0:45:Clap.wav
448,192,316587,1,0,0:0:0:50:Kick.wav
192,192,316672,1,0,0:0:0:45:Clap.wav
64,192,316672,1,0,0:0:0:0:
320,192,316758,1,0,0:0:0:45:Clap.wav
448,192,316758,1,0,0:0:0:0:
192,192,316844,1,0,0:0:0:45:Clap.wav
64,192,316844,1,0,0:0:0:0:
448,192,316930,1,0,0:0:0:20:Kick.wav
320,192,316972,1,0,0:0:0:20:Kick.wav
64,192,317015,1,0,0:0:0:20:Kick.wav
192,192,317058,1,0,0:0:0:20:Kick.wav
448,192,317101,1,0,0:0:0:20:Kick.wav
320,192,317144,1,0,0:0:0:20:Kick.wav
64,192,317187,1,0,0:0:0:20:Kick.wav
192,192,317230,1,0,0:0:0:20:Kick.wav
448,192,317272,1,0,0:0:0:20:Kick.wav
320,192,317315,1,0,0:0:0:20:Kick.wav
64,192,317358,1,0,0:0:0:20:Kick.wav
192,192,317401,1,0,0:0:0:20:Kick.wav
448,192,317444,1,0,0:0:0:20:Kick.wav
320,192,317487,1,0,0:0:0:20:Kick.wav
64,192,317530,1,0,0:0:0:20:Kick.wav
192,192,317572,1,0,0:0:0:20:Kick.wav
448,192,317615,1,0,0:0:0:20:Kick.wav
320,192,317658,1,0,0:0:0:20:Kick.wav
192,192,317701,1,0,0:0:0:20:Kick.wav
64,192,317744,1,0,0:0:0:20:Kick.wav
448,192,317787,1,0,0:0:0:20:Kick.wav
320,192,317830,1,0,0:0:0:20:Kick.wav
192,192,317872,1,0,0:0:0:20:Kick.wav
64,192,317915,1,0,0:0:0:20:Kick.wav
448,192,317958,1,0,0:0:0:20:Kick.wav
320,192,318001,1,0,0:0:0:20:Kick.wav
192,192,318044,1,0,0:0:0:20:Kick.wav
64,192,318087,1,0,0:0:0:20:Kick.wav
448,192,318130,1,0,0:0:0:20:Kick.wav
320,192,318172,1,0,0:0:0:20:Kick.wav
192,192,318215,1,0,0:0:0:20:Kick.wav
64,192,318258,1,0,0:0:0:20:Kick.wav
320,192,318301,1,0,0:0:0:80:Cymbal.wav
448,192,318301,1,0,0:0:0:60:Kick.wav
