osu file format v12

[General]
AudioFilename: stand_up___tv_size.mp3
AudioLeadIn: 1985
PreviewTime: 46738
Countdown: 1
SampleSet: Soft
StackLeniency: 0.7
Mode: 0
LetterboxInBreaks: 1

[Editor]
DistanceSpacing: 1.3
BeatDivisor: 4
GridSize: 4

[Metadata]
Title:Stand Up! (TV Size)
TitleUnicode:Stand Up! (TV Size)
Artist:twill
ArtistUnicode:twill
Creator:athiota33
Version:Normal
Source:Digimon Xros Wars: Toki wo Kakeru Shounen Hunter Tachi
Tags:The Hunting Boys Running Through Time opening kz livetune
BeatmapID:232441
BeatmapSetID:84361

[Difficulty]
HPDrainRate:3
CircleSize:3
OverallDifficulty:4
ApproachRate:5
SliderMultiplier:1.3
SliderTickRate:1

[Events]
//Background and Video events
0,0,"BG.jpg",1,1
//Break Periods
//Storyboard Layer 0 (Background)
//Storyboard Layer 1 (Fail)
//Storyboard Layer 2 (Pass)
//Storyboard Layer 3 (Foreground)
//Storyboard Sound Samples
//Background Colour Transformations
3,100,163,162,255

[TimingPoints]
332,446.096654275093,4,2,1,35,1,0
5685,-100,4,2,1,40,0,0
33789,-100,4,2,1,30,0,0
33900,-100,4,2,1,40,0,0
46726,-100,4,2,1,35,0,0
46837,-100,4,2,1,40,0,0
48511,-100,4,2,1,50,0,1
61001,-100,4,2,1,40,0,1
62339,-100,4,2,1,40,0,0
62450,-100,4,2,1,50,0,0
62785,-100,4,2,1,50,0,1
69923,-100,4,2,1,40,0,1
70034,-100,4,2,1,50,0,1
75973,-100,4,1,0,50,0,1
76391,-100,4,2,1,50,0,1
76838,-100,4,2,1,40,0,0
77506,-100,4,2,1,30,0,0
77952,-100,4,2,1,20,0,0
78398,-100,4,2,1,10,0,0
78846,-100,4,2,1,5,0,0

[Colours]
Combo1 : 236,205,32
Combo2 : 244,64,64
Combo3 : 70,70,251

[HitObjects]
456,244,332,2,0,B|404:264|388:308|388:308|344:284|292:304,1,195,2|2,0:0|0:0,0:0:0:0:
44,348,1670,1,2,0:0:0:0:
408,132,2785,6,0,L|424:60,2,65,0|2|0,0:0|0:0|0:0,0:0:0:0:
360,204,3454,1,0,0:0:0:0:
280,236,3677,1,4,0:0:0:0:
40,176,4792,6,0,L|24:104,2,65,2|0|0,0:0|0:0|0:0,0:0:0:0:
88,248,5462,1,0,0:0:0:0:
168,280,5685,5,4,0:0:0:0:
332,312,6131,2,0,P|396:340|460:324,1,130,8|0,0:0|0:0,0:0:0:0:
472,244,6800,1,0,0:0:0:0:
352,124,7246,2,0,P|288:96|224:112,1,130,2|0,0:0|0:0,0:0:0:0:
156,148,7915,1,8,0:0:0:0:
72,160,8138,2,0,B|76:204|112:224|112:224|76:284,1,130,0|0,0:0|0:0,0:0:0:0:
116,348,8807,1,8,0:0:0:0:
196,324,9030,6,0,B|236:344|284:308|328:324,1,130,2|0,0:0|0:0,0:0:0:0:
404,348,9700,1,8,0:0:0:0:
448,276,9923,2,0,P|445:211|478:156,1,130,2|0,0:0|0:0,0:0:0:0:
500,76,10592,1,8,0:0:0:0:
416,84,10815,2,0,B|356:96|356:96|288:80,1,130,2|0,0:0|0:0,0:0:0:0:
120,80,11707,2,0,P|89:64|46:16,2,65,2|0|0,0:0|0:0|0:0,0:0:0:0:
120,248,12599,6,0,P|180:256|240:212,1,130,2|0,0:0|0:0,0:0:0:0:
316,244,13268,1,8,0:0:0:0:
396,272,13491,2,0,B|412:240|400:212|388:180|404:144,2,130
360,348,14607,1,0,0:0:0:0:
200,264,15053,5,10,0:0:0:0:
156,340,15276,2,0,P|84:336|56:292,1,130
84,212,15945,1,8,0:0:0:0:
40,140,16168,1,2,0:0:0:0:
200,88,16614,6,0,L|224:24,2,65,0|10|0,0:0|0:0|0:0,0:0:0:0:
272,136,17283,2,0,L|296:200,2,65,0|0|10,0:0|0:0|0:0,0:0:0:0:
340,88,17952,1,0,0:0:0:0:
340,88,18175,6,0,B|424:92|424:92|460:136,1,130,0|8,0:0|0:0,0:0:0:0:
476,208,18845,2,0,P|408:228|372:276,1,130
332,344,19514,1,8,0:0:0:0:
256,312,19737,1,0,0:0:0:0:
180,344,19960,6,0,B|116:312|116:312|128:280|116:240,1,130,4|8,0:0|0:0,0:0:0:0:
112,84,20852,1,0,0:0:0:0:
196,100,21075,2,0,B|256:124|256:124|316:100,1,130
400,84,21744,1,0,0:0:0:0:
412,252,22190,1,8,0:0:0:0:
356,316,22413,1,0,0:0:0:0:
272,316,22636,2,0,P|216:348|132:340,1,130,0|8,0:0|0:0,0:0:0:0:
68,364,23305,6,0,B|64:324|64:324|76:284|76:284|72:236,1,130,2|0,0:0|0:0,0:0:0:0:
56,152,23975,1,8,0:0:0:0:
140,168,24198,2,0,P|204:172|256:132,2,130,2|0|0,0:0|0:0|0:0,0:0:0:0:
180,92,25313,1,0,0:0:0:0:
344,48,25759,1,8,0:0:0:0:
372,128,25982,1,0,0:0:0:0:
448,164,26205,2,0,B|448:200|468:224|468:224|488:248|488:288,1,130,0|8,0:0|0:0,0:0:0:0:
404,284,26874,6,0,P|336:316|248:296,1,130,2|0,0:0|0:0,0:0:0:0:
204,284,27543,1,8,0:0:0:0:
124,304,27766,1,0,0:0:0:0:
40,156,28213,2,0,P|8:88|28:0,2,130,0|2|0,0:0|0:0|0:0,0:0:0:0:
112,200,29328,2,0,B|152:193|152:193|196:200|196:200|240:192,1,130,10|0,0:0|0:0,0:0:0:0:
320,220,29997,2,0,P|352:228|388:228,2,65,0|10|0,0:0|0:0|0:0,0:0:0:0:
172,304,30889,6,0,P|96:292|32:296,2,130,0|2|0,0:0|0:0|0:0,0:0:0:0:
252,328,32004,1,8,0:0:0:0:
332,308,32227,2,0,B|336:268|336:268|324:228|324:228|328:180,1,130,2|0,0:0|0:0,0:0:0:0:
364,104,32897,2,0,P|392:82|410:55,2,65,8|0|2,0:0|0:0|0:0,0:0:0:0:
204,52,33789,1,12,0:0:0:0:
96,184,34235,6,0,P|36:160|4:88,2,130,4|8|0,0:0|0:0|0:0,0:0:0:0:
256,236,35573,1,8,0:0:0:0:
256,236,35796,2,0,B|312:260|312:260|308:304|348:336,1,130
400,268,36465,1,8,0:0:0:0:
440,192,36688,2,0,P|472:223|476:304,2,130
316,76,38027,5,0,0:0:0:0:
316,76,38250,2,0,B|256:96|256:96|188:76,1,130,8|0,0:0|0:0,0:0:0:0:
108,92,38919,2,0,P|86:53|84:27,2,65,0|8|0,0:0|0:0|0:0,0:0:0:0:
184,244,39811,1,2,0:0:0:0:
248,300,40034,1,8,0:0:0:0:
332,296,40257,2,0,P|408:280|440:236,1,130,2|0,0:0|0:0,0:0:0:0:
460,160,40926,1,8,0:0:0:0:
296,124,41372,6,0,P|236:108|203:47,2,130,6|8|0,0:0|0:0|0:0,0:0:0:0:
460,160,42711,1,8,0:0:0:0:
408,228,42934,2,0,P|360:264|352:332,1,130,2|0,0:0|0:0,0:0:0:0:
272,356,43603,1,8,0:0:0:0:
188,336,43826,1,2,0:0:0:0:
68,220,44272,5,0,0:0:0:0:
68,220,44495,1,8,0:0:0:0:
68,220,44718,2,0,B|56:156|56:156|72:92,1,130,2|0,0:0|0:0,0:0:0:0:
148,56,45387,1,8,0:0:0:0:
220,100,45610,2,0,P|332:80|372:32,2,130,2|2|10,0:0|0:0|0:0,0:0:0:0:
160,160,46726,5,12,0:0:0:0:
92,212,46949,2,0,P|64:196|28:184,2,65
108,296,47618,2,0,B|164:328|164:328|192:308|228:308,1,130
392,332,48510,6,0,P|448:312|492:260,1,130,4|8,0:0|0:0,0:0:0:0:
448,188,49179,1,0,0:0:0:0:
464,104,49402,2,0,L|332:92,1,130,0|8,0:0|0:0,0:0:0:0:
252,112,50071,1,0,0:0:0:0:
176,72,50294,1,2,0:0:0:0:
48,184,50740,2,0,P|36:248|76:300,2,130,8|0|8,0:0|0:0|0:0,0:0:0:0:
120,228,51856,1,0,0:0:0:0:
204,212,52079,6,0,P|248:204|272:204,1,65,2|0,0:0|0:0,0:0:0:0:
336,252,52525,2,0,B|404:256|404:256|456:220,2,130,8|0|8,0:0|0:0|0:0,0:0:0:0:
280,320,53640,1,0,0:0:0:0:
196,312,53863,2,0,P|132:296|64:308,2,130,2|8|0,0:0|0:0|0:0,0:0:0:0:
360,348,55201,1,8,0:0:0:0:
440,320,55424,1,0,0:0:0:0:
460,240,55647,6,0,P|456:176|480:112,1,130,2|8,0:0|0:0,0:0:0:0:
408,68,56317,2,0,P|424:32|432:-16,2,65
380,148,56986,1,8,0:0:0:0:
316,204,57209,2,0,P|252:212|204:172,1,130,2|0,0:0|0:0,0:0:0:0:
152,104,57878,1,8,0:0:0:0:
152,104,58101,2,0,L|136:236,1,130
124,316,58770,1,8,0:0:0:0:
204,340,58993,6,0,B|244:360|292:324|336:340,1,130,2|0,0:0|0:0,0:0:0:0:
416,352,59662,1,8,0:0:0:0:
464,284,59885,2,0,B|468:252|452:220|452:220|468:196|468:156,1,130,2|0,0:0|0:0,0:0:0:0:
384,164,60555,2,0,P|376:132|352:100,1,65,10|0,0:0|0:0,0:0:0:0:
308,36,61001,5,2,0:0:0:0:
248,92,61224,1,0,0:0:0:0:
164,104,61447,2,0,P|132:96|100:72,2,65,10|0|2,0:0|0:0|0:0,0:0:0:0:
296,212,62339,1,12,0:0:0:0:
136,268,62785,6,0,P|160:324|220:360,1,130,6|8,0:0|0:0,0:0:0:0:
300,352,63454,1,0,0:0:0:0:
384,336,63677,2,0,B|400:296|388:260|388:260|412:204,1,130
456,140,64346,2,0,L|468:68,1,65,0|2,0:0|0:0,0:0:0:0:
384,84,64792,1,0,0:0:0:0:
300,64,65016,2,0,P|236:72|173:39,1,130,8|0,0:0|0:0,0:0:0:0:
100,80,65685,1,0,0:0:0:0:
16,84,65908,2,0,L|26:148,1,65,8|0,0:0|0:0,0:0:0:0:
40,232,66354,6,0,B|81:265|81:265|88:308|120:330,1,130,2|8,0:0|0:0,0:0:0:0:
172,264,67023,1,0,0:0:0:0:
172,264,67246,2,0,P|228:300|292:292,1,130,0|8,0:0|0:0,0:0:0:0:
340,360,67915,2,0,P|340:296|360:224,1,130,2|0,0:0|0:0,0:0:0:0:
396,160,68584,2,0,P|412:140|432:104,2,65,8|0|2,0:0|0:0|0:0,0:0:0:0:
312,156,69253,1,0,0:0:0:0:
228,140,69476,2,0,B|192:140|192:140|148:156|148:156|100:156,1,130,8|4,0:0|0:0,0:0:0:0:
36,212,70146,5,0,0:0:0:0:
36,212,70369,2,0,P|52:140|40:72,2,130,8|0|8,0:0|0:0|0:0,0:0:0:0:
48,296,71484,2,0,L|180:284,1,130,2|0,0:0|0:0,0:0:0:0:
256,256,72153,1,10,0:0:0:0:
336,284,72376,1,0,0:0:0:0:
440,152,72822,6,0,P|404:132|360:128,1,65,2|8,0:0|0:0,0:0:0:0:
304,160,73268,2,0,L|168:152,1,130,2|0,0:0|0:0,0:0:0:0:
92,140,73937,2,0,P|72:108|60:76,2,65,10|0|2,0:0|0:0|0:0,0:0:0:0:
12,288,74830,5,8,0:0:0:0:
72,348,75053,2,4,L|208:356,1,130,12|4,0:0|0:0,0:0:0:0:
288,356,75722,1,8,0:0:0:0:
348,296,75945,2,0,P|391:248|458:243,1,130,4|8,0:0|0:0,0:0:0:0:
508,176,76614,1,8,0:0:0:0:
472,100,76837,1,12,0:0:0:0:
256,192,77060,12,0,78845,0:0:0:0:
