osu file format v12

[General]
AudioFilename: stand_up___tv_size.mp3
AudioLeadIn: 1985
PreviewTime: 46738
Countdown: 1
SampleSet: Soft
StackLeniency: 0.7
Mode: 0
LetterboxInBreaks: 1

[Editor]
Bookmarks: 41826
DistanceSpacing: 1
BeatDivisor: 4
GridSize: 4

[Metadata]
Title:Stand Up! (TV Size)
TitleUnicode:Stand Up! (TV Size)
Artist:twill
ArtistUnicode:twill
Creator:athiota33
Version:Hard
Source:Digimon Xros Wars: Toki wo Kakeru Shounen Hunter Tachi
Tags:The Hunting Boys Running Through Time opening kz livetune
BeatmapID:232440
BeatmapSetID:84361

[Difficulty]
HPDrainRate:6
CircleSize:4
OverallDifficulty:6
ApproachRate:7
SliderMultiplier:1.6
SliderTickRate:1

[Events]
//Background and Video events
0,0,"BG.jpg",1,1
//Break Periods
//Storyboard Layer 0 (Background)
//Storyboard Layer 1 (Fail)
//Storyboard Layer 2 (Pass)
//Storyboard Layer 3 (Foreground)
//Storyboard Sound Samples
//Background Colour Transformations
3,100,163,162,255

[TimingPoints]
332,446.096654275093,4,2,1,35,1,0
5685,-100,4,2,1,40,0,0
12599,-100,4,2,1,30,0,0
12711,-100,4,2,1,40,0,0
33789,-100,4,2,1,30,0,0
33900,-100,4,2,1,40,0,0
46726,-100,4,2,1,35,0,0
46837,-100,4,2,1,40,0,0
48511,-100,4,2,1,50,0,1
61001,-100,4,2,1,40,0,1
62339,-100,4,2,1,40,0,0
62450,-100,4,2,1,50,0,0
62785,-100,4,2,1,50,0,1
69923,-100,4,2,1,40,0,1
70034,-100,4,2,1,50,0,1
75973,-100,4,1,0,50,0,1
76391,-100,4,2,1,50,0,1
76838,-100,4,2,1,40,0,0
77506,-100,4,2,1,30,0,0
77952,-100,4,2,1,20,0,0
78398,-100,4,2,1,10,0,0
78846,-100,4,2,1,5,0,0

[Colours]
Combo1 : 236,205,32
Combo2 : 244,64,64
Combo3 : 70,70,251

[HitObjects]
424,252,332,6,0,B|398:196|398:196|353:174|353:174|331:131,1,160,2|0,0:0|0:0,0:0:0:0:
253,118,1001,2,0,P|188:165|118:136,1,160,2|0,0:0|0:0,0:0:0:0:
180,87,1670,1,2,0:0:0:0:
444,304,2785,5,0,0:0:0:0:
368,328,3008,2,0,P|327:330|281:327,1,80,2|0,0:0|0:0,0:0:0:0:
216,248,3454,2,0,P|255:244|296:248,1,80,2|4,0:0|0:0,0:0:0:0:
256,192,3789,12,12,5685,0:0:0:0:
128,92,6131,5,8,0:0:0:0:
52,112,6354,1,0,0:0:0:0:
36,192,6577,2,0,P|56:248|88:276,1,80
124,320,7023,1,8,0:0:0:0:
176,260,7246,2,0,B|212:240|252:268|292:296|332:268,1,160,2|0,0:0|0:0,0:0:0:0:
392,320,7915,1,8,0:0:0:0:
444,260,8138,2,0,P|458:246|478:190,1,80,0|2,0:0|0:0,0:0:0:0:
364,124,8584,2,0,P|384:180|398:194,1,80,0|8,0:0|0:0,0:0:0:0:
442,126,9030,6,0,P|410:58|330:54,1,160,2|0,0:0|0:0,0:0:0:0:
268,104,9700,1,8,0:0:0:0:
192,76,9923,2,0,B|128:64|128:64|92:80|92:80|32:68,1,160,2|2,0:0|0:0,0:0:0:0:
8,144,10592,1,8,0:0:0:0:
8,144,10815,6,0,P|-8:224|40:280,1,160,2|0,0:0|0:0,0:0:0:0:
151,196,11484,1,8,0:0:0:0:
168,332,11707,1,0,0:0:0:0:
70,205,11930,1,0,0:0:0:0:
198,260,12153,1,0,0:0:0:0:
88,344,12376,1,8,0:0:0:0:
196,136,12599,6,0,B|272:116|272:116|268:80|300:36,1,160,2|0,0:0|0:0,0:0:0:0:
352,100,13268,2,0,P|380:68|428:60,1,80,8|0,0:0|0:0,0:0:0:0:
424,140,13714,2,0,P|444:176|440:220,1,80
364,196,14160,1,8,0:0:0:0:
304,252,14384,2,0,P|236:232|152:256,1,160,2|0,0:0|0:0,0:0:0:0:
96,312,15053,1,8,0:0:0:0:
40,252,15276,2,0,B|16:216|36:180|60:136|32:96,1,160
16,20,15945,1,8,0:0:0:0:
16,20,16168,6,0,P|52:60|152:60,1,160,2|0,0:0|0:0,0:0:0:0:
220,100,16837,2,0,P|272:96|312:100,1,80,10|0,0:0|0:0,0:0:0:0:
367,177,17283,2,0,P|339:179|287:175,2,80,0|0|10,0:0|0:0|0:0,0:0:0:0:
428,228,17952,1,0,0:0:0:0:
472,296,18175,2,0,P|400:312|336:368,1,160,0|10,0:0|0:0,0:0:0:0:
264,328,18845,2,0,P|212:336|164:328,1,80
108,308,19291,1,0,0:0:0:0:
52,252,19514,1,10,0:0:0:0:
68,176,19737,5,0,0:0:0:0:
68,176,19848,1,0,0:0:0:0:
68,176,19960,2,0,P|152:164|232:168,1,160,4|8,0:0|0:0,0:0:0:0:
304,188,20629,1,0,0:0:0:0:
372,148,20852,2,0,P|392:100|396:72,2,80,0|0|8,0:0|0:0|0:0,0:0:0:0:
372,228,21521,6,0,P|409:292|489:292,1,160,2|0,0:0|0:0,0:0:0:0:
452,224,22190,1,10,0:0:0:0:
452,144,22413,1,0,0:0:0:0:
384,100,22636,2,0,L|304:104,1,80
224,108,23082,1,8,0:0:0:0:
224,108,23305,6,0,P|200:168|104:176,1,160,2|0,0:0|0:0,0:0:0:0:
76,112,23975,1,8,0:0:0:0:
76,112,24198,2,0,P|32:172|68:244,1,160,2|0,0:0|0:0,0:0:0:0:
132,288,24867,1,8,0:0:0:0:
204,256,25090,6,0,P|284:256|348:316,1,160,2|0,0:0|0:0,0:0:0:0:
416,340,25759,2,0,P|416:296|428:260,1,80,10|0,0:0|0:0,0:0:0:0:
460,188,26205,1,0,0:0:0:0:
476,108,26428,1,0,0:0:0:0:
424,48,26651,1,8,0:0:0:0:
376,112,26874,6,0,P|292:112|236:64,1,160,2|0,0:0|0:0,0:0:0:0:
164,36,27543,1,10,0:0:0:0:
92,72,27766,1,0,0:0:0:0:
24,216,28213,1,0,0:0:0:0:
76,276,28436,1,8,0:0:0:0:
152,296,28659,2,0,P|232:288|316:300,1,160,2|0,0:0|0:0,0:0:0:0:
368,352,29328,2,0,P|356:256|392:192,1,160,10|0,0:0|0:0,0:0:0:0:
428,132,29997,6,0,P|448:92|452:56,2,80,0|10|0,0:0|0:0|0:0,0:0:0:0:
272,96,30889,1,0,0:0:0:0:
196,128,31112,1,8,0:0:0:0:
120,100,31335,2,0,P|84:176|92:256,1,160,2|0,0:0|0:0,0:0:0:0:
136,316,32004,1,8,0:0:0:0:
204,276,32227,1,0,0:0:0:0:
232,200,32450,6,0,P|272:208|316:196,1,80,2|0,0:0|0:0,0:0:0:0:
441,260,32897,2,0,P|404:252|364:260,1,80,8|0,0:0|0:0,0:0:0:0:
292,320,33343,1,10,0:0:0:0:
196,336,33566,1,0,0:0:0:0:
112,288,33789,1,12,0:0:0:0:
112,288,34235,6,0,P|116:224|60:152,1,160,4|8,0:0|0:0,0:0:0:0:
116,84,34904,1,0,0:0:0:0:
204,96,35127,2,0,P|208:48|200:12,2,80,0|0|8,0:0|0:0|0:0,0:0:0:0:
204,176,35796,6,0,P|264:224|360:208,1,160,2|0,0:0|0:0,0:0:0:0:
416,180,36465,1,8,0:0:0:0:
416,260,36688,2,0,P|396:300|288:336,1,160,0|2,0:0|0:0,0:0:0:0:
224,300,37358,1,8,0:0:0:0:
168,356,37581,2,0,B|112:336|112:336|84:304|84:304|28:292,1,160,2|0,0:0|0:0,0:0:0:0:
16,212,38250,2,0,P|56:152|28:64,1,160,10|0,0:0|0:0,0:0:0:0:
132,112,38919,5,0,0:0:0:0:
132,112,39142,2,0,L|216:108,1,80,10|0,0:0|0:0,0:0:0:0:
292,104,39588,1,0,0:0:0:0:
356,152,39811,1,2,0:0:0:0:
364,232,40034,2,0,L|284:235,1,80,8|2,0:0|0:0,0:0:0:0:
176,212,40480,1,8,0:0:0:0:
80,268,40703,1,0,0:0:0:0:
28,168,40926,2,0,P|7:130|8:93,1,80,10|0,0:0|0:0,0:0:0:0:
132,112,41372,5,4,0:0:0:0:
208,88,41595,1,0,0:0:0:0:
280,124,41818,2,0,B|328:164|328:164|312:212|338:258,1,160,8|0,0:0|0:0,0:0:0:0:
409,205,42488,2,0,P|445:177|461:137,2,80,0|10|0,0:0|0:0|0:0,0:0:0:0:
338,258,43157,1,2,0:0:0:0:
250,260,43380,2,0,P|214:288|198:328,2,80,0|8|2,0:0|0:0|0:0,0:0:0:0:
296,194,44049,1,0,0:0:0:0:
260,124,44272,5,0,0:0:0:0:
184,104,44495,1,10,0:0:0:0:
108,124,44718,2,0,B|88:176|88:176|88:232|88:232|64:280,1,160,0|0,0:0|0:0,0:0:0:0:
40,350,45387,1,10,0:0:0:0:
40,350,45610,2,0,P|128:330|180:386,1,160
278,379,46279,1,8,0:0:0:0:
353,307,46503,2,0,L|401:295,2,40,0|0|12,0:0|0:0|0:0,0:0:0:0:
275,291,46949,6,0,P|267:243|275:191,1,80
316,144,47395,1,0,0:0:0:0:
288,68,47618,1,0,0:0:0:0:
248,60,47729,1,0,0:0:0:0:
208,56,47841,2,0,P|200:36|196:8,2,40
208,56,48510,6,0,P|190:101|158:142,1,80,4|0,0:0|0:0,0:0:0:0:
112,180,48956,1,8,0:0:0:0:
36,160,49179,2,0,P|24:128|20:96,2,40
40,240,49625,1,0,0:0:0:0:
20,316,49848,2,0,P|64:320|100:336,1,80,8|0,0:0|0:0,0:0:0:0:
108,328,50183,1,0,0:0:0:0:
120,324,50294,1,2,0:0:0:0:
260,372,50517,5,0,0:0:0:0:
260,372,50740,2,0,P|285:332|318:315,1,80,8|0,0:0|0:0,0:0:0:0:
392,300,51187,1,0,0:0:0:0:
440,236,51410,1,0,0:0:0:0:
404,164,51633,2,0,P|392:124|392:80,1,80,8|0,0:0|0:0,0:0:0:0:
436,20,52079,1,2,0:0:0:0:
312,68,52302,6,0,L|232:64,1,80,0|8,0:0|0:0,0:0:0:0:
152,60,52748,1,0,0:0:0:0:
92,112,52971,1,0,0:0:0:0:
116,188,53194,2,0,P|104:228|100:272,1,80,0|8,0:0|0:0,0:0:0:0:
164,349,53640,6,0,P|176:309|180:272,2,80,0|2|0,0:0|0:0|0:0,0:0:0:0:
244,340,54309,2,0,P|272:316|296:280,1,80,10|0,0:0|0:0,0:0:0:0:
376,268,54755,2,0,B|388:208|388:208|417:186|417:186|424:119,1,160,0|10,0:0|0:0,0:0:0:0:
344,112,55424,1,0,0:0:0:0:
296,48,55647,1,0,0:0:0:0:
180,76,55871,5,0,0:0:0:0:
180,76,56094,2,0,P|172:120|172:160,1,80,10|0,0:0|0:0,0:0:0:0:
164,164,56428,1,0,0:0:0:0:
156,172,56540,2,0,P|155:207|147:251,1,80
108,320,56986,1,8,0:0:0:0:
176,360,57209,6,0,P|252:372|312:312,1,160,2|0,0:0|0:0,0:0:0:0:
360,240,57878,1,8,0:0:0:0:
452,272,58101,1,2,0:0:0:0:
488,116,58547,1,2,0:0:0:0:
412,140,58770,1,8,0:0:0:0:
352,88,58993,6,0,B|288:84|288:84|256:100|256:100|192:92,1,160,2|0,0:0|0:0,0:0:0:0:
116,76,59662,1,8,0:0:0:0:
172,20,59885,2,0,P|196:92|144:156,1,160,2|0,0:0|0:0,0:0:0:0:
56,200,60555,1,10,0:0:0:0:
96,296,60778,1,0,0:0:0:0:
192,256,61001,5,10,0:0:0:0:
252,204,61224,2,0,P|244:148|252:112,2,80,0|10|0,0:0|0:0|0:0,0:0:0:0:
292,272,61893,2,0,L|372:288,1,80,10|0,0:0|0:0,0:0:0:0:
408,296,62227,1,0,0:0:0:0:
448,304,62339,1,12,0:0:0:0:
448,304,62785,6,0,P|464:264|464:216,1,80,6|0,0:0|0:0,0:0:0:0:
416,164,63231,1,8,0:0:0:0:
464,100,63454,2,0,P|480:96|500:84,2,40,0|0|0,0:0|0:0|0:0,0:0:0:0:
384,92,63900,1,0,0:0:0:0:
320,44,64123,2,0,L|236:48,1,80,8|0,0:0|0:0,0:0:0:0:
204,64,64458,1,0,0:0:0:0:
168,80,64569,1,2,0:0:0:0:
74,205,64792,6,0,P|72:168|84:128,1,80,0|8,0:0|0:0,0:0:0:0:
169,174,65239,1,0,0:0:0:0:
171,213,65350,1,0,0:0:0:0:
162,251,65462,2,0,P|165:289|153:329,1,80
221,369,65908,2,0,L|309:353,1,80,8|0,0:0|0:0,0:0:0:0:
388,300,66354,5,2,0:0:0:0:
331,242,66577,2,0,P|303:206|291:166,2,80,0|8|0,0:0|0:0|0:0,0:0:0:0:
408,221,67246,2,0,P|452:213|484:193,2,80,2|0|8,0:0|0:0|0:0,0:0:0:0:
292,173,67915,6,0,P|211:158|155:206,1,160,2|0,0:0|0:0,0:0:0:0:
84,240,68584,2,0,P|64:200|60:156,1,80,8|0,0:0|0:0,0:0:0:0:
124,120,69030,2,0,P|119:85|99:45,2,80,2|0|8,0:0|0:0|0:0,0:0:0:0:
24,152,69700,1,0,0:0:0:0:
84,240,69923,5,4,0:0:0:0:
144,292,70146,1,0,0:0:0:0:
220,272,70369,2,0,P|260:272|300:284,1,80,8|0,0:0|0:0,0:0:0:0:
332,300,70703,1,0,0:0:0:0:
372,312,70815,2,0,P|388:248|412:216,1,80
432,164,71261,1,8,0:0:0:0:
432,164,71484,6,0,P|344:180|296:128,1,160,2|0,0:0|0:0,0:0:0:0:
240,40,72153,1,10,0:0:0:0:
148,104,72376,1,0,0:0:0:0:
80,260,72822,5,2,0:0:0:0:
148,308,73045,1,8,0:0:0:0:
208,256,73268,2,0,P|280:240|352:284,1,160,2|0,0:0|0:0,0:0:0:0:
412,356,73937,2,0,P|340:372|268:328,1,160,8|2,0:0|0:0,0:0:0:0:
189,179,74607,6,0,P|190:206|208:256,2,80,0|8|4,0:0|0:0|0:0,0:0:0:0:
350,228,75499,2,0,P|349:201|332:152,1,80,4|0,0:0|0:0,0:0:0:0:
312,116,75833,1,0,0:0:0:0:
280,92,75945,2,0,B|220:84|220:84|188:104|188:104|116:96,1,160,4|0,0:0|0:0,0:0:0:0:
16,112,76614,1,8,0:0:0:0:
80,204,76837,1,12,0:0:0:0:
256,192,76949,12,0,78845,0:0:0:0:
