osu file format v12

[General]
AudioFilename: stand_up___tv_size.mp3
AudioLeadIn: 1985
PreviewTime: 46738
Countdown: 1
SampleSet: Soft
StackLeniency: 0.7
Mode: 0
LetterboxInBreaks: 1

[Editor]
DistanceSpacing: 1
BeatDivisor: 2
GridSize: 4

[Metadata]
Title:Stand Up! (TV Size)
TitleUnicode:Stand Up! (TV Size)
Artist:twill
ArtistUnicode:twill
Creator:athiota33
Version:Easy
Source:Digimon Xros Wars: Toki wo Kakeru Shounen Hunter Tachi
Tags:The Hunting Boys Running Through Time opening kz livetune
BeatmapID:232439
BeatmapSetID:84361

[Difficulty]
HPDrainRate:2
CircleSize:3
OverallDifficulty:2
ApproachRate:3
SliderMultiplier:1
SliderTickRate:1

[Events]
//Background and Video events
0,0,"BG.jpg",1,1
//Break Periods
//Storyboard Layer 0 (Background)
//Storyboard Layer 1 (Fail)
//Storyboard Layer 2 (Pass)
//Storyboard Layer 3 (Foreground)
//Storyboard Sound Samples
//Background Colour Transformations
3,100,163,162,255

[TimingPoints]
332,446.096654275093,4,2,1,35,1,0
5685,-100,4,2,1,40,0,0
33789,-100,4,2,1,30,0,0
33900,-100,4,2,1,40,0,0
46726,-100,4,2,1,35,0,0
46837,-100,4,2,1,40,0,0
48511,-100,4,2,1,50,0,1
61001,-100,4,2,1,40,0,1
62339,-100,4,2,1,40,0,0
62450,-100,4,2,1,50,0,0
62785,-100,4,2,1,50,0,1
69918,-100,4,2,1,40,0,1
70034,-100,4,2,1,50,0,1
75973,-100,4,1,0,50,0,1
76391,-100,4,2,1,50,0,1
76838,-100,4,2,1,40,0,0
77506,-100,4,2,1,30,0,0
77952,-100,4,2,1,20,0,0
78398,-100,4,2,1,10,0,0
78846,-100,4,2,1,5,0,0

[Colours]
Combo1 : 236,205,32
Combo2 : 244,64,64
Combo3 : 70,70,251

[HitObjects]
176,336,332,2,0,P|252:356|324:336,2,150,2|2|2,0:0|0:0|0:0,0:0:0:0:
320,72,3008,6,0,P|240:52|176:74,1,150,2|4,0:0|0:0,0:0:0:0:
104,312,4792,5,2,0:0:0:0:
40,236,5239,1,0,0:0:0:0:
136,208,5685,6,0,L|236:204,1,100,4|8,0:0|0:0,0:0:0:0:
336,196,6577,1,0,0:0:0:0:
432,228,7023,2,0,P|456:172|464:104,2,100,8|0|8,0:0|0:0|0:0,0:0:0:0:
376,312,8361,5,0,0:0:0:0:
280,288,8807,2,0,B|244:280|216:300|180:292,1,100,8|0,0:0|0:0,0:0:0:0:
84,320,9700,2,0,P|48:256|52:196,1,100,8|0,0:0|0:0,0:0:0:0:
116,160,10592,1,8,0:0:0:0:
56,80,11038,1,0,0:0:0:0:
148,76,11484,2,0,L|256:72,1,100,8|0,0:0|0:0,0:0:0:0:
340,108,12376,1,8,0:0:0:0:
432,148,12822,6,0,P|424:244|336:264,1,200,2|0,0:0|0:0,0:0:0:0:
256,204,14160,1,8,0:0:0:0:
176,264,14607,2,0,P|88:244|80:148,1,200,2|0,0:0|0:0,0:0:0:0:
140,68,15945,1,8,0:0:0:0:
240,84,16391,6,0,P|288:64|316:12,2,100,2|8|0,0:0|0:0|0:0,0:0:0:0:
184,164,17729,1,8,0:0:0:0:
124,244,18175,2,0,P|76:264|48:316,2,100,0|8|0,0:0|0:0|0:0,0:0:0:0:
148,340,19514,1,8,0:0:0:0:
148,340,19960,6,0,B|208:352|208:352|252:324,1,100,4|8,0:0|0:0,0:0:0:0:
304,252,20852,2,0,B|336:231|336:231|396:243,1,100,0|8,0:0|0:0,0:0:0:0:
496,264,21744,1,0,0:0:0:0:
468,168,22190,1,8,0:0:0:0:
500,72,22636,2,0,L|400:64,1,100,0|8,0:0|0:0,0:0:0:0:
304,88,23529,5,0,0:0:0:0:
212,124,23975,2,0,P|196:96|200:16,2,100,8|0|8,0:0|0:0|0:0,0:0:0:0:
268,208,25313,1,0,0:0:0:0:
208,288,25759,1,8,0:0:0:0:
108,304,26205,2,0,P|88:256|40:224,1,100,0|8,0:0|0:0,0:0:0:0:
20,132,27097,6,0,B|88:124|128:160|128:160|180:80,1,200,2|0,0:0|0:0,0:0:0:0:
256,148,28436,1,8,0:0:0:0:
337,88,28882,2,0,B|384:160|384:160|424:124|492:132,1,200,2|0,0:0|0:0,0:0:0:0:
461,227,30220,6,0,P|424:256|404:304,1,100,8|0,0:0|0:0,0:0:0:0:
304,288,31112,1,8,0:0:0:0:
264,196,31558,1,0,0:0:0:0:
320,112,32004,1,8,0:0:0:0:
220,108,32450,2,0,P|168:116|120:108,1,100,2|8,0:0|0:0,0:0:0:0:
132,208,33343,2,0,P|80:200|32:208,1,100,2|4,0:0|0:0,0:0:0:0:
80,296,34235,6,0,P|180:296|232:220,1,200,12|0,0:0|0:0,0:0:0:0:
228,120,35573,1,8,0:0:0:0:
324,96,36019,2,0,L|424:92,1,100,0|8,0:0|0:0,0:0:0:0:
476,180,36911,1,0,0:0:0:0:
388,228,37358,6,0,P|320:260|256:236,2,100,8|0|8,0:0|0:0|0:0,0:0:0:0:
312,160,38696,2,0,P|280:92|304:28,2,100,0|8|0,0:0|0:0|0:0,0:0:0:0:
240,220,40034,2,0,L|132:212,1,100,8|0,0:0|0:0,0:0:0:0:
96,304,40926,1,8,0:0:0:0:
36,224,41372,6,0,P|24:132|40:104,1,100,4|8,0:0|0:0,0:0:0:0:
96,60,42265,1,0,0:0:0:0:
160,140,42711,1,8,0:0:0:0:
240,80,43157,2,0,P|296:76|344:84,1,100,0|8,0:0|0:0,0:0:0:0:
424,136,44049,1,0,0:0:0:0:
464,228,44495,1,8,0:0:0:0:
372,264,44941,6,0,L|252:256,1,100,2|8,0:0|0:0,0:0:0:0:
256,356,45833,2,0,L|152:308,1,100,0|8,0:0|0:0,0:0:0:0:
64,300,46726,5,12,0:0:0:0:
28,208,47172,2,0,P|8:156|8:108,2,100
104,144,48510,6,0,L|208:132,1,100,4|8,0:0|0:0,0:0:0:0:
304,120,49402,1,0,0:0:0:0:
356,204,49848,1,8,0:0:0:0:
436,144,50294,1,0,0:0:0:0:
448,240,50740,2,0,P|416:284|360:300,2,100,8|0|8,0:0|0:0|0:0,0:0:0:0:
356,204,52079,5,0,0:0:0:0:
260,220,52525,2,0,L|152:240,1,100,8|0,0:0|0:0,0:0:0:0:
104,320,53417,1,8,0:0:0:0:
12,356,53863,2,0,P|8:308|32:248,1,100,0|8,0:0|0:0,0:0:0:0:
80,176,54755,6,0,P|96:127|92:79,2,100,0|8|0,0:0|0:0|0:0,0:0:0:0:
136,248,56094,2,0,L|248:264,1,100,8|0,0:0|0:0,0:0:0:0:
332,288,56986,1,8,0:0:0:0:
412,228,57432,2,0,B|392:192|416:156|448:128|424:80,2,150,0|0|8,0:0|0:0|0:0,0:0:0:0:
404,328,59216,6,0,L|300:344,1,100,0|8,0:0|0:0,0:0:0:0:
204,344,60108,2,0,L|105:328,1,100,0|8,0:0|0:0,0:0:0:0:
32,264,61001,5,2,0:0:0:0:
84,180,61447,2,0,P|60:124|60:80,2,100,0|0|4,0:0|0:0|0:0,0:0:0:0:
152,252,62785,6,0,B|172:236|180:212|180:212|240:208,1,100,6|8,0:0|0:0,0:0:0:0:
332,200,63677,1,0,0:0:0:0:
396,124,64123,1,8,0:0:0:0:
468,192,64569,1,0,0:0:0:0:
408,272,65016,2,0,P|360:304|316:304,1,100,8|0,0:0|0:0,0:0:0:0:
228,264,65908,1,8,0:0:0:0:
164,340,66354,5,0,0:0:0:0:
76,296,66800,2,0,B|44:244|68:188,1,100,8|0,0:0|0:0,0:0:0:0:
76,100,67692,1,8,0:0:0:0:
160,156,68138,2,0,L|260:156,1,100,2|8,0:0|0:0,0:0:0:0:
332,224,69030,1,8,0:0:0:0:
384,140,69476,1,8,0:0:0:0:
456,212,69923,6,0,P|484:264|486:309,2,100,4|8|0,0:0|0:0|0:0,0:0:0:0:
388,284,71261,1,8,0:0:0:0:
388,284,71707,2,0,L|280:296,1,100,2|8,0:0|0:0,0:0:0:0:
220,368,72599,2,0,L|112:356,1,100,2|8,0:0|0:0,0:0:0:0:
20,340,73491,6,0,B|16:284|52:232,1,100,2|8,0:0|0:0,0:0:0:0:
144,264,74384,2,0,B|177:243|190:204|190:204|229:197|248:165,1,150,2|4,0:0|0:0,0:0:0:0:
172,104,75499,5,4,0:0:0:0:
256,48,75945,1,4,0:0:0:0:
340,104,76391,2,0,L|412:96,2,50,8|8|12,0:0|0:0|0:0,0:0:0:0:
256,192,77060,12,0,78845,0:0:0:0:
