osu file format v14

[General]
AudioFilename: el triciclo.mp3
AudioLeadIn: 0
PreviewTime: 171322
Countdown: 1
SampleSet: None
StackLeniency: 0.7
Mode: 0
LetterboxInBreaks: 1
WidescreenStoryboard: 0

[Editor]
DistanceSpacing: 1.1
BeatDivisor: 4
GridSize: 8
TimelineZoom: 1

[Metadata]
Title:Stressed Out
TitleUnicode:Stressed Out
Artist:twenty one pilots
ArtistUnicode:twenty one pilots
Creator:TheHitmanXx
Version:Normal
Source:
Tags:
BeatmapID:1478125
BeatmapSetID:697840

[Difficulty]
HPDrainRate:6
CircleSize:3
OverallDifficulty:6
ApproachRate:6
SliderMultiplier:1.00000000596046
SliderTickRate:2

[Events]
//Background and Video events
0,0,"maxresdefault.jpg",0,0
Video,0,"triciclo.avi"
//Break Periods
2,39521,49566
2,62816,72860
2,109404,118742
2,153875,163919
2,177168,187213
//Storyboard Layer 0 (Background)
//Storyboard Layer 1 (Fail)
//Storyboard Layer 2 (Pass)
//Storyboard Layer 3 (Foreground)
//Storyboard Sound Samples

[TimingPoints]
1910.41894664843,705.882352941176,4,2,0,90,1,0
51411,-100,4,2,0,100,0,1
62664,-100,4,2,0,90,0,0

[Colours]
Combo1 : 113,0,0
Combo2 : 128,128,128
Combo3 : 206,0,0
Combo4 : 192,192,192

[HitObjects]
152,128,498,6,0,P|224:88|248:88,1,100.000000596046,0|8,0:0|0:0,0:0:0:0:
288,80,1910,2,0,P|344:136|344:152,1,100.000000596046,0|8,0:0|0:0,0:0:0:0:
272,184,3322,2,0,L|168:240,1,100.000000596046,0|8,0:0|0:0,0:0:0:0:
192,160,4733,2,0,L|152:112,2,50.0000002980232
384,104,6145,5,0,0:0:0:0:
400,160,6498,1,0,0:0:0:0:
400,224,6851,2,0,L|296:264,1,100.000000596046,8|0,0:0|0:0,0:0:0:0:
272,232,8263,2,8,B|248:144|248:144|192:224|192:224|144:120,1,300.000001788139,8|0,0:0|0:0,0:0:0:0:
320,96,11792,5,0,0:0:0:0:
344,144,12498,2,0,P|368:200|352:240,1,100.000000596046
296,200,13557,1,0,0:0:0:0:
248,248,13910,1,0,0:0:0:0:
200,192,14263,1,0,0:0:0:0:
120,152,14616,6,0,P|176:96|296:80,1,200.000001192093
336,128,16381,1,0,0:0:0:0:
296,192,16733,1,0,0:0:0:0:
368,200,17086,1,0,0:0:0:0:
184,128,17439,6,0,P|128:184|128:208,2,100.000000596046
264,104,19204,1,0,0:0:0:0:
336,112,19557,2,0,L|384:144,1,50.000000298023
400,296,20263,5,0,0:0:0:0:
304,296,20616,1,0,0:0:0:0:
224,296,20969,2,0,P|120:232|144:64,1,300.000001788138
304,80,23792,5,0,0:0:0:0:
360,144,24145,2,0,L|408:184,2,50.000000298023
304,80,25204,1,0,0:0:0:0:
184,120,25910,6,0,P|200:208|280:288,1,200.000001192092
320,248,28028,1,0,0:0:0:0:
120,104,28733,6,0,B|400:104|400:104|400:224,1,400.000002384184
296,208,31910,1,0,0:0:0:0:
208,208,32263,2,0,L|104:208,2,100.000000596046,8|0|8,0:0|0:0|0:0,0:0:0:0:
96,304,34381,2,0,B|384:304|384:304|384:192,1,400.000002384184
304,184,37557,1,0,0:0:0:0:
216,184,37910,2,0,L|112:184,2,100.000000596046,8|0|8,0:0|0:0|0:0,0:0:0:0:
328,136,50616,6,0,L|352:96,2,25.0000001490115
240,120,51322,1,0,0:0:0:0:
184,176,51675,1,0,0:0:0:0:
360,96,52028,2,0,P|384:216|352:288,1,200.000001192092,8|0,0:0|0:0,0:0:0:0:
184,296,53792,5,0,0:0:0:0:
120,240,54145,1,0,0:0:0:0:
200,208,54498,1,0,0:0:0:0:
103,143,54851,2,0,P|199:79|287:87,1,200.000001192092,8|0,0:0|0:0,0:0:0:0:
360,176,56969,5,0,0:0:0:0:
288,256,57322,2,0,P|240:296|232:304,2,50.000000298023,0|8|0,0:0|0:0|0:0,0:0:0:0:
360,176,58381,1,0,0:0:0:0:
336,64,58733,1,0,0:0:0:0:
184,64,59086,6,0,P|104:200|112:248,1,200.000001192092,8|0,0:0|0:0,0:0:0:0:
256,192,60851,12,0,62616,0:0:0:0:
293,83,73910,5,0,0:0:0:0:
360,143,74263,1,0,0:0:0:0:
296,209,74616,2,0,L|249:274,2,75.0000004470345
345,124,76028,2,0,L|376:53,2,75.0000004470345
228,126,77439,1,0,0:0:0:0:
323,148,77792,6,0,L|401:131,2,75.0000004470345
229,168,79204,1,0,0:0:0:0:
131,165,79557,1,0,0:0:0:0:
144,248,79910,2,0,L|240:309,1,100.000000596046
320,288,80969,2,0,L|391:211,1,100.000000596046
134,111,82028,5,0,0:0:0:0:
226,104,82381,2,0,P|320:94|411:146,1,200.000001192092
341,218,84145,2,0,L|323:243,2,25.0000001490115
383,111,84851,2,0,L|407:76,2,25.0000001490115
143,262,85910,5,0,0:0:0:0:
226,201,86263,1,0,0:0:0:0:
238,295,86616,2,0,L|347:298,1,100.000000596046
388,215,87675,1,0,0:0:0:0:
339,89,88028,2,0,P|253:63|160:95,2,175.00000104308
372,169,90851,1,0,0:0:0:0:
144,281,91557,5,0,0:0:0:0:
226,282,91910,1,0,0:0:0:0:
307,282,92263,1,0,0:0:0:0:
373,227,92616,2,0,L|416:181,2,50.000000298023
276,324,93675,5,0,0:0:0:0:
247,248,94028,1,0,0:0:0:0:
214,171,94381,1,0,0:0:0:0:
176,93,94733,2,0,L|141:38,2,50.000000298023
214,171,95792,1,0,0:0:0:0:
311,230,96498,6,0,L|361:185,1,50.000000298023
346,100,97204,2,0,L|279:89,1,50.000000298023
189,133,97910,1,0,0:0:0:0:
144,248,98263,1,0,0:0:0:0:
240,288,98616,2,0,P|312:296|336:280,2,100.000000596046,8|0|8,0:0|0:0|0:0,0:0:0:0:
168,232,100381,1,0,0:0:0:0:
128,112,100733,1,0,0:0:0:0:
344,80,101439,6,0,P|368:136|368:144,1,50.000000298023,8|0,0:0|0:0,0:0:0:0:
304,160,102145,2,0,P|320:200|328:208,1,50.000000298023
360,280,102851,1,8,0:0:0:0:
224,312,103557,2,0,P|136:272|120:224,1,150.000000894069
152,128,104969,2,0,P|248:64|280:64,1,150.000000894069
384,144,106381,1,0,0:0:0:0:
168,304,107086,5,8,0:0:0:0:
280,272,107439,1,0,0:0:0:0:
368,208,107792,2,0,L|408:168,2,50.000000298023
280,272,109204,1,0,0:0:0:0:
168,128,119792,6,0,L|152:96,2,25.0000001490115
304,192,120498,1,0,0:0:0:0:
256,240,120851,1,0,0:0:0:0:
328,256,121204,1,0,0:0:0:0:
408,288,121557,2,0,L|464:328,2,50.000000298023
320,232,122616,1,0,0:0:0:0:
144,128,123322,5,0,0:0:0:0:
112,192,123675,1,0,0:0:0:0:
176,192,124028,1,0,0:0:0:0:
256,128,124381,2,0,L|296:96,2,50.000000298023
192,200,125439,1,0,0:0:0:0:
104,280,126145,2,0,P|272:320|304:304,2,200.000001192092
352,112,129675,5,0,0:0:0:0:
384,232,130028,2,0,L|400:272,2,25.0000001490115
280,200,130733,2,0,L|256:224,2,25.0000001490115
208,96,131792,6,0,B|360:96|360:96|360:200|360:200|200:200,2,400.000002384184
128,136,137792,1,0,0:0:0:0:
128,232,138145,2,0,L|128:344,1,100.000000596046
224,312,139204,1,0,0:0:0:0:
288,232,139557,1,0,0:0:0:0:
256,192,139910,12,0,141675,0:0:0:0:
256,144,142028,6,0,L|256:96,2,25.0000001490115
128,216,143086,5,0,0:0:0:0:
176,272,143439,1,0,0:0:0:0:
224,320,143792,1,0,0:0:0:0:
304,320,144145,2,0,L|400:200,1,150.000000894069
336,144,145910,1,0,0:0:0:0:
288,96,146263,1,0,0:0:0:0:
232,56,146616,1,0,0:0:0:0:
176,112,146969,2,0,L|80:232,1,150.000000894069
376,144,148733,5,0,0:0:0:0:
304,88,149086,1,0,0:0:0:0:
280,176,149439,1,0,0:0:0:0:
208,112,149792,1,0,0:0:0:0:
136,168,150145,2,0,P|96:224|96:240,2,75.0000004470345
256,192,151557,12,0,153675,0:0:0:0:
184,120,164969,5,0,0:0:0:0:
248,152,165322,1,0,0:0:0:0:
184,192,165675,1,0,0:0:0:0:
136,272,166028,2,0,L|88:328,1,50.000000298023
256,296,167086,1,0,0:0:0:0:
344,208,167439,1,0,0:0:0:0:
416,112,167792,1,0,0:0:0:0:
144,64,168498,6,0,P|80:104|80:144,1,100.000000596046
152,144,169910,1,0,0:0:0:0:
224,200,170263,1,0,0:0:0:0:
296,256,170616,1,0,0:0:0:0:
360,64,171322,6,0,B|440:104|440:104|432:136,1,100.000000596046
360,152,172381,2,0,B|312:216|312:216|344:232,1,100.000000596046
416,216,173439,1,0,0:0:0:0:
344,288,173792,1,0,0:0:0:0:
272,208,174145,1,0,0:0:0:0:
256,88,174851,5,0,0:0:0:0:
208,192,175204,2,0,L|104:192,1,100.000000596046
296,192,176263,2,0,L|408:192,1,100.000000596046
160,120,188263,5,0,0:0:0:0:
200,184,188616,1,0,0:0:0:0:
136,224,188969,1,8,0:0:0:0:
192,280,189322,1,0,0:0:0:0:
264,240,189675,1,0,0:0:0:0:
304,296,190028,1,0,0:0:0:0:
352,240,190381,1,8,0:0:0:0:
384,152,191086,6,0,P|400:88|384:80,1,100.000000596046,0|8,0:0|0:0,0:0:0:0:
320,104,192145,2,0,P|304:144|328:200,2,100.000000596046
400,152,193910,1,0,0:0:0:0:
424,232,194263,1,0,0:0:0:0:
352,208,194616,1,8,0:0:0:0:
328,144,194969,1,0,0:0:0:0:
256,104,195322,2,0,P|192:120|112:232,1,200.000001192092
256,192,197086,12,0,198851,0:0:0:0:
