osu file format v14

[General]
AudioFilename: twenty one pilots - Ride.mp3
AudioLeadIn: 0
PreviewTime: 59750
Countdown: 0
SampleSet: Soft
StackLeniency: 0.7
Mode: 0
LetterboxInBreaks: 0
WidescreenStoryboard: 0

[Editor]
Bookmarks: 71950,215350
DistanceSpacing: 1
BeatDivisor: 4
GridSize: 4
TimelineZoom: 2.6

[Metadata]
Title:Ride
TitleUnicode:Ride
Artist:twenty one pilots
ArtistUnicode:twenty one pilots
Creator:Aia
Version:End
Source:
Tags:Blurryface TOP
BeatmapID:888817
BeatmapSetID:409452

[Difficulty]
HPDrainRate:6.8
CircleSize:4
OverallDifficulty:7.7
ApproachRate:8.5
SliderMultiplier:1.7
SliderTickRate:1

[Events]
//Background and Video events
0,0,"qBFWiRl.png",0,0
//Break Periods
2,23550,35475
2,125750,137875
2,189950,201875
//Storyboard Layer 0 (Background)
//Storyboard Layer 1 (Fail)
//Storyboard Layer 2 (Pass)
//Storyboard Layer 3 (Foreground)
//Storyboard Sound Samples

[TimingPoints]
10550,400,4,2,0,35,1,0
23350,-100,4,2,0,40,0,0
36150,-100,4,2,0,35,0,0
48950,-125,4,2,0,30,0,0
60150,-142.857142857143,4,2,0,30,0,0
60950,-166.666666666667,4,2,0,30,0,0
61750,-83.3333333333333,4,2,0,55,0,1
71350,-100,4,2,0,45,0,0
100150,-142.857142857143,4,2,0,30,0,0
112150,-166.666666666667,4,2,0,25,0,0
112950,-83.3333333333333,4,2,0,55,0,1
122550,-100,4,2,0,45,0,0
138550,-166.666666666667,4,2,0,45,0,0
141550,-166.666666666667,4,2,0,40,0,0
141650,-166.666666666667,4,2,0,35,0,0
151350,-100,4,2,0,45,0,0
164150,-83.3333333333333,4,2,0,55,0,1
173750,-100,4,2,0,55,0,0
176950,-83.3333333333333,4,2,0,55,0,1
183150,-83.3333333333333,4,2,0,55,0,0
183350,-83.3333333333333,4,2,0,55,0,1
189750,-100,4,2,0,45,0,0
202550,-166.666666666667,4,2,0,45,0,0

[Colours]
Combo1 : 203,171,135
Combo2 : 156,164,177
Combo3 : 233,88,88
Combo4 : 198,203,208

[HitObjects]
340,128,10550,5,0,0:0:0:0:
304,204,10750,1,0,0:0:0:0:
248,105,10950,1,8,0:0:0:0:
405,180,11150,1,0,0:0:0:0:
238,296,11350,2,0,L|146:281,1,85,4|0,0:0|0:0,0:0:0:0:
92,224,11750,1,8,0:0:0:0:
176,204,11950,1,2,0:0:0:0:
117,142,12150,6,0,L|32:154,1,85
172,76,12550,1,8,0:0:0:0:
92,224,12750,1,2,0:0:0:0:
211,315,12950,2,0,L|311:303,1,85
351,239,13350,1,8,0:0:0:0:
293,123,13550,1,2,0:0:0:0:
442,221,13750,6,0,L|423:304,1,85
352,352,14150,1,8,0:0:0:0:
259,241,14350,1,2,0:0:0:0:
152,356,14550,2,0,L|60:336,1,85,4|0,0:0|0:0,0:0:0:0:
32,260,14950,1,8,0:0:0:0:
68,184,15150,1,2,0:0:0:0:
40,104,15350,5,0,0:0:0:0:
84,32,15550,1,0,0:0:0:0:
155,78,15750,1,8,0:0:0:0:
68,184,15950,1,2,0:0:0:0:
191,275,16150,2,0,L|284:262,1,85
340,208,16550,1,8,0:0:0:0:
424,321,16750,1,2,0:0:0:0:
480,177,16950,6,0,L|462:90,1,85
396,44,17350,1,8,0:0:0:0:
303,136,17550,1,2,0:0:0:0:
176,58,17750,2,0,L|92:74,1,85,4|0,0:0|0:0,0:0:0:0:
32,136,18150,1,8,0:0:0:0:
64,216,18350,1,2,0:0:0:0:
24,292,18550,5,0,0:0:0:0:
95,337,18750,1,0,0:0:0:0:
144,268,18950,1,8,0:0:0:0:
245,361,19150,1,2,0:0:0:0:
328,237,19350,2,0,P|335:195|321:138,1,85
260,100,19750,1,8,0:0:0:0:
144,151,19950,1,2,0:0:0:0:
16,48,20150,6,0,L|120:28,1,85
180,64,20550,1,8,0:0:0:0:
119,195,20750,1,2,0:0:0:0:
249,305,20950,2,0,P|292:310|352:291,1,85,4|0,0:0|0:0,0:0:0:0:
384,232,21350,1,8,0:0:0:0:
348,156,21550,1,2,0:0:0:0:
424,40,21750,6,0,L|328:28,1,85
180,105,22150,1,8,0:0:0:0:
220,28,22350,1,0,0:0:0:0:
220,28,22450,1,0,0:0:0:0:
220,28,22550,2,0,P|256:60|267:117,1,85
260,136,22850,2,0,L|213:160,1,42.5,0|4,0:0|0:0,0:0:0:0:
160,216,23150,1,0,0:0:0:0:
231,318,23350,5,10,0:0:0:0:
408,114,36150,6,0,L|392:210,1,85
340,264,36550,1,8,0:0:0:0:
232,192,36750,1,2,0:0:0:0:
132,321,36950,2,0,L|110:237,1,85,4|0,0:0|0:0,0:0:0:0:
128,156,37350,1,8,0:0:0:0:
88,80,37550,1,2,0:0:0:0:
160,36,37750,6,0,P|201:31|257:39,1,85
312,88,38150,1,8,0:0:0:0:
254,206,38350,1,2,0:0:0:0:
381,318,38550,2,0,P|447:273|439:184,1,170
330,115,39150,1,8,0:0:0:0:
223,226,39350,6,0,L|52:199,1,170
136,293,39950,1,8,0:0:0:0:
212,145,40150,2,0,P|207:104|178:58,1,85,4|0,0:0|0:0,0:0:0:0:
112,24,40550,1,8,0:0:0:0:
52,84,40750,1,0,0:0:0:0:
72,168,40950,1,0,0:0:0:0:
36,244,41150,1,0,0:0:0:0:
84,312,41350,2,0,L|188:300,1,85,8|0,0:0|0:0,0:0:0:0:
333,339,41750,2,0,P|283:273|308:184,1,170
429,204,42350,1,8,0:0:0:0:
348,70,42550,6,0,P|305:61|246:75,1,85
196,120,42950,1,8,0:0:0:0:
80,60,43150,1,2,0:0:0:0:
12,192,43350,2,0,L|113:172,1,85
172,212,43750,1,8,0:0:0:0:
140,292,43950,1,2,0:0:0:0:
212,336,44150,6,0,L|304:324,1,85
356,264,44550,1,8,0:0:0:0:
278,166,44750,1,2,0:0:0:0:
155,278,44950,2,0,L|63:266,1,85
0,313,45350,1,8,0:0:0:0:
95,195,45550,1,2,0:0:0:0:
154,364,45750,6,0,P|200:352|236:310,1,85
240,244,46150,1,8,0:0:0:0:
174,139,46350,1,2,0:0:0:0:
318,56,46550,2,0,P|421:93|401:219,1,255,4|0,0:0|0:0,0:0:0:0:
235,301,47350,6,0,L|335:313,1,85,0|2,0:0|0:0,0:0:0:0:
206,213,47750,1,8,0:0:0:0:
140,336,47950,1,0,0:0:0:0:
140,336,48050,1,0,0:0:0:0:
140,336,48150,2,0,L|37:349,1,85
20,324,48450,2,0,P|8:302|3:276,1,42.5,0|4,0:0|0:0,0:0:0:0:
32,200,48750,1,0,0:0:0:0:
90,250,48950,6,0,L|172:232,1,68,0|2,0:0|0:0,0:0:0:0:
276,304,49350,2,0,L|194:286,1,68,0|2,0:0|0:0,0:0:0:0:
320,210,49750,2,0,P|371:242|376:340,1,136,0|8,0:0|0:0,0:0:0:0:
238,142,50550,2,0,L|250:46,1,68,0|2,0:0|0:0,0:0:0:0:
162,182,50950,2,0,L|150:86,1,68,0|2,0:0|0:0,0:0:0:0:
103,241,51350,5,8,0:0:0:0:
232,340,51750,1,2,0:0:0:0:
340,216,52150,2,0,L|364:64,1,136,0|8,0:0|0:0,0:0:0:0:
200,116,52950,6,0,P|139:96|101:155,1,136,2|8,0:0|0:0,0:0:0:0:
239,233,53750,2,0,L|346:214,2,102,2|0|0,0:0|0:0|0:0,0:0:0:0:
150,292,54550,2,0,L|43:273,2,102,2|0|2,0:0|0:0|0:0,0:0:0:0:
292,348,55350,2,0,L|216:360,1,68,0|2,0:0|0:0,0:0:0:0:
406,293,55750,2,0,L|338:282,1,68,0|2,0:0|0:0,0:0:0:0:
456,360,56150,2,0,P|488:306|461:229,1,136,0|8,0:0|0:0,0:0:0:0:
332,152,56950,6,0,L|252:170,1,68,0|2,0:0|0:0,0:0:0:0:
252,86,57350,2,0,L|185:71,1,68,0|2,0:0|0:0,0:0:0:0:
136,4,57750,1,8,0:0:0:0:
48,144,58150,1,2,0:0:0:0:
156,268,58550,2,0,P|218:283|304:252,1,136,2|8,0:0|0:0,0:0:0:0:
392,136,59350,2,0,B|356:80|356:80|275:54,1,136,2|8,0:0|0:0,0:0:0:0:
167,166,60150,6,0,L|155:279,2,89.2499972763062,2|8|0,0:0|0:0|0:0,0:0:0:0:
236,120,60950,6,0,L|226:29,2,76.4999976654053,2|8|0,0:0|0:0|0:0,0:0:0:0:
316,212,61750,6,0,P|368:216|432:196,1,101.999996887207,4|0,1:0|0:0,0:0:0:0:
500,148,62150,1,8,0:0:0:0:
404,49,62350,1,2,0:0:0:0:
264,119,62550,2,0,L|156:107,1,101.999996887207,4|0,2:0|0:0,0:0:0:0:
68,148,62950,1,8,0:0:0:0:
100,244,63150,1,2,0:0:0:0:
64,340,63350,5,0,0:0:0:0:
164,328,63550,1,0,0:0:0:0:
164,328,63650,1,0,0:0:0:0:
164,328,63750,1,0,0:0:0:0:
12,265,63950,1,0,0:0:0:0:
170,168,64150,6,0,L|284:176,1,101.999996887207
369,144,64550,1,8,0:0:0:0:
288,265,64750,1,2,0:0:0:0:
297,74,64950,2,0,L|407:57,1,101.999996887207
488,104,65350,1,8,0:0:0:0:
440,204,65550,1,2,0:0:0:0:
408,47,65750,1,4,2:0:0:0:
340,108,65950,1,0,0:0:0:0:
332,200,66150,1,0,0:0:0:0:
296,284,66350,1,0,0:0:0:0:
204,292,66550,6,0,P|129:280|45:294,2,152.999995330811
357,353,67350,2,0,P|432:365|516:351,2,152.999995330811
293,209,68150,2,0,L|313:109,1,101.999996887207,4|0,1:0|0:0,0:0:0:0:
388,40,68550,1,8,0:0:0:0:
423,169,68750,1,2,0:0:0:0:
227,113,68950,2,0,L|119:125,1,101.999996887207,4|0,2:0|0:0,0:0:0:0:
40,180,69350,1,8,0:0:0:0:
124,240,69550,1,2,0:0:0:0:
48,308,69750,5,0,0:0:0:0:
140,356,69950,1,0,0:0:0:0:
236,324,70150,1,8,0:0:0:0:
368,378,70350,1,2,0:0:0:0:
447,211,70550,2,0,P|427:121|308:129,1,203.999993774414
208,208,71150,1,8,0:0:0:0:
99,91,71350,6,0,L|191:70,1,85
264,92,71750,1,8,0:0:0:0:
236,12,71950,1,2,0:0:0:0:
209,169,72150,2,0,L|226:266,1,85,4|0,1:0|0:0,0:0:0:0:
292,304,72550,1,8,0:0:0:0:
340,236,72750,1,2,0:0:0:0:
200,181,72950,6,0,P|158:182|108:169,1,85
64,108,73350,1,8,0:0:0:0:
177,36,73550,1,0,0:0:0:0:
177,36,73650,1,0,0:0:0:0:
177,36,73750,2,0,P|223:34|268:41,1,85
292,68,74050,2,0,L|288:128,1,42.5,0|4,0:0|2:0,0:0:0:0:
336,184,74350,1,0,0:0:0:0:
449,110,74550,1,0,0:0:0:0:
428,268,74950,5,8,0:0:0:0:
408,292,75750,1,8,0:0:0:0:
384,316,76550,1,8,0:0:0:0:
384,316,76950,2,0,L|296:308,1,85,4|0,2:0|0:0,0:0:0:0:
144,261,77350,2,0,L|232:253,1,85
368,179,77750,1,8,0:0:0:0:
296,132,77950,1,2,0:0:0:0:
372,96,78150,1,0,0:0:0:0:
322,245,78350,1,8,0:0:0:0:
201,110,78550,6,0,P|112:107|56:172,1,170,4|8,2:0|0:0,0:0:0:0:
84,244,79150,1,2,0:0:0:0:
160,284,79350,2,0,L|244:280,1,85
322,245,79750,1,8,0:0:0:0:
250,144,79950,1,0,0:0:0:0:
368,52,80150,1,4,2:0:0:0:
424,116,80350,1,0,0:0:0:0:
424,116,80450,1,0,0:0:0:0:
424,116,80550,1,0,0:0:0:0:
286,70,80750,1,8,0:0:0:0:
322,245,80950,6,0,L|492:216,1,170
401,326,81550,1,8,0:0:0:0:
326,167,81750,2,0,L|230:160,1,85,4|0,2:0|0:0,0:0:0:0:
172,108,82150,1,0,0:0:0:0:
204,28,82350,1,0,0:0:0:0:
120,40,82550,1,0,0:0:0:0:
84,116,82750,1,0,0:0:0:0:
128,188,82950,1,0,0:0:0:0:
259,99,83150,5,8,0:0:0:0:
333,281,83350,2,0,B|248:296|248:296|160:276,1,170,4|0,2:0|0:0,0:0:0:0:
104,220,83950,1,8,0:0:0:0:
256,121,84150,2,0,P|280:198|203:185,1,170
160,64,84750,1,8,0:0:0:0:
332,79,84950,1,4,2:0:0:0:
368,156,85150,1,0,0:0:0:0:
348,240,85350,1,0,0:0:0:0:
279,290,85550,1,0,0:0:0:0:
194,281,85750,5,0,0:0:0:0:
116,312,85950,1,0,0:0:0:0:
36,280,86150,1,0,0:0:0:0:
108,176,86350,1,8,0:0:0:0:
205,291,86550,2,0,L|397:243,1,170,4|0,2:0|0:0,0:0:0:0:
448,284,87150,1,8,0:0:0:0:
502,163,87350,6,0,P|498:121|474:79,1,85,4|0,1:0|0:0,0:0:0:0:
356,48,87750,1,0,0:0:0:0:
284,96,87950,1,0,0:0:0:0:
244,84,88050,1,0,0:0:0:0:
204,72,88150,1,4,2:0:0:0:
124,96,88350,1,8,0:0:0:0:
152,176,88550,1,0,0:0:0:0:
108,248,88750,1,8,0:0:0:0:
187,304,88950,5,0,0:0:0:0:
268,284,89150,1,0,0:0:0:0:
348,260,89350,1,0,0:0:0:0:
464,312,89550,1,8,0:0:0:0:
512,149,89750,2,0,P|495:72|407:43,1,170,4|0,2:0|0:0,0:0:0:0:
320,124,90350,1,0,0:0:0:0:
256,68,90550,5,4,2:0:0:0:
215,61,90650,1,0,0:0:0:0:
174,55,90750,1,0,0:0:0:0:
133,49,90850,1,0,0:0:0:0:
91,43,90950,2,0,P|69:80|69:129,1,85,12|0,2:0|0:0,0:0:0:0:
67,121,91250,1,0,0:0:0:0:
67,121,91350,1,4,2:0:0:0:
140,168,91550,1,0,0:0:0:0:
220,136,91750,1,0,0:0:0:0:
284,192,91950,1,8,0:0:0:0:
364,164,92150,5,0,0:0:0:0:
448,188,92350,1,0,0:0:0:0:
476,268,92550,1,0,0:0:0:0:
376,348,92750,1,8,0:0:0:0:
232,256,92950,2,0,L|56:244,1,170,4|0,2:0|0:0,0:0:0:0:
152,152,93550,1,8,0:0:0:0:
307,216,93750,6,0,P|316:259|295:316,1,85,4|0,1:0|0:0,0:0:0:0:
306,298,94050,1,0,0:0:0:0:
306,298,94150,1,4,2:0:0:0:
234,184,94350,1,8,0:0:0:0:
144,300,94550,2,0,P|68:292|32:210,1,170,4|0,2:0|0:0,0:0:0:0:
68,136,95150,1,8,0:0:0:0:
132,80,95350,5,0,0:0:0:0:
214,99,95550,1,0,0:0:0:0:
290,60,95750,1,0,0:0:0:0:
412,128,95950,1,8,0:0:0:0:
352,288,96150,2,0,P|304:236|341:141,1,170,4|0,2:0|0:0,0:0:0:0:
412,128,96750,1,8,0:0:0:0:
276,57,96950,6,0,P|233:53|191:59,1,85,4|0,1:0|0:0,0:0:0:0:
191,58,97250,1,0,0:0:0:0:
191,58,97350,1,4,2:0:0:0:
132,120,97550,1,8,0:0:0:0:
216,216,97750,2,0,L|312:192,1,85,4|0,2:0|0:0,0:0:0:0:
384,208,98150,1,8,0:0:0:0:
416,288,98350,1,2,0:0:0:0:
380,364,98550,5,0,0:0:0:0:
296,372,98750,1,0,0:0:0:0:
232,316,98950,1,0,0:0:0:0:
284,248,99150,1,0,0:0:0:0:
280,204,99250,1,0,0:0:0:0:
275,161,99350,2,0,B|218:138|218:138|148:133,1,127.5,12|4,2:0|2:0,0:0:0:0:
116,152,99750,2,0,P|96:189|93:231,1,85,4|4,2:0|2:0,0:0:0:0:
168,272,100150,6,0,L|248:268,1,59.4999981842042,0|2,0:0|0:0,0:0:0:0:
354,326,100550,2,0,L|274:322,1,59.4999981842042,0|2,0:0|0:0,0:0:0:0:
418,260,100950,2,0,P|422:201|401:143,1,118.999996368408,0|8,0:0|0:0,0:0:0:0:
264,56,101750,2,0,L|184:48,2,59.4999981842042,0|2|0,0:0|0:0|0:0,0:0:0:0:
344,76,102350,2,0,L|424:68,1,59.4999981842042,2|0,0:0|0:0,0:0:0:0:
496,208,102950,1,8,0:0:0:0:
372,320,103350,2,0,P|314:325|239:296,1,118.999996368408
156,176,104150,6,0,B|169:118|169:118|204:57,1,118.999996368408,0|8,0:0|0:0,0:0:0:0:
348,144,104950,2,0,P|304:154|255:151,2,89.2499972763062,2|8|0,0:0|0:0|0:0,0:0:0:0:
408,84,105750,2,0,P|452:74|501:77,2,89.2499972763062,2|8|0,0:0|0:0|0:0,0:0:0:0:
348,144,106550,2,0,L|360:204,1,59.4999981842042,0|2,0:0|0:0,0:0:0:0:
400,276,106950,2,0,L|388:336,1,59.4999981842042,0|2,0:0|0:0,0:0:0:0:
312,368,107350,2,0,P|252:367|192:328,1,118.999996368408,0|8,0:0|0:0,0:0:0:0:
112,196,108150,6,0,L|180:180,1,59.4999981842042,0|2,0:0|0:0,0:0:0:0:
252,208,108550,2,0,L|309:221,1,59.4999981842042,0|2,0:0|0:0,0:0:0:0:
388,192,108950,2,0,P|415:141|408:80,1,118.999996368408,0|8,0:0|0:0,0:0:0:0:
252,24,109750,1,2,0:0:0:0:
100,92,110150,1,8,0:0:0:0:
196,228,110550,2,0,L|336:204,1,118.999996368408,0|8,0:0|0:0,0:0:0:0:
212,340,111350,6,0,P|170:342|116:331,2,89.2499972763062,2|8|0,0:0|0:0|0:0,0:0:0:0:
292,312,112150,6,0,P|330:310|384:320,2,76.4999976654053,2|10|0,0:0|0:0|0:0,0:0:0:0:
192,212,112950,6,0,L|204:96,1,101.999996887207,4|0,1:0|0:0,0:0:0:0:
268,32,113350,1,8,0:0:0:0:
343,147,113550,1,2,0:0:0:0:
497,69,113750,2,0,L|517:185,1,101.999996887207,4|0,2:0|0:0,0:0:0:0:
476,252,114150,1,8,0:0:0:0:
384,248,114350,1,2,0:0:0:0:
324,316,114550,5,0,0:0:0:0:
252,260,114750,1,0,0:0:0:0:
252,260,114850,1,0,0:0:0:0:
252,260,114950,1,0,0:0:0:0:
160,360,115150,1,8,0:0:0:0:
83,193,115350,2,0,L|186:174,1,101.999996887207
248,108,115750,1,8,0:0:0:0:
321,214,115950,1,2,0:0:0:0:
408,65,116150,6,0,L|305:46,1,101.999996887207
220,72,116550,1,8,0:0:0:0:
140,28,116750,1,2,0:0:0:0:
140,28,116850,1,2,0:0:0:0:
140,28,116950,1,6,2:0:0:0:
76,96,117150,1,0,0:0:0:0:
116,180,117350,1,8,0:0:0:0:
88,268,117550,1,0,0:0:0:0:
156,328,117750,6,0,L|272:312,1,101.999996887207
320,248,118150,1,8,0:0:0:0:
194,174,118350,1,2,0:0:0:0:
353,120,118550,1,0,0:0:0:0:
284,60,118750,1,0,0:0:0:0:
372,28,118950,1,0,0:0:0:0:
319,154,119150,1,8,0:0:0:0:
197,38,119350,6,0,L|78:67,1,101.999996887207,4|0,1:0|0:0,0:0:0:0:
40,132,119750,1,8,0:0:0:0:
140,228,119950,1,2,0:0:0:0:
15,325,120150,1,4,2:0:0:0:
96,368,120350,1,0,0:0:0:0:
184,336,120550,1,0,0:0:0:0:
272,368,120750,1,0,0:0:0:0:
324,292,120950,5,0,0:0:0:0:
412,372,121150,1,0,0:0:0:0:
412,372,121250,1,0,0:0:0:0:
412,372,121350,1,0,0:0:0:0:
484,252,121550,1,8,0:0:0:0:
412,136,121750,2,0,P|320:120|265:207,1,203.999993774414,6|0,2:0|0:0,0:0:0:0:
224,334,122350,1,8,0:0:0:0:
115,200,122550,6,0,L|102:109,1,85
140,48,122950,1,8,0:0:0:0:
258,109,123150,1,2,0:0:0:0:
369,15,123350,1,4,2:0:0:0:
424,68,123550,1,0,0:0:0:0:
404,140,123750,2,0,L|420:236,1,85,8|0,0:0|0:0,0:0:0:0:
329,332,124150,6,0,P|288:323|235:274,1,85
216,232,124550,1,8,0:0:0:0:
318,159,124750,1,0,0:0:0:0:
318,159,124850,1,0,0:0:0:0:
318,159,124950,2,0,P|305:104|243:57,1,127.5,0|8,0:0|0:0,0:0:0:0:
214,71,125350,2,0,B|168:72|168:72|128:64,1,85,6|12,2:0|2:0,0:0:0:0:
114,123,138550,6,0,P|154:95|218:88,1,101.999996887207,0|2,0:0|0:0,0:0:0:0:
300,128,139350,2,0,L|281:282,1,152.999995330811,0|0,2:0|0:0,0:0:0:0:
304,324,140150,2,0,P|354:343|419:336,1,101.999996887207,0|2,0:0|0:0,0:0:0:0:
484,280,140950,1,8,0:0:0:0:
380,168,141550,5,0,0:0:0:0:
380,168,141650,1,0,0:0:0:0:
380,168,141750,2,0,L|268:160,1,101.999996887207,2|0,0:0|0:0,0:0:0:0:
192,104,142550,1,8,0:0:0:0:
88,280,143350,2,0,L|160:286,1,50.9999984436036,2|0,0:0|0:0,0:0:0:0:
180,316,143750,2,0,L|304:304,1,101.999996887207,0|10,0:0|0:0,0:0:0:0:
364,248,144550,5,0,0:0:0:0:
310,194,144750,1,0,0:0:0:0:
310,194,144850,1,0,0:0:0:0:
310,194,144950,2,0,L|320:80,1,101.999996887207,2|0,0:0|0:0,0:0:0:0:
260,8,145750,1,8,0:0:0:0:
96,132,146550,2,0,L|120:248,1,101.999996887207,2|0,0:0|0:0,0:0:0:0:
200,288,147350,1,8,0:0:0:0:
320,192,147950,5,0,0:0:0:0:
320,192,148050,1,0,0:0:0:0:
320,192,148150,2,0,P|262:188|212:148,1,101.999996887207,2|0,0:0|0:0,0:0:0:0:
184,72,148950,1,8,0:0:0:0:
72,244,149750,2,0,L|78:294,2,50.9999984436036,2|0|2,0:0|0:0|0:0,0:0:0:0:
116,152,150550,2,0,P|153:152|200:163,1,76.4999976654053,2|0,0:0|0:0,0:0:0:0:
216,182,150950,2,0,P|245:183|284:180,1,50.9999984436036,4|4,2:0|2:0,0:0:0:0:
336,132,151350,5,8,0:0:0:0:
308,52,151550,1,2,0:0:0:0:
437,127,151750,2,0,L|420:210,1,85,8|2,0:0|0:0,0:0:0:0:
343,289,152150,2,0,P|261:289|230:202,1,170,8|2,0:0|0:0,0:0:0:0:
272,144,152750,1,0,0:0:0:0:
312,128,152850,1,0,0:0:0:0:
352,112,152950,6,0,L|368:12,1,85,0|2,0:0|0:0,0:0:0:0:
448,0,153350,1,0,0:0:0:0:
508,60,153550,1,0,0:0:0:0:
496,144,153750,1,0,0:0:0:0:
440,208,153950,1,0,0:0:0:0:
444,252,154050,1,0,0:0:0:0:
448,296,154150,1,2,0:0:0:0:
404,368,154350,1,12,2:0:0:0:
332,324,154550,6,0,B|288:320|288:320|217:329,1,85,2|0,0:0|0:0,0:0:0:0:
172,360,154950,1,0,0:0:0:0:
108,304,155150,1,0,0:0:0:0:
176,192,155350,2,0,B|259:192|259:192|345:178,1,170,2|0,0:0|0:0,0:0:0:0:
408,120,155950,1,0,0:0:0:0:
416,80,156050,1,0,0:0:0:0:
424,40,156150,5,8,0:0:0:0:
348,4,156350,1,2,0:0:0:0:
232,84,156550,2,0,L|120:64,1,85
68,100,156950,1,8,0:0:0:0:
143,234,157150,1,0,0:0:0:0:
143,234,157250,1,0,0:0:0:0:
143,234,157350,1,2,0:0:0:0:
220,196,157550,1,12,2:0:0:0:
368,241,157750,6,0,L|284:252,1,85,2|0,0:0|0:0,0:0:0:0:
296,336,158150,2,0,L|211:325,1,85,2|0,0:0|0:0,0:0:0:0:
62,272,158550,2,0,L|146:261,1,85,2|0,0:0|0:0,0:0:0:0:
232,187,158950,1,8,0:0:0:0:
232,187,159350,2,0,P|231:144|206:94,1,85,2|0,0:0|0:0,0:0:0:0:
168,249,159750,2,0,P|192:284|240:312,1,85,2|0,0:0|0:0,0:0:0:0:
312,300,160150,1,0,0:0:0:0:
368,236,160350,1,0,0:0:0:0:
356,196,160450,1,0,0:0:0:0:
341,156,160550,1,0,0:0:0:0:
204,56,160950,5,10,0:0:0:0:
272,84,162550,5,8,0:0:0:0:
346,162,162750,1,2,0:0:0:0:
231,192,162950,2,0,L|126:176,1,85
88,120,163350,1,8,0:0:0:0:
236,87,163550,1,0,0:0:0:0:
174,261,163750,1,0,0:0:0:0:
93,104,163950,1,8,0:0:0:0:
127,352,164150,6,0,L|245:339,1,101.999996887207,4|0,1:0|0:0,0:0:0:0:
320,292,164550,1,8,0:0:0:0:
247,187,164750,1,2,0:0:0:0:
427,116,164950,2,0,L|403:224,2,101.999996887207,4|0|8,2:0|0:0|0:0,0:0:0:0:
360,36,165550,1,2,0:0:0:0:
268,76,165750,5,0,0:0:0:0:
168,48,165950,1,0,0:0:0:0:
76,92,166150,1,8,0:0:0:0:
147,195,166350,1,2,0:0:0:0:
45,319,166550,2,0,L|174:327,1,101.999996887207
236,276,166950,1,8,0:0:0:0:
336,372,167150,1,2,0:0:0:0:
405,207,167350,6,0,L|401:99,1,101.999996887207
340,24,167750,1,8,0:0:0:0:
254,134,167950,1,0,0:0:0:0:
254,134,168050,1,0,0:0:0:0:
254,134,168150,2,0,L|152:120,2,101.999996887207,6|0|0,2:0|0:0|0:0,0:0:0:0:
340,188,168750,1,0,0:0:0:0:
260,252,168950,5,8,0:0:0:0:
312,340,169150,1,2,0:0:0:0:
400,288,169350,1,0,0:0:0:0:
246,268,169550,1,0,0:0:0:0:
353,137,169750,1,8,0:0:0:0:
401,203,169950,1,2,0:0:0:0:
437,131,170150,1,0,0:0:0:0:
277,104,170350,1,0,0:0:0:0:
357,281,170550,6,0,L|469:262,2,101.999996887207,8|2|0,0:0|0:0|0:0,0:0:0:0:
198,253,171150,1,0,0:0:0:0:
323,131,171350,1,12,2:0:0:0:
312,212,171550,1,2,0:0:0:0:
248,164,171750,1,0,0:0:0:0:
256,84,171950,1,0,0:0:0:0:
332,48,172150,5,8,0:0:0:0:
396,96,172350,1,0,0:0:0:0:
396,96,172450,1,0,0:0:0:0:
396,96,172550,1,0,0:0:0:0:
312,212,172750,1,8,0:0:0:0:
171,108,172950,2,0,L|153:226,1,101.999996887207,2|0,0:0|0:0,0:0:0:0:
104,272,173350,1,0,0:0:0:0:
206,368,173550,1,8,0:0:0:0:
290,221,173750,6,0,B|332:217|332:217|374:217,1,85,2|0,0:0|0:0,0:0:0:0:
504,318,174150,2,0,B|464:301|464:301|430:276,1,85,0|8,0:0|0:0,0:0:0:0:
422,106,174550,1,14,2:0:0:0:
492,56,174750,1,2,0:0:0:0:
500,140,174950,1,0,0:0:0:0:
432,192,175150,1,2,0:0:0:0:
352,164,175350,6,0,L|232:164,1,85,2|0,0:0|0:0,0:0:0:0:
188,200,175750,1,8,0:0:0:0:
382,83,175950,1,0,0:0:0:0:
382,83,176050,1,0,0:0:0:0:
382,83,176150,2,0,P|438:139|396:240,1,170,2|0,0:0|0:0,0:0:0:0:
277,303,176750,1,8,0:0:0:0:
251,151,176950,6,0,B|307:151|307:151|351:163,2,101.999996887207,4|0|0,2:0|0:0|0:0,0:0:0:0:
160,200,177550,1,8,0:0:0:0:
277,303,177750,2,0,L|380:261,1,101.999996887207,4|0,2:0|0:0,0:0:0:0:
456,324,178150,1,8,0:0:0:0:
364,368,178350,1,2,0:0:0:0:
371,264,178550,5,0,0:0:0:0:
464,224,178750,1,0,0:0:0:0:
464,224,178850,1,0,0:0:0:0:
464,224,178950,1,0,0:0:0:0:
296,168,179150,1,8,0:0:0:0:
192,312,179350,6,0,B|140:312|140:312|73:296,1,101.999996887207
40,212,179750,1,8,0:0:0:0:
141,97,179950,1,2,0:0:0:0:
264,187,180150,2,0,B|316:190|316:190|397:177,1,101.999996887207
444,120,180550,1,8,0:0:0:0:
508,247,180750,1,2,0:0:0:0:
379,351,180950,6,0,L|270:344,1,101.999996887207,4|0,2:0|0:0,0:0:0:0:
208,268,181350,1,8,0:0:0:0:
236,168,181550,1,2,0:0:0:0:
184,80,181750,2,0,B|132:93|132:93|64:92,2,101.999996887207
287,0,182350,1,8,0:0:0:0:
413,133,182550,2,0,L|380:334,1,203.999993774414,2|0,0:0|0:0,0:0:0:0:
284,368,183150,1,8,0:0:0:0:
182,254,183350,6,0,B|180:202|180:202|190:139,1,101.999996887207,2|0,0:0|0:0,0:0:0:0:
240,64,183750,1,8,0:0:0:0:
322,187,183950,1,2,0:0:0:0:
466,64,184150,2,0,L|449:181,1,101.999996887207,4|0,2:0|0:0,0:0:0:0:
480,264,184550,1,0,0:0:0:0:
308,376,184950,6,0,L|184:348,1,101.999996887207,2|0,0:0|0:0,0:0:0:0:
140,280,185350,1,8,0:0:0:0:
245,164,185550,1,2,0:0:0:0:
83,40,185750,2,0,L|99:148,1,101.999996887207
52,232,186150,1,8,0:0:0:0:
170,330,186350,1,2,0:0:0:0:
252,156,186550,6,0,B|348:127|348:127|469:163,1,203.999993774414
512,277,187150,1,8,0:0:0:0:
432,340,187350,2,0,P|381:340|314:323,1,101.999996887207,4|0,2:0|0:0,0:0:0:0:
284,252,187750,1,8,0:0:0:0:
320,168,187950,1,2,0:0:0:0:
280,84,188150,6,0,L|176:76,1,101.999996887207
92,104,188550,1,8,0:0:0:0:
152,220,188750,1,0,0:0:0:0:
152,220,188850,1,0,0:0:0:0:
152,220,188950,2,0,L|120:328,1,101.999996887207,2|0,0:0|0:0,0:0:0:0:
140,360,189250,2,0,P|165:369|212:371,1,50.9999984436036,0|4,0:0|2:0,0:0:0:0:
349,317,189550,1,2,0:0:0:0:
254,291,189750,1,14,2:0:0:0:
150,116,202550,6,0,P|198:106|270:115,1,101.999996887207,0|2,0:0|0:0,0:0:0:0:
324,168,203350,1,8,0:0:0:0:
229,325,204150,2,0,L|209:225,2,101.999996887207,2|0|8,0:0|0:0|0:0,0:0:0:0:
348,260,205550,1,0,0:0:0:0:
348,260,205650,1,0,0:0:0:0:
348,260,205750,6,0,L|372:148,1,101.999996887207,2|0,0:0|0:0,0:0:0:0:
344,72,206550,1,8,0:0:0:0:
188,172,207350,2,0,L|137:163,2,50.9999984436036,0|0|2,0:0|0:0|0:0,0:0:0:0:
272,136,208150,1,8,0:0:0:0:
372,232,208750,1,0,0:0:0:0:
372,232,208850,1,0,0:0:0:0:
372,232,208950,6,0,L|354:343,1,101.999996887207,2|0,0:0|0:0,0:0:0:0:
276,380,209750,1,8,0:0:0:0:
152,244,210550,2,0,P|154:197|184:136,1,101.999996887207,0|2,0:0|0:0,0:0:0:0:
248,92,211350,1,8,0:0:0:0:
340,192,211950,1,0,0:0:0:0:
340,192,212050,1,0,0:0:0:0:
340,192,212150,6,0,L|448:180,1,101.999996887207,2|0,0:0|0:0,0:0:0:0:
509,118,212950,1,8,0:0:0:0:
332,68,213750,2,0,L|325:17,2,50.9999984436036,0|0|2,0:0|0:0|0:0,0:0:0:0:
292,152,214550,1,8,0:0:0:0:
274,169,215350,5,4,0:0:0:0:
