osu file format v7

[General]
AudioFilename: 16.tumult-CaveStory.mp3
AudioLeadIn: 3000
PreviewTime: 8491
Countdown: 0
SampleSet: Normal
StackLeniency: 0.7
Mode: 0
LetterboxInBreaks: 0

[Editor]
Bookmarks: 8491,25473,33964,38475
DistanceSpacing: 0.800000011920929
BeatDivisor: 6
GridSize: 16

[Metadata]
Title:Cave Story
Artist:tumult
Creator:NyaKun
Version:Terrible Story
Source:Cave Story
Tags:Kirimyuu Midget 8-bit

[Difficulty]
HPDrainRate:7
CircleSize:5
OverallDifficulty:7
SliderMultiplier:1.25
SliderTickRate:1

[Events]
//Background and Video events
Video,0,"cave_story.avi"
0,0,"CaveStory.jpg"
//Break Periods
2,50611,58533
//Storyboard Layer 0 (Background)
//Storyboard Layer 1 (Fail)
//Storyboard Layer 2 (Pass)
//Storyboard Layer 3 (Foreground)
//Storyboard Sound Samples
//Background Colour Transformations
3,100,163,162,255

[TimingPoints]
-9,265.369305616984,4,1,0,50,1,0
93396,-100,4,1,0,10,0,0

[Colours]
Combo1 : 64,128,128
Combo2 : 0,128,192
Combo3 : 128,128,192
Combo4 : 128,0,0

[HitObjects]
176,48,256,1,0
112,112,521,2,0,L|240:112,1,125
144,176,1052,2,0,L|288:176,1,125
192,240,1583,2,0,L|320:240,1,125
240,304,2113,2,0,L|368:304,1,125
368,208,2644,5,0
368,208,2910,1,0
272,208,3175,1,0
272,208,3440,1,0
176,208,3706,1,0
176,208,3971,1,0
176,112,4236,5,0
176,112,4502,1,0
272,112,4767,1,0
272,112,5033,1,0
368,112,5298,1,0
368,112,5563,1,0
368,208,5829,5,0
368,208,6094,1,0
272,208,6359,1,0
272,208,6625,1,0
176,208,6890,1,0
176,208,7155,1,0
176,304,7421,5,0
272,304,7686,1,0
368,304,7952,1,0
368,112,8482,5,0
272,112,8748,1,0
208,112,8925,1,0
176,112,9013,1,8
112,112,9190,1,0
80,112,9278,1,0
80,176,9455,1,0
80,208,9544,1,0
176,208,9809,1,0
272,208,10075,5,8
336,208,10251,1,0
368,208,10340,1,0
368,272,10517,1,0
368,304,10605,1,0
272,304,10871,1,0
176,304,11136,5,8
112,304,11313,1,0
80,304,11401,1,0
80,240,11578,1,0
80,208,11667,1,0
80,112,11932,1,0
176,112,12197,5,8
240,112,12374,1,0
272,112,12463,1,0
272,208,12728,5,0
176,208,12994,2,0,L|80:208,1,83.3333333333333,0|0
64,208,13259,2,0,L|64:304,1,83.3333333333333,8|0
64,320,13524,2,0,L|160:320,1,83.3333333333333
176,320,13790,1,0
272,320,14055,1,0
272,224,14320,6,0,L|272:112,1,83.3333333333333,8|0
272,112,14586,2,0,L|176:112,1,83.3333333333333
160,112,14851,1,0
64,112,15117,1,0
64,208,15382,6,0,L|160:208,1,83.3333333333333,8|0
176,208,15647,2,0,L|272:208,1,83.3333333333333
288,208,15913,1,0
384,208,16178,1,0
384,304,16443,5,8
320,304,16620,1,0
288,304,16709,1,0
192,304,16974,5,0
96,304,17240,2,0,L|96:208,1,83.3333333333333
96,192,17505,2,0,L|192:192,1,83.3333333333333,8|0
208,192,17770,2,0,L|208:96,1,83.3333333333333
208,80,18036,1,0
304,80,18301,1,0
400,80,18566,5,8
400,144,18743,1,0
400,176,18832,1,0
400,240,19009,1,0
400,272,19097,1,0
304,272,19362,1,0
208,272,19628,5,8
144,272,19805,1,0
112,272,19893,1,0
48,272,20070,1,0
16,272,20159,1,0
16,176,20424,1,0
112,176,20689,5,8
176,176,20866,1,0
208,176,20955,1,0
304,176,21220,5,0
400,176,21485,2,0,L|400:272,1,83.3333333333333
400,288,21751,2,0,L|304:288,1,83.3333333333333,8|0
288,288,22016,2,0,L|192:288,1,83.3333333333333
176,288,22282,1,0
80,288,22547,1,0
80,192,22812,6,0,L|80:96,1,83.3333333333333,8|0
80,80,23078,2,0,L|176:80,1,83.3333333333333
192,80,23343,1,0
288,80,23608,1,0
384,80,23874,5,8
448,80,24051,1,0
480,80,24139,1,0
480,144,24316,1,0
480,176,24404,1,0
480,272,24670,1,0
384,272,24935,5,8
320,272,25112,1,0
288,272,25201,1,0
192,272,25466,5,0
96,272,25731,1,0
96,176,25997,2,0,L|96:80,1,83.3333333333333,8|0
96,64,26262,2,0,L|192:64,1,83.3333333333333
208,64,26527,1,0
304,64,26793,1,0
400,64,27058,5,8
400,128,27235,1,0
400,160,27324,1,0
400,256,27589,1,0
304,256,27854,1,0
208,256,28120,6,0,L|208:160,1,83.3333333333333,8|0
208,144,28385,1,0
112,144,28650,1,0
112,48,28916,1,0
208,48,29181,5,8
272,48,29358,1,0
304,48,29446,1,0
400,48,29712,1,0
400,144,29977,6,0,L|400:240,1,83.3333333333333
400,256,30243,2,0,L|304:256,1,83.3333333333333,8|0
288,256,30508,2,0,L|192:256,1,83.3333333333333,0|0
176,256,30773,1,0
80,256,31039,6,0,L|80:128,1,125,0|8
176,128,31569,1,0
272,128,31835,1,0
368,128,32100,6,0,L|304:208,1,83.3333333333333,0|0
304,208,32366,2,0,L|240:288,1,83.3333333333333,8|0
240,288,32631,2,0,L|144:288,1,83.3333333333333
128,288,32896,1,0
128,192,33162,2,0,L|224:96,1,125,0|8
288,32,33692,1,0
384,32,33958,6,0,L|384:160,1,125,0|0
384,256,34489,1,8
320,256,34665,1,0
288,256,34754,1,0
224,256,34931,1,0
192,256,35019,1,0
96,256,35285,1,0
96,160,35550,5,8
96,64,35815,1,0
192,64,36081,2,0,L|320:64,1,125
416,64,36611,5,8
416,160,36877,1,0
416,256,37142,2,0,L|288:256,1,125
192,256,37673,1,8
96,256,37938,1,0
96,160,38204,1,0
192,160,38469,5,0
240,208,38646,1,0
256,224,38734,1,8
320,288,39000,1,0
416,288,39265,1,0
416,192,39531,2,0,L|416:64,1,125,0|8
320,64,40061,2,0,L|192:64,1,125
96,64,40592,6,0,L|96:192,1,125,0|8
192,192,41123,2,0,L|320:192,1,125
416,192,41653,2,0,L|416:320,1,125,0|8
320,320,42184,1,0
224,320,42450,5,0
128,320,42715,1,0
32,320,42980,1,8
32,224,43246,1,0
32,128,43511,5,0
128,128,43776,1,0
224,128,44042,1,8
320,128,44307,1,0
416,128,44573,6,0,L|416:256,1,125
416,352,45103,2,0,L|288:352,1,125,8|0
192,352,45634,2,0,L|64:352,1,125
64,256,46165,5,8
64,192,46342,1,0
96,192,46430,2,0,L|160:192,1,62.5
208,192,46695,6,0,L|336:192,1,125
432,192,47226,2,0,L|432:64,1,125,8|0
336,64,47757,2,0,L|208:64,1,125
112,64,48288,1,8
112,160,48553,1,0
208,160,48818,5,0
304,160,49084,1,0
400,160,49349,2,0,L|400:288,1,125,8|0
304,288,49880,5,0
240,288,50057,1,0
208,288,50145,1,0
144,288,50322,1,0
112,288,50411,1,8
464,48,59433,6,0,C|336:48,1,125
272,48,59876,1,0
240,48,59964,1,8
176,48,60141,1,0
144,48,60229,2,0,C|48:48,1,83.3333333333333
32,48,60495,1,0
32,144,60760,1,0
32,240,61025,6,0,C|128:240,1,83.3333333333333,8|0
144,240,61291,1,0
208,240,61468,1,0
240,240,61556,1,0
336,240,61822,1,0
432,240,62087,5,8
432,304,62264,1,0
432,336,62352,1,0
368,336,62529,1,0
336,336,62618,1,0
240,336,62883,1,0
144,336,63148,6,0,C|80:272,1,83.3333333333333,8|0
64,256,63414,1,0
160,256,63679,5,0
256,256,63945,2,0,L|352:256,1,83.3333333333333,0|0
368,256,64210,2,0,L|368:160,1,83.3333333333333,8|0
368,144,64475,2,0,L|272:144,1,83.3333333333333
256,144,64741,1,0
160,144,65006,1,0
160,240,65271,6,0,L|160:336,1,83.3333333333333,8|0
160,352,65537,2,0,L|256:352,1,83.3333333333333
272,352,65802,1,0
368,352,66067,1,0
368,256,66333,6,0,L|272:256,1,83.3333333333333,8|0
256,256,66598,2,0,L|160:256,1,83.3333333333333
144,256,66864,1,0
48,256,67129,1,0
48,160,67394,5,8
112,160,67571,1,0
144,160,67660,1,0
240,160,67925,6,0,C|368:160,1,125
432,160,68367,1,0
432,192,68456,1,8
432,256,68633,2,0,C|384:256,1,41.6666666666667
320,256,68898,1,0
288,256,68987,1,0
192,256,69252,1,0
96,256,69517,6,0,C|96:160,1,83.3333333333333,8|0
96,144,69783,2,0,C|192:144,1,83.3333333333333
208,144,70048,1,0
304,144,70313,1,0
400,144,70579,6,0,C|496:144,1,83.3333333333333,8|0
512,144,70844,2,0,C|512:240,1,83.3333333333333
512,256,71109,1,0
416,256,71375,1,0
320,256,71640,5,8
256,256,71817,1,0
224,256,71906,1,0
224,160,72171,5,0
128,160,72436,2,0,L|128:64,1,83.3333333333333
128,48,72702,2,0,L|224:48,1,83.3333333333333,8|0
240,48,72967,2,0,L|336:48,1,83.3333333333333
352,48,73232,1,0
448,48,73498,1,0
448,144,73763,6,0,L|448:240,1,83.3333333333333,8|0
448,256,74029,2,0,L|352:256,1,83.3333333333333
336,256,74294,1,0
240,256,74559,1,0
144,256,74825,5,8
80,256,75002,1,0
48,256,75090,1,0
48,192,75267,1,0
48,160,75355,1,0
48,64,75621,1,0
144,64,75886,5,8
208,64,76063,1,0
240,64,76151,1,0
336,64,76417,5,0
432,64,76682,1,0
432,160,76948,2,0,L|432:256,1,83.3333333333333,8|0
432,272,77213,2,0,L|336:272,1,83.3333333333333
320,272,77478,1,0
224,272,77744,1,0
128,272,78009,5,8
128,208,78186,1,0
128,176,78274,1,0
128,80,78540,1,0
224,80,78805,1,0
320,80,79071,6,0,L|320:176,1,83.3333333333333,8|0
320,192,79336,1,0
416,192,79601,1,0
416,288,79867,1,0
320,288,80132,5,8
256,288,80309,1,0
224,288,80397,1,0
128,288,80663,1,0
128,192,80928,6,0,L|128:96,1,83.3333333333333
128,80,81194,2,0,L|224:80,1,83.3333333333333,8|0
240,80,81459,2,0,L|336:80,1,83.3333333333333,0|0
352,80,81724,1,0
448,80,81990,6,0,L|448:208,1,125,0|8
352,208,82520,1,0
256,208,82786,1,0
160,208,83051,6,0,L|224:128,1,83.3333333333333,0|0
240,112,83316,2,0,L|304:32,1,83.3333333333333,8|0
320,16,83582,2,0,L|416:16,1,83.3333333333333
432,16,83847,1,0
432,112,84113,2,0,L|336:208,1,125,0|8
272,272,84643,1,0
176,272,84909,6,0,L|64:160,1,125,0|0
80,80,85439,1,8
144,80,85616,1,0
176,80,85705,1,0
240,80,85882,1,0
272,80,85970,1,0
368,80,86236,1,0
368,176,86501,5,8
368,272,86766,1,0
272,272,87032,2,0,L|144:272,1,125
48,272,87562,5,8
48,176,87828,1,0
48,80,88093,2,0,L|176:80,1,125
272,80,88624,1,8
368,80,88889,1,0
368,176,89155,1,0
272,176,89420,5,0
224,128,89597,1,0
208,112,89685,1,8
144,48,89951,1,0
48,48,90216,1,0
48,144,90481,2,0,L|48:272,1,125,0|8
48,368,91012,2,0,L|176:368,1,125
272,368,91543,6,0,L|368:272,1,125,0|8
352,176,92074,2,0,L|224:176,1,125
128,176,92604,2,0,L|224:272,1,125,0|8
112,272,93135,1,0
256,192,93400,12,4,95523
