osu file format v9

[General]
AudioFilename: 16.tumult-CaveStory.mp3
AudioLeadIn: 2000
PreviewTime: 8495
Countdown: 0
SampleSet: Soft
StackLeniency: 0.7
Mode: 0
LetterboxInBreaks: 0

[Editor]
Bookmarks: 55
DistanceSpacing: 0.9
BeatDivisor: 2
GridSize: 4

[Metadata]
Title:Cave Story
Artist:tumult
Creator:-kevincela-
Version:Easy
Source:Cave Story
Tags:Pixel Remix Project Wii Nicalis lesslunatic Lunah wmfchris Daisuke Amaya 8bit Doukutsu Monogatari Chiptune

[Difficulty]
HPDrainRate:2
CircleSize:3
OverallDifficulty:2
ApproachRate:3
SliderMultiplier:0.9
SliderTickRate:2

[Events]
//Background and Video events
0,0,"37499-cave-story.jpg"
//Break Periods
//Storyboard Layer 0 (Background)
//Storyboard Layer 1 (Fail)
//Storyboard Layer 2 (Pass)
//Storyboard Layer 3 (Foreground)
//Storyboard Sound Samples
//Background Colour Transformations
3,100,163,162,255

[TimingPoints]
50,530.973451327434,4,2,0,70,1,0
25536,-100,4,2,0,70,0,1
42527,-100,4,2,0,70,0,0
76510,-100,4,2,0,70,0,1
92970,-100,4,2,0,50,0,1
93501,-100,4,2,0,30,0,0

[Colours]
Combo1 : 189,155,232
Combo2 : 146,226,150
Combo3 : 129,174,220
Combo4 : 214,103,103

[HitObjects]
256,132,50,1,2
312,192,580,1,8
256,248,1111,1,2
196,192,1642,1,8
168,268,2173,2,0,B|64:276|20:172,1,180,2|2
56,108,3766,6,0,B|64:84|96:76,2,45,8|0|4
124,152,4828,1,8
256,248,5890,1,8
320,200,6421,6,0,B|352:160|408:152,1,90,2|8
424,232,7483,2,2,B|480:236|499:277,1,90,2|8
428,316,8545,6,0,B|352:328|336:252|256:264,1,180,4|2
204,320,10138,2,0,B|156:320|156:320|112:312,1,90,8|2
48,264,11200,2,0,B|48:216|48:216|56:172,2,90,8|2|8
116,312,12793,6,0,B|208:276|248:188,1,180,4|2
280,120,14386,1,8
344,172,14917,2,0,B|388:144|448:180,1,90,2|8
388,240,15979,1,2
456,280,16510,1,8
460,284,17041,6,0,B|440:344|328:344|312:276,1,180,4|2
260,224,18634,1,8
260,144,19165,2,0,B|208:148|180:200,1,90,2|8
260,224,20226,2,0,B|311:220|332:178,1,90,2|8
380,112,21288,6,0,B|452:116|488:160|488:236,1,180,4|2
420,276,22881,2,0,B|376:300|376:300|316:300,1,90,8|2
256,280,23943,1,8
176,300,24474,2,0,B|136:300|136:300|92:276,1,90,2|8
120,200,25536,6,0,B|132:148|196:132,1,90,4|0
256,116,26598,1,2
333,137,27129,2,0,B|380:148|392:200,1,90,0|2
368,276,28191,2,0,B|321:265|309:214,2,90,0|2|0
416,340,29784,5,4
336,348,30315,2,0,B|148:348,1,180,2|2
96,292,31908,1,4
32,244,32439,2,0,B|60:184|172:200|176:284,1,180,2|2
256,256,34032,5,4
324,300,34563,2,0,B|352:256|324:212,1,90,0|2
272,152,35625,1,0
292,72,36156,1,2
372,60,36687,1,0
372,60,37218,2,0,B|444:60|488:132|432:204,1,180,2|0
384,240,38811,6,0,B|304:308,1,90,0|2
256,244,39873,1,2
196,296,40403,6,0,B|124:296|124:208|48:208,1,180,4|2
44,128,41996,1,0
104,76,42527,5,4
168,128,43058,1,8
228,72,43589,2,0,B|276:100|272:160,1,90,2|8
356,140,44651,2,0,B|356:208|296:252|228:216,1,180,2|0
168,268,46244,6,0,B|180:324,2,45,8|0|4
108,212,47306,1,8
44,160,47837,2,0,B|80:120|148:132,1,90,2|8
208,124,48899,5,2
256,60,49430,1,8
304,124,49961,2,0,B|296:176|256:200,1,90,2|8
256,280,51023,5,4
296,352,51554,1,8
216,352,52085,2,0,B|156:344|140:296,1,90,2|8
64,284,53147,2,0,B|24:240|60:204|96:172|60:116,1,180,2|2
120,64,54740,6,0,B|104:20,2,45,8|0|4
184,116,55802,1,8
212,192,56333,2,0,B|256:216|316:188,1,90,2|8
312,116,57395,2,0,B|376:120|412:204|352:260,1,180,2|2
324,332,58988,1,8
256,288,59519,6,0,B|156:308|84:220,1,180,4|2
24,196,61111,2,0,B|32:144|92:128,1,90,8|2
160,108,62173,2,0,B|147:59|95:51,2,90,8|2|8
172,188,63766,6,0,B|212:216|256:224|300:216|340:188,1,180,4|2
420,192,65359,2,0,B|444:288,1,90,8|2
440,360,66421,1,8
368,324,66952,2,0,B|344:228,1,90,2|8
280,192,68014,6,0,B|224:164|188:192|152:220|96:188,1,180,4|2
36,148,69607,1,8
32,68,70138,2,0,B|92:72|112:124,1,90,2|8
184,92,71200,2,0,B|228:107|272:88,1,90,2|8
308,16,72262,6,0,B|368:48|372:132|296:168,1,180,4|2
228,176,73855,2,0,B|208:220|232:268,1,90,8|2
260,340,74917,1,8
180,352,75448,2,0,B|80:360,1,90,2|8
64,284,76510,6,0,B|80:236|80:236|124:216,1,90,4|0
192,192,77572,1,2
212,112,78103,2,0,B|256:104|256:104|300:112,1,90,0|2
320,192,79165,1,0
256,240,79696,2,0,B|256:348,2,90,2|0|4
192,192,81288,6,0,B|120:232|48:188|48:108,1,180,2|2
0,68,82881,1,4
80,52,83412,2,0,B|152:12|224:56|224:136,1,180,2|2
256,196,85005,5,4
212,264,85536,2,0,B|256:288|300:264,1,90,0|2
332,340,86598,1,0
256,368,87129,1,2
180,340,87660,1,0
104,368,88191,2,0,B|40:376|32:320|32:320|32:208,1,180,2|2
104,188,89784,6,0,B|76:140|8:144,2,90,0|2|2
184,192,91377,2,0,B|276:192|248:120|364:120,1,180,4|2
424,128,92970,1,0
376,196,93501,1,4
