osu file format v12

[General]
AudioFilename: Orange Genome.mp3
AudioLeadIn: 0
PreviewTime: 56073
Countdown: 0
SampleSet: Normal
StackLeniency: 0.7
Mode: 0
LetterboxInBreaks: 0

[Editor]
DistanceSpacing: 1.01
BeatDivisor: 4
GridSize: 8

[Metadata]
Title:Orange Genome
TitleUnicode:橙ゲノム
Artist:tsunamaru
ArtistUnicode:つなまる
Creator:goodbye
Version:Normal
Source:
Tags:vocaloid hatsune miku mezamep jomnhnk no_gu
BeatmapID:218945
BeatmapSetID:61278

[Difficulty]
HPDrainRate:5
CircleSize:4
OverallDifficulty:5
ApproachRate:5
SliderMultiplier:1
SliderTickRate:1

[Events]
//Background and Video events
0,0,"29232836.jpg",0,0
Video,0,"orange genome.flv"
//Break Periods
2,70295,72650
2,129161,134872
2,140961,141984
2,147961,148650
//Storyboard Layer 0 (Background)
//Storyboard Layer 1 (Fail)
//Storyboard Layer 2 (Pass)
//Storyboard Layer 3 (Foreground)
//Storyboard Sound Samples
//Background Colour Transformations
3,100,163,162,255

[TimingPoints]
19629,444.444444444444,4,1,1,50,1,0
32073,-100,4,2,1,50,0,0
46295,-100,4,1,1,50,0,0
46628,-100,4,2,1,50,0,0
46740,-100,4,1,1,50,0,0
47073,-100,4,2,1,50,0,0
47184,-100,4,1,1,50,0,0
47517,-100,4,2,1,50,0,0
47628,-100,4,1,1,50,0,0
56073,444.444444444444,4,1,1,60,1,1
69850,-100,4,1,1,60,0,0
73850,-100,4,2,1,60,0,0
80961,-200,4,2,1,45,0,0
88072,-100,4,1,1,45,0,0
88406,-100,4,2,1,50,0,0
88517,-100,4,1,1,50,0,0
88850,-100,4,2,1,55,0,0
88961,-100,4,1,1,55,0,0
89295,-100,4,2,1,60,0,0
89406,-100,4,1,1,60,0,0
100517,-100,4,1,1,60,0,1
114295,-100,4,1,1,60,0,0
114739,-100,4,2,1,60,0,0
125406,-100,4,2,1,60,0,0
136072,-100,4,1,1,30,0,0
149850,-100,4,2,1,30,0,0
151628,-100,4,2,1,10,0,0
152072,-100,4,1,1,50,0,1
171628,-100,4,1,1,50,0,1
172517,-100,4,1,1,50,0,1
180517,-100,4,1,1,50,0,0

[Colours]
Combo1 : 255,196,106
Combo2 : 18,210,226
Combo3 : 0,255,128
Combo4 : 222,22,102

[HitObjects]
96,144,19629,6,0,P|96:208|128:256,1,100,4|8,0:0|0:0,0:0:0:0:
208,336,20517,2,0,L|256:240,1,100,0|8,0:0|0:0,0:0:0:0:
351,146,21406,6,0,P|399:156|464:134,2,100,0|8|0,0:0|0:0|0:0,0:0:0:0:
272,32,22740,1,8,0:0:0:0:
216,161,23184,6,0,L|164:126,1,50,4|0,0:0|0:0,0:0:0:0:
105,147,23628,2,0,P|112:192|89:259,1,100,8|0,0:0|0:0,0:0:0:0:
0,347,24517,1,8,0:0:0:0:
140,313,24962,6,0,P|194:296|245:307,1,100,0|8,0:0|0:0,0:0:0:0:
308,310,25628,1,0,0:0:0:0:
352,368,25851,2,0,P|416:384|464:368,1,100,0|8,0:0|0:0,0:0:0:0:
400,244,26740,5,4,0:0:0:0:
262,206,27184,1,8,0:0:0:0:
299,67,27628,1,0,0:0:0:0:
372,73,27851,1,0,0:0:0:0:
438,104,28073,1,8,0:0:0:0:
303,143,28517,6,0,P|244:124|196:140,1,100,0|2,0:0|0:0,0:0:0:0:
75,181,29406,2,0,L|7:174,2,50,0|0|10,0:0|0:0|0:0,0:0:0:0:
107,319,30295,6,0,L|219:332,1,100,0|2,0:0|0:0,0:0:0:0:
348,330,31184,2,0,L|364:274,1,50,0|2,0:0|0:0,0:0:0:0:
411,231,31628,1,10,0:0:0:0:
472,104,32073,6,0,P|433:62|338:52,1,150,4|0,0:0|0:0,0:0:0:0:
286,69,32962,1,0,0:0:0:0:
181,133,33406,1,8,0:0:0:0:
232,241,33851,6,0,P|192:285|86:274,1,150
52,257,34740,1,0,0:0:0:0:
0,150,35184,1,8,0:0:0:0:
96,80,35628,6,0,P|160:144|240:128,1,150
266,112,36517,2,0,L|378:96,1,100,0|8,0:0|0:0,0:0:0:0:
364,219,37406,6,0,L|474:259,1,100,0|8,0:0|0:0,0:0:0:0:
482,197,38073,1,0,0:0:0:0:
461,140,38295,2,0,P|461:88|427:42,1,100,0|8,0:0|0:0,0:0:0:0:
315,39,39184,6,0,P|280:115|309:185,1,150,4|0,0:0|0:0,0:0:0:0:
342,216,40073,1,0,0:0:0:0:
257,300,40517,1,8,0:0:0:0:
160,224,40962,6,0,P|48:240|32:272,1,150
13,205,41851,2,0,L|-16:96,1,100,0|8,0:0|0:0,0:0:0:0:
80,32,42740,6,0,P|96:96|176:128,1,150
220,100,43628,2,0,L|330:86,1,100,0|8,0:0|0:0,0:0:0:0:
432,144,44517,5,0,0:0:0:0:
336,208,44962,1,8,0:0:0:0:
240,272,45406,2,0,P|176:304|160:336,1,100,0|8,0:0|0:0,0:0:0:0:
48,352,46295,6,0,L|64:240,1,100,4|8,0:0|0:0,0:0:0:0:
21,139,47184,1,0,0:0:0:0:
73,110,47406,1,0,0:0:0:0:
112,64,47628,1,8,0:0:0:0:
208,144,48073,6,0,L|320:128,2,100,0|8|0,0:0|0:0|0:0,0:0:0:0:
93,181,49406,1,8,0:0:0:0:
8,265,49851,6,0,P|24:313|72:329,1,100,0|8,0:0|0:0,0:0:0:0:
184,303,50740,1,0,0:0:0:0:
244,313,50962,1,0,0:0:0:0:
303,303,51184,1,8,0:0:0:0:
422,303,51628,6,0,P|390:215|334:192,1,150
285,172,52517,1,0,0:0:0:0:
166,173,52962,1,8,0:0:0:0:
90,260,53406,6,0,P|69:307|9:322,2,100,0|8|0,0:0|0:0|0:0,0:0:0:0:
210,260,54740,1,8,0:0:0:0:
327,238,55184,2,0,L|383:246,2,50,4|2|2,0:0|0:0|0:0,0:0:0:0:
248,152,56073,6,0,P|224:96|240:56,1,100,4|8,0:0|0:0,0:0:0:0:
335,161,56961,2,0,L|434:154,1,100,0|8,0:0|0:0,0:0:0:0:
334,253,57850,6,0,P|288:256|229:213,1,100,0|8,0:0|0:0,0:0:0:0:
284,95,58739,1,0,0:0:0:0:
154,38,59184,1,8,0:0:0:0:
87,62,59406,1,8,0:0:0:0:
26,97,59628,6,0,L|18:161,2,50,0|0|8,0:0|0:0|0:0,0:0:0:0:
125,196,60517,1,0,0:0:0:0:
101,262,60739,1,0,0:0:0:0:
79,328,60961,1,8,0:0:0:0:
221,344,61406,6,0,P|277:320|325:328,1,100,0|8,0:0|0:0,0:0:0:0:
380,346,62072,2,0,L|360:280,1,50,2|4,0:0|0:0,0:0:0:0:
323,163,62739,2,0,L|307:112,1,50,8|8,0:0|0:0,0:0:0:0:
336,48,63184,6,0,L|232:32,1,100,4|8,0:0|0:0,0:0:0:0:
192,88,63850,2,0,L|224:152,1,50,2|4,0:0|0:0,0:0:0:0:
248,248,64517,2,0,L|192:272,1,50,8|0,0:0|0:0,0:0:0:0:
144,304,64961,6,0,P|96:264|96:224,1,100,0|8,0:0|0:0,0:0:0:0:
106,160,65628,1,0,0:0:0:0:
134,95,65850,2,0,P|172:128|173:179,1,100,0|8,0:0|0:0,0:0:0:0:
280,73,66739,6,0,L|400:89,1,100,4|8,0:0|0:0,0:0:0:0:
379,227,67628,2,0,L|267:211,1,100,0|8,0:0|0:0,0:0:0:0:
210,335,68517,5,4,0:0:0:0:
138,295,68961,5,4,0:0:0:0:
69,250,69406,5,4,0:0:0:0:
0,208,69850,5,0,0:0:0:0:
240,160,73850,6,0,P|208:224|303:312,1,200,4|0,0:0|0:0,0:0:0:0:
400,335,75184,1,8,0:0:0:0:
400,215,75628,6,0,P|420:97|360:48,1,200
247,50,76961,1,8,0:0:0:0:
144,112,77406,6,0,L|40:96,2,100,0|8|0,0:0|0:0|0:0,0:0:0:0:
232,192,78739,1,8,0:0:0:0:
318,278,79184,6,0,L|262:318,1,50
217,295,79628,2,0,L|148:300,1,50,8|0,0:0|0:0,0:0:0:0:
120,336,80072,2,0,P|75:318|13:331,1,100,0|8,0:0|0:0,0:0:0:0:
64,224,80961,5,2,0:0:0:0:
128,192,81850,1,0,0:0:0:0:
193,158,82739,1,2,0:0:0:0:
257,126,83628,1,0,0:0:0:0:
318,88,84517,6,0,P|369:93|424:88,1,100,2|0,0:0|0:0,0:0:0:0:
488,192,86295,2,0,P|440:188|378:193,1,100,2|0,0:0|0:0,0:0:0:0:
160,296,88072,6,0,P|200:264|256:264,1,100,4|8,0:0|0:0,0:0:0:0:
369,261,88961,2,0,L|334:163,1,100,0|8,0:0|0:0,0:0:0:0:
421,80,89850,6,0,P|384:56|314:52,1,100,0|8,0:0|0:0,0:0:0:0:
271,69,90517,1,0,0:0:0:0:
219,101,90739,2,0,P|154:105|115:88,1,100,0|8,0:0|0:0,0:0:0:0:
21,24,91628,6,0,B|-4:97|50:167|116:174,1,200
232,192,92961,1,8,0:0:0:0:
336,132,93406,5,0,0:0:0:0:
440,73,93850,1,8,0:0:0:0:
440,193,94295,1,0,0:0:0:0:
355,277,94739,2,0,P|299:253|155:293,1,200,8|8,0:0|0:0,0:0:0:0:
61,339,96072,5,0,0:0:0:0:
61,218,96517,1,8,0:0:0:0:
61,98,96961,2,0,L|5:90,2,50,0|0|8,0:0|0:0|0:0,0:0:0:0:
176,129,97850,1,0,0:0:0:0:
248,224,98295,2,0,P|298:248|344:233,1,100,8|0,0:0|0:0,0:0:0:0:
445,180,99184,5,8,0:0:0:0:
359,94,99628,1,0,0:0:0:0:
240,128,100072,1,8,0:0:0:0:
219,243,100517,6,0,L|195:342,1,100,4|8,0:0|0:0,0:0:0:0:
127,321,101184,1,0,0:0:0:0:
61,346,101406,1,0,0:0:0:0:
18,213,101850,1,8,0:0:0:0:
118,112,102295,6,0,L|12:97,1,100,0|8,0:0|0:0,0:0:0:0:
120,200,103184,2,0,L|224:176,1,100,0|8,0:0|0:0,0:0:0:0:
287,164,103850,1,4,0:0:0:0:
320,226,104072,6,0,L|303:282,1,50
336,338,104517,2,0,P|264:346|224:330,1,100,8|0,0:0|0:0,0:0:0:0:
179,298,105184,1,0,0:0:0:0:
179,227,105406,1,8,0:0:0:0:
179,85,105850,6,0,L|70:64,1,100,0|8,0:0|0:0,0:0:0:0:
18,101,106517,2,0,L|42:157,1,50,0|4,0:0|0:0,0:0:0:0:
0,205,106961,1,0,0:0:0:0:
23,271,107184,2,0,P|94:261|134:281,1,100,8|4,0:0|0:0,0:0:0:0:
236,350,108072,6,0,L|240:240,1,100,8|0,0:0|0:0,0:0:0:0:
373,202,108961,2,0,L|306:100,1,100,8|0,0:0|0:0,0:0:0:0:
218,18,109850,5,8,0:0:0:0:
120,118,110295,1,0,0:0:0:0:
257,156,110739,2,0,P|257:220|232:252,1,100,8|4,0:0|0:0,0:0:0:0:
167,260,111406,5,0,0:0:0:0:
104,298,111628,1,8,0:0:0:0:
240,337,112072,1,0,0:0:0:0:
300,300,112295,1,0,0:0:0:0:
363,265,112517,1,8,0:0:0:0:
501,296,112961,6,0,L|483:182,1,100,4|8,0:0|0:0,0:0:0:0:
368,120,113850,1,4,0:0:0:0:
368,120,114295,1,8,0:0:0:0:
267,120,114739,6,0,L|172:170,1,100,4|8,0:0|0:0,0:0:0:0:
93,114,115628,2,0,L|96:230,1,100,0|8,0:0|0:0,0:0:0:0:
24,284,116517,6,0,P|62:323|124:337,1,100,0|8,0:0|0:0,0:0:0:0:
202,317,117406,2,0,P|219:283|295:270,1,100,0|8,0:0|0:0,0:0:0:0:
368,299,118295,6,0,L|425:197,1,100,4|8,0:0|0:0,0:0:0:0:
416,111,119184,2,0,L|314:67,1,100,0|8,0:0|0:0,0:0:0:0:
224,64,120072,5,0,0:0:0:0:
168,128,120517,1,8,0:0:0:0:
88,96,120961,5,0,0:0:0:0:
104,176,121406,1,8,0:0:0:0:
128,256,121850,6,0,L|14:258,1,100,4|8,0:0|0:0,0:0:0:0:
69,348,122739,2,0,L|184:348,1,100,0|8,0:0|0:0,0:0:0:0:
305,309,123628,6,0,L|257:259,1,50,4|2,0:0|0:0,0:0:0:0:
292,205,124072,2,0,L|350:196,1,50,10|0,0:0|0:0,0:0:0:0:
379,136,124517,2,0,L|333:96,1,50,2|0,0:0|0:0,0:0:0:0:
291,53,124961,1,10,0:0:0:0:
148,53,125406,6,0,L|196:103,1,50,4|2,0:0|0:0,0:0:0:0:
161,157,125850,2,0,L|103:166,1,50,10|0,0:0|0:0,0:0:0:0:
74,226,126295,2,0,L|120:266,1,50,2|0,0:0|0:0,0:0:0:0:
168,304,126739,1,10,0:0:0:0:
256,192,127184,12,4,128961,0:0:0:0:
120,120,136072,6,0,P|120:184|152:216,1,100,4|8,0:0|0:0,0:0:0:0:
173,326,136961,2,0,P|228:286|276:297,1,100,0|8,0:0|0:0,0:0:0:0:
372,322,137850,6,0,P|391:243|378:216,1,100,4|8,0:0|0:0,0:0:0:0:
311,128,138739,2,0,L|320:192,2,50,0|0|8,0:0|0:0|0:0,0:0:0:0:
96,232,143184,6,0,P|152:216|208:240,1,100,4|8,0:0|0:0,0:0:0:0:
272,136,144072,2,0,P|312:184|320:224,1,100,0|8,0:0|0:0,0:0:0:0:
256,320,144961,5,4,0:0:0:0:
376,304,145406,1,8,0:0:0:0:
496,296,145850,2,0,L|472:232,1,50
451,194,146295,1,8,0:0:0:0:
368,192,149850,6,0,L|320:144,2,50
439,314,150739,1,0,0:0:0:0:
379,352,150961,1,0,0:0:0:0:
315,320,151184,2,0,P|262:329|212:307,1,100
32,344,152072,6,0,P|72:296|120:288,1,100,4|8,0:0|0:0,0:0:0:0:
176,274,152739,1,0,0:0:0:0:
240,240,152961,2,0,L|216:184,1,50
160,160,153406,2,0,P|160:96|192:64,1,100,8|0,0:0|0:0,0:0:0:0:
328,72,154295,5,8,0:0:0:0:
384,200,154739,2,0,P|376:256|328:288,1,100,0|8,0:0|0:0,0:0:0:0:
272,280,155406,1,8,0:0:0:0:
264,352,155628,6,0,L|200:360,1,50,4|0,0:0|0:0,0:0:0:0:
144,336,156072,2,0,P|152:280|120:232,1,100,8|0,0:0|0:0,0:0:0:0:
72,200,156739,2,0,L|64:136,1,50,0|8,0:0|0:0,0:0:0:0:
168,48,157406,5,0,0:0:0:0:
296,120,157850,1,8,0:0:0:0:
408,32,158295,2,0,P|440:88|432:128,1,100,4|8,0:0|0:0,0:0:0:0:
328,216,159184,6,0,P|344:264|408:280,1,100,4|8,0:0|0:0,0:0:0:0:
446,244,159850,1,0,0:0:0:0:
488,184,160072,1,0,0:0:0:0:
464,328,160517,1,8,0:0:0:0:
320,352,160961,6,0,P|288:320|216:320,1,100,0|8,0:0|0:0,0:0:0:0:
101,362,161850,2,0,L|109:260,1,100,0|8,0:0|0:0,0:0:0:0:
68,202,162517,1,0,0:0:0:0:
30,141,162739,6,0,P|38:85|78:61,1,100,4|8,0:0|0:0,0:0:0:0:
189,142,163628,2,0,P|239:158|294:137,1,100,0|8,0:0|0:0,0:0:0:0:
400,64,164517,6,0,P|432:120|427:158,1,100,4|0,0:0|0:0,0:0:0:0:
408,221,165184,1,0,0:0:0:0:
335,220,165406,1,4,0:0:0:0:
240,320,165850,2,0,L|176:328,1,50,8|0,0:0|0:0,0:0:0:0:
120,320,166295,6,0,L|112:208,1,100,4|8,0:0|0:0,0:0:0:0:
200,104,167184,2,0,L|211:218,1,100,0|8,0:0|0:0,0:0:0:0:
320,296,168072,6,0,P|352:240|336:192,1,100,0|8,0:0|0:0,0:0:0:0:
448,104,168961,2,0,L|384:88,1,50
344,136,169406,2,0,P|288:112|240:112,1,100,8|4,0:0|0:0,0:0:0:0:
113,155,170295,5,8,0:0:0:0:
85,295,170739,2,0,L|144:288,1,50
197,322,171184,2,0,P|243:337|304:323,1,100,8|4,0:0|0:0,0:0:0:0:
432,336,172072,1,8,0:0:0:0:
376,208,172517,2,0,L|320:176,1,50,4|0,0:0|0:0,0:0:0:0:
312,115,172961,2,0,L|264:88,1,50,12|0,0:0|0:0,0:0:0:0:
216,40,173406,6,0,P|192:96|200:144,1,100,4|8,0:0|0:0,0:0:0:0:
257,168,174072,2,0,L|277:227,1,50,0|4,0:0|0:0,0:0:0:0:
215,346,174739,1,8,0:0:0:0:
80,305,175184,6,0,P|112:265|168:257,1,100,4|8,0:0|0:0,0:0:0:0:
224,275,175850,1,0,0:0:0:0:
291,291,176072,2,0,P|325:318|386:305,1,100,4|8,0:0|0:0,0:0:0:0:
428,261,176739,6,0,L|426:201,1,50,0|4,0:0|0:0,0:0:0:0:
426,140,177184,1,0,0:0:0:0:
426,70,177406,1,8,0:0:0:0:
286,70,177850,2,0,L|286:129,1,50
236,169,178295,2,0,P|177:150|131:165,1,100,8|0,0:0|0:0,0:0:0:0:
42,258,179184,5,8,0:0:0:0:
72,320,179406,1,0,0:0:0:0:
135,349,179628,2,0,P|183:365|231:341,1,100,4|8,0:0|0:0,0:0:0:0:
341,266,180517,5,4,0:0:0:0:
