osu file format v12

[General]
AudioFilename: Orange Genome.mp3
AudioLeadIn: 0
PreviewTime: 56073
Countdown: 0
SampleSet: Normal
StackLeniency: 0.7
Mode: 0
LetterboxInBreaks: 0

[Editor]
DistanceSpacing: 1.2
BeatDivisor: 4
GridSize: 16

[Metadata]
Title:Orange Genome
TitleUnicode:橙ゲノム
Artist:tsunamaru
ArtistUnicode:つなまる
Creator:goodbye
Version:Insane
Source:
Tags:vocaloid hatsune miku mezamep jomnhnk no_gu
BeatmapID:182759
BeatmapSetID:61278

[Difficulty]
HPDrainRate:7
CircleSize:4
OverallDifficulty:7
ApproachRate:8
SliderMultiplier:1.6
SliderTickRate:1

[Events]
//Background and Video events
0,0,"29232836.jpg",0,0
Video,0,"orange genome.flv"
//Break Periods
2,70295,73100
2,129161,135322
2,140961,142434
2,147961,149100
//Storyboard Layer 0 (Background)
//Storyboard Layer 1 (Fail)
//Storyboard Layer 2 (Pass)
//Storyboard Layer 3 (Foreground)
//Storyboard Sound Samples
//Background Colour Transformations
3,100,163,162,255

[TimingPoints]
19629,444.444444444444,4,1,1,50,1,0
28517,-100,4,2,1,50,0,0
32073,-100,4,2,1,50,0,0
46295,-100,4,1,1,50,0,0
46628,-100,4,2,1,50,0,0
46740,-100,4,1,1,50,0,0
47073,-100,4,2,1,50,0,0
47184,-100,4,1,1,50,0,0
47517,-100,4,2,1,50,0,0
47628,-100,4,1,1,50,0,0
56073,444.444444444444,4,1,1,60,1,1
69851,-100,4,1,1,60,0,0
73850,-100,4,2,1,60,0,0
80961,-166.666666666667,4,2,1,45,0,0
88072,-100,4,1,1,45,0,0
88406,-100,4,2,1,50,0,0
88517,-100,4,1,1,50,0,0
88850,-100,4,2,1,55,0,0
88961,-100,4,1,1,55,0,0
89295,-100,4,2,1,60,0,0
89406,-100,4,1,1,60,0,0
100517,-100,4,1,1,60,0,1
114295,-100,4,1,1,30,0,0
114739,-166.666666666667,4,2,1,60,0,0
125406,-125,4,2,1,60,0,0
136072,-166.666666666667,4,1,1,30,0,0
146072,-100,4,1,1,30,0,0
149850,-166.666666666667,4,2,1,30,0,0
151628,-166.666666666667,4,2,1,10,0,0
152072,-100,4,1,1,50,0,1
171628,-200,4,1,1,50,0,1
172517,-100,4,1,1,50,0,1
173406,-100,4,1,1,45,0,1
175184,-100,4,1,1,50,0,1
180517,-100,4,1,1,50,0,0

[Colours]
Combo1 : 255,196,106
Combo2 : 18,210,226
Combo3 : 0,255,128
Combo4 : 222,22,102

[HitObjects]
384,64,19629,1,4,0:0:0:0:
355,154,19851,1,0,0:0:0:0:
284,218,20073,1,8,0:0:0:0:
189,228,20295,1,0,0:0:0:0:
232,135,20517,1,0,0:0:0:0:
284,218,20740,1,0,0:0:0:0:
262,310,20962,1,8,0:0:0:0:
448,304,21406,5,0,0:0:0:0:
353,277,21628,1,0,0:0:0:0:
262,310,21851,1,8,0:0:0:0:
167,292,22073,1,0,0:0:0:0:
120,208,22295,1,0,0:0:0:0:
168,121,22517,1,0,0:0:0:0:
268,114,22740,1,4,0:0:0:0:
442,173,23184,6,0,B|392:236|420:332,1,160,4|8,0:0|0:0,0:0:0:0:
256,236,23851,1,0,0:0:0:0:
256,236,24073,2,0,B|272:60,1,160,0|8,0:0|0:0,0:0:0:0:
84,156,24962,6,0,B|120:224|104:284|48:320,1,160,0|8,0:0|0:0,0:0:0:0:
256,236,25628,1,0,0:0:0:0:
256,236,25850,2,0,B|272:60,1,160,0|8,0:0|0:0,0:0:0:0:
448,248,26740,6,0,B|368:248|324:320|336:348,1,160,4|8,0:0|0:0,0:0:0:0:
184,347,27406,2,0,B|228:255,1,80,0|8,0:0|0:0,0:0:0:0:
223,263,27740,1,0,0:0:0:0:
226,251,27851,1,0,0:0:0:0:
309,189,28073,1,8,0:0:0:0:
309,189,28517,5,8,0:0:0:0:
240,120,28740,1,2,0:0:0:0:
145,145,28962,1,10,0:0:0:0:
123,238,29184,1,0,0:0:0:0:
190,305,29406,1,10,0:0:0:0:
283,284,29628,1,2,0:0:0:0:
214,215,29851,1,10,0:0:0:0:
214,215,30295,5,8,0:0:0:0:
283,284,30517,1,2,0:0:0:0:
190,305,30740,1,8,0:0:0:0:
122,237,30962,1,2,0:0:0:0:
145,144,31184,1,10,0:0:0:0:
240,120,31406,1,2,0:0:0:0:
309,189,31628,1,10,0:0:0:0:
448,48,32073,6,0,B|505:105|496:208,1,160,4|2,0:0|0:0,0:0:0:0:
452,287,32740,1,0,0:0:0:0:
308,345,32962,1,0,0:0:0:0:
347,245,33184,1,0,0:0:0:0:
279,110,33406,5,2,0:0:0:0:
239,209,33628,1,0,0:0:0:0:
139,168,33851,1,0,0:0:0:0:
93,305,34295,6,0,B|63:337|16:320,1,80,2|2,0:0|0:0,0:0:0:0:
42,129,34740,1,0,0:0:0:0:
42,129,35184,1,2,0:0:0:0:
102,208,35406,1,0,0:0:0:0:
207,216,35628,6,0,B|234:169|307:164|338:173|356:189,1,160,0|2,0:0|0:0,0:0:0:0:
295,282,36295,1,0,0:0:0:0:
207,216,36517,2,0,B|198:164|236:133,1,80
448,176,36962,2,0,B|417:219|368:214,1,80,2|0,0:0|0:0,0:0:0:0:
296,282,37406,5,0,0:0:0:0:
288,184,37628,1,0,0:0:0:0:
149,125,37851,1,2,0:0:0:0:
188,223,38073,1,0,0:0:0:0:
159,320,38295,2,0,B|81:283|14:313|-17:332,1,160,0|8,0:0|0:0,0:0:0:0:
29,211,38962,1,0,0:0:0:0:
20,194,39073,1,0,0:0:0:0:
12,178,39184,6,0,B|16:76|120:60,1,160,4|2,0:0|0:0,0:0:0:0:
192,128,39851,1,0,0:0:0:0:
320,48,40073,1,0,0:0:0:0:
210,24,40295,1,0,0:0:0:0:
295,150,40517,2,0,B|268:192|310:250,1,80,2|0,0:0|0:0,0:0:0:0:
414,347,40962,6,0,B|452:299|447:212|376:181,1,160,0|2,0:0|0:0,0:0:0:0:
320,272,41628,1,0,0:0:0:0:
246,348,41851,2,0,B|208:366|141:370|106:351|82:313,1,160,0|2,0:0|0:0,0:0:0:0:
173,188,42517,1,0,0:0:0:0:
219,40,42740,6,0,B|261:74|249:132,1,80
387,212,43184,2,0,B|336:231|292:191,1,80,2|0,0:0|0:0,0:0:0:0:
80,304,43628,2,0,B|85:206|203:179,1,160,0|2,0:0|0:0,0:0:0:0:
242,271,44295,1,0,0:0:0:0:
402,321,44517,6,0,B|360:348|306:321,1,80
142,312,44962,2,0,B|153:350|202:361,1,80,2|0,0:0|0:0,0:0:0:0:
242,270,45406,2,0,B|175:204|223:121,1,160,0|2,0:0|0:0,0:0:0:0:
235,94,45962,1,0,0:0:0:0:
263,76,46073,1,2,0:0:0:0:
297,76,46184,1,0,0:0:0:0:
327,90,46295,6,0,B|464:73,1,120
501,139,46740,2,0,B|368:157,1,120,8|0,0:0|0:0,0:0:0:0:
330,236,47184,2,0,B|464:216,1,120,8|0,0:0|0:0,0:0:0:0:
497,283,47628,2,0,B|399:297,1,80,8|0,0:0|0:0,0:0:0:0:
274,322,48073,6,0,B|223:369|135:357,1,120
118,344,48517,1,8,0:0:0:0:
151,233,48740,1,0,0:0:0:0:
183,121,48962,1,0,0:0:0:0:
183,121,49406,1,8,0:0:0:0:
177,242,49628,1,0,0:0:0:0:
72,290,49851,6,0,B|24:160,1,120
42,144,50295,1,8,0:0:0:0:
95,52,50517,1,0,0:0:0:0:
263,107,50740,2,0,B|304:189,1,80
480,256,51184,2,0,B|388:250,1,80,8|0,0:0|0:0,0:0:0:0:
246,364,51628,6,0,B|296:287,1,80,0|2,0:0|0:0,0:0:0:0:
163,275,52073,2,0,B|211:179,1,80,8|2,0:0|0:0,0:0:0:0:
76,176,52517,2,0,B|99:86,1,80,0|2,0:0|0:0,0:0:0:0:
95,98,52851,1,0,0:0:0:0:
95,98,52962,1,8,0:0:0:0:
182,35,53184,1,8,0:0:0:0:
182,35,53295,1,0,0:0:0:0:
182,35,53406,6,0,B|272:32|304:112,1,120,0|2,0:0|0:0,0:0:0:0:
302,111,53851,1,8,0:0:0:0:
424,117,54073,1,0,0:0:0:0:
424,117,54184,1,0,0:0:0:0:
424,117,54295,2,0,B|442:166|402:219,1,80,10|0,0:0|0:0,0:0:0:0:
418,236,54628,1,0,0:0:0:0:
396,270,54740,2,0,B|362:303|375:350,1,80,10|0,0:0|0:0,0:0:0:0:
492,223,55184,5,4,0:0:0:0:
303,113,55406,1,2,0:0:0:0:
224,317,55628,1,2,0:0:0:0:
32,304,56073,6,0,B|81:183,1,120,4|0,0:0|0:0,0:0:0:0:
116,205,56517,2,0,B|176:289,1,80,8|0,0:0|0:0,0:0:0:0:
368,319,56962,2,0,B|295:204,1,120
321,181,57406,2,0,B|407:171,1,80,8|0,0:0|0:0,0:0:0:0:
265,84,57851,6,0,B|158:94,1,80
185,91,58295,1,10,0:0:0:0:
343,75,58517,1,0,0:0:0:0:
242,162,58740,2,0,B|382:147,1,120,0|0,0:0|0:0,0:0:0:0:
378,155,59184,1,10,0:0:0:0:
394,162,59295,1,0,0:0:0:0:
410,169,59406,1,10,0:0:0:0:
426,176,59517,1,0,0:0:0:0:
441,185,59628,6,0,B|484:159|470:101,1,80,12|0,0:0|0:0,0:0:0:0:
240,208,60073,2,0,B|266:250|324:235,1,80,8|0,0:0|0:0,0:0:0:0:
266,62,60517,2,0,B|234:30,2,40
122,109,60962,2,0,B|71:115|58:165,1,80,8|0,0:0|0:0,0:0:0:0:
0,349,61406,6,0,B|51:343|64:293,1,80
48,176,61851,1,8,0:0:0:0:
22,260,62073,1,0,0:0:0:0:
160,304,62295,1,4,0:0:0:0:
233,186,62517,1,0,0:0:0:0:
301,63,62740,1,10,0:0:0:0:
319,56,62851,1,0,0:0:0:0:
337,50,62962,2,0,B|356:69,4,20,0|0|0|0|4,0:0|0:0|0:0|0:0|0:0,0:0:0:0:
359,174,63406,5,0,0:0:0:0:
380,184,63517,1,0,0:0:0:0:
400,195,63628,1,12,0:0:0:0:
289,267,63851,2,0,B|296:298,4,20,0|0|0|0|4,0:0|0:0|0:0|0:0|0:0,0:0:0:0:
289,267,64295,1,0,0:0:0:0:
183,216,64517,2,0,B|116:194|73:217|51:236,1,120,8|0,0:0|0:0,0:0:0:0:
44,257,64962,5,4,0:0:0:0:
148,324,65184,1,0,0:0:0:0:
151,202,65406,1,12,0:0:0:0:
27,152,65628,1,0,0:0:0:0:
1,48,65851,2,0,B|71:17|134:44,1,120
152,60,66295,1,12,0:0:0:0:
288,32,66517,1,0,0:0:0:0:
282,66,66628,1,0,0:0:0:0:
268,100,66740,6,0,B|254:152|182:170,1,80,4|8,0:0|0:0,0:0:0:0:
384,40,67184,2,0,B|410:79|393:133,1,80,8|0,0:0|0:0,0:0:0:0:
169,284,67628,2,0,B|205:247|267:262,1,80,8|8,0:0|0:0,0:0:0:0:
361,280,68073,2,0,B|371:235|335:206,1,80,8|0,0:0|0:0,0:0:0:0:
321,203,68406,1,0,0:0:0:0:
304,201,68517,1,12,0:0:0:0:
212,96,68740,5,0,0:0:0:0:
213,118,68851,1,0,0:0:0:0:
215,140,68962,1,8,0:0:0:0:
156,234,69184,1,8,0:0:0:0:
422,256,69406,2,0,B|459:195|427:130|367:104,1,160,8|4,0:0|0:0,0:0:0:0:
272,256,73850,6,0,P|336:192|320:96,1,160,4|2,0:0|0:0,0:0:0:0:
278,21,74517,1,0,0:0:0:0:
170,69,74739,1,0,0:0:0:0:
227,173,74961,1,0,0:0:0:0:
336,127,75184,1,2,0:0:0:0:
35,304,75628,6,0,L|194:273,1,160,0|2,0:0|0:0,0:0:0:0:
192,273,76295,1,0,0:0:0:0:
444,288,76517,2,0,B|259:324,1,160,0|2,0:0|0:0,0:0:0:0:
286,318,77184,1,0,0:0:0:0:
130,341,77406,6,0,B|77:338|36:309|28:264|41:216,1,160,0|2,0:0|0:0,0:0:0:0:
139,238,78072,2,0,B|215:186,1,80
229,75,78517,2,0,B|313:96,1,80,0|2,0:0|0:0,0:0:0:0:
422,129,78961,1,0,0:0:0:0:
444,248,79184,6,0,B|403:265|348:224,1,80
132,177,79628,2,0,B|169:140|239:172,1,80,2|0,0:0|0:0,0:0:0:0:
220,316,80072,1,0,0:0:0:0:
220,316,80517,1,2,0:0:0:0:
272,240,80739,1,0,0:0:0:0:
262,229,80850,1,0,0:0:0:0:
248,219,80961,6,0,B|197:201|144:242,1,95.9999970703126,0|0,0:0|0:0,0:0:0:0:
75,303,81628,1,2,0:0:0:0:
46,201,81850,2,0,B|23:150,2,47.9999985351563,0|2|2,0:0|0:0|0:0,0:0:0:0:
75,303,82517,1,0,0:0:0:0:
191,332,82739,6,0,B|241:361|297:330,1,95.9999970703126,0|2,0:0|0:0,0:0:0:0:
360,264,83406,1,0,0:0:0:0:
217,148,83628,2,0,B|170:123|130:131|113:147,1,95.9999970703126,2|2,0:0|0:0,0:0:0:0:
46,201,84295,1,0,0:0:0:0:
201,251,84517,6,0,B|250:246,2,47.9999985351563,0|2|2,0:0|0:0|0:0,0:0:0:0:
114,345,85184,2,0,B|180:335,1,47.9999985351563,0|2,0:0|0:0,0:0:0:0:
114,345,85628,1,0,0:0:0:0:
16,361,85850,1,0,0:0:0:0:
16,361,86072,1,2,0:0:0:0:
17,237,86295,6,0,B|52:248|52:289,1,47.9999985351563,2|0,0:0|0:0,0:0:0:0:
208,320,86739,2,0,B|199:284|234:265,1,47.9999985351563,0|2,0:0|0:0,0:0:0:0:
304,208,87184,1,0,0:0:0:0:
480,336,87628,2,0,B|448:320,3,23.9999992675781
480,336,88072,6,0,B|450:374|386:362|341:340,1,120,4|0,0:0|0:0,0:0:0:0:
289,366,88517,2,0,B|233:331|159:350,1,120,8|0,0:0|0:0,0:0:0:0:
96,368,88961,2,0,B|47:371|9:338|16:288,1,120
42,224,89406,2,0,B|61:176|26:128,1,80,8|8,0:0|0:0,0:0:0:0:
229,119,89850,6,0,B|264:170|234:238,1,120
208,270,90295,1,8,0:0:0:0:
320,224,90517,1,0,0:0:0:0:
383,328,90739,1,0,0:0:0:0:
383,328,91184,1,8,0:0:0:0:
496,288,91406,1,0,0:0:0:0:
436,170,91628,6,0,B|388:132|385:76|404:36,1,120
352,39,92072,2,0,B|260:89,1,80,8|0,0:0|0:0,0:0:0:0:
96,96,92517,1,0,0:0:0:0:
96,96,92628,1,0,0:0:0:0:
96,96,92739,2,0,B|173:44,1,80,0|8,0:0|0:0,0:0:0:0:
162,51,93184,1,0,0:0:0:0:
212,237,93406,6,0,B|201:293|142:302,1,80,0|2,0:0|0:0,0:0:0:0:
347,296,93850,2,0,B|311:293|300:237,1,80,0|2,0:0|0:0,0:0:0:0:
257,102,94295,1,0,0:0:0:0:
211,237,94517,1,2,0:0:0:0:
288,189,94739,1,8,0:0:0:0:
376,212,94961,1,10,0:0:0:0:
376,212,95072,1,0,0:0:0:0:
376,212,95184,6,0,B|426:215|450:269,1,80,0|8,0:0|0:0,0:0:0:0:
444,300,95517,1,2,0:0:0:0:
419,339,95628,2,0,B|375:365|316:337,1,80,12|0,0:0|0:0,0:0:0:0:
211,238,96072,1,0,0:0:0:0:
187,80,96295,1,0,0:0:0:0:
347,70,96517,1,8,0:0:0:0:
349,83,96628,1,0,0:0:0:0:
346,96,96739,1,0,0:0:0:0:
339,109,96850,1,0,0:0:0:0:
330,120,96961,6,8,B|318:135,3,20,0|0|0|0,0:0|0:0|0:0|0:0,0:0:0:0:
335,139,97184,6,0,B|306:183|335:219,1,80,0|8,0:0|0:0,0:0:0:0:
455,253,97628,1,0,0:0:0:0:
455,253,97739,1,0,0:0:0:0:
455,253,97850,2,0,B|455:310|407:326,1,80,8|0,0:0|0:0,0:0:0:0:
141,317,98295,2,0,B|178:273|243:295,1,80
404,326,98739,5,2,0:0:0:0:
311,263,98961,1,0,0:0:0:0:
292,155,99184,1,8,0:0:0:0:
357,64,99406,1,2,0:0:0:0:
155,64,99628,5,10,0:0:0:0:
245,218,99850,1,0,0:0:0:0:
108,326,100072,1,10,0:0:0:0:
108,326,100517,6,0,B|172:292|240:336,1,120,4|0,0:0|0:0,0:0:0:0:
254,350,100961,1,8,0:0:0:0:
362,326,101184,1,0,0:0:0:0:
262,310,101406,2,0,B|264:254|299:210|352:208,1,120
362,208,101850,1,8,0:0:0:0:
448,272,102072,1,0,0:0:0:0:
422,110,102295,6,0,B|390:78|310:94,1,80,2|0,0:0|0:0,0:0:0:0:
249,32,102739,2,0,B|233:80|169:80,1,80,10|0,0:0|0:0,0:0:0:0:
26,126,103184,2,0,B|71:121|137:148|138:212,1,120,2|0,0:0|0:0,0:0:0:0:
136,208,103628,1,8,0:0:0:0:
123,241,103739,1,2,0:0:0:0:
95,261,103850,1,8,0:0:0:0:
61,258,103961,1,2,0:0:0:0:
32,240,104072,6,0,B|16:320,1,80,4|0,0:0|0:0,0:0:0:0:
240,344,104517,2,0,B|224:296|144:312,1,80,8|0,0:0|0:0,0:0:0:0:
352,256,104961,6,0,B|400:272|448:240,1,80
224,48,105406,2,0,B|304:128,1,80,8|0,0:0|0:0,0:0:0:0:
400,112,105850,5,2,0:0:0:0:
400,112,106072,1,0,0:0:0:0:
304,160,106295,2,0,B|192:176,1,80,10|0,0:0|0:0,0:0:0:0:
80,288,106739,2,0,B|192:272,1,80,6|0,0:0|0:0,0:0:0:0:
287,283,107184,2,0,B|304:320,3,40,12|2|8|2,0:0|0:0|0:0|0:0,0:0:0:0:
320,288,107628,6,0,B|304:208|400:176,1,120
416,176,108072,1,8,0:0:0:0:
432,64,108295,1,0,0:0:0:0:
320,96,108517,2,0,B|309:103|240:112|217:44,1,120
201,12,108961,1,8,0:0:0:0:
75,70,109184,1,0,0:0:0:0:
28,201,109406,6,0,B|85:190|115:219,1,80,0|2,0:0|0:0,0:0:0:0:
288,336,109850,2,0,B|224:352|192:304,1,80,10|0,0:0|0:0,0:0:0:0:
262,187,110295,1,2,0:0:0:0:
368,240,110517,1,2,0:0:0:0:
389,223,110628,1,2,0:0:0:0:
416,224,110739,1,8,0:0:0:0:
512,304,110961,1,2,0:0:0:0:
480,320,111072,1,0,0:0:0:0:
443,322,111184,6,0,B|398:343|344:311,1,80,4|10,0:0|0:0,0:0:0:0:
122,324,111628,2,0,B|143:279|204:286,1,80,10|0,0:0|0:0,0:0:0:0:
125,55,112072,2,0,B|165:88|141:135,1,80,10|8,0:0|0:0,0:0:0:0:
33,29,112517,1,10,0:0:0:0:
44,127,112739,1,8,0:0:0:0:
41,138,112850,1,8,0:0:0:0:
39,152,112961,6,0,B|13:197|55:259,1,80,4|8,0:0|0:0,0:0:0:0:
74,245,113295,1,8,0:0:0:0:
103,272,113406,2,0,B|139:239|197:265,1,80,4|10,0:0|0:0,0:0:0:0:
451,178,113850,2,0,B|407:222|327:211|308:164,1,160,12|0,0:0|0:0,0:0:0:0:
228,12,114739,5,4,0:0:0:0:
124,66,114961,1,2,0:0:0:0:
19,122,115184,1,0,0:0:0:0:
102,204,115406,1,2,0:0:0:0:
102,204,115517,1,0,0:0:0:0:
101,205,115628,2,0,B|94:255,1,47.9999985351563
75,354,116072,1,2,0:0:0:0:
471,300,116517,5,0,0:0:0:0:
410,183,116739,1,2,0:0:0:0:
344,67,116961,1,0,0:0:0:0:
263,173,117184,1,2,0:0:0:0:
262,173,117295,1,0,0:0:0:0:
262,173,117406,2,0,B|244:151|205:160,1,47.9999985351563,0|2,0:0|0:0,0:0:0:0:
89,186,117850,1,2,0:0:0:0:
125,322,118295,5,4,0:0:0:0:
255,292,118517,1,2,0:0:0:0:
327,174,118739,1,0,0:0:0:0:
266,34,118961,1,2,0:0:0:0:
266,34,119072,1,0,0:0:0:0:
266,34,119184,2,0,B|241:59|251:86,1,47.9999985351563,2|2,0:0|0:0,0:0:0:0:
128,112,119628,2,0,B|133:145|166:152,1,47.9999985351563,2|2,0:0|0:0,0:0:0:0:
256,292,120072,6,0,B|227:274|191:300,1,47.9999985351563,2|0,0:0|0:0,0:0:0:0:
104,353,120517,1,2,0:0:0:0:
75,240,120739,1,2,0:0:0:0:
188,192,120961,5,0,0:0:0:0:
198,70,121184,1,2,0:0:0:0:
312,143,121406,5,2,0:0:0:0:
373,243,121628,1,2,0:0:0:0:
467,163,121850,6,0,B|498:200,1,47.9999985351563,4|2,0:0|0:0,0:0:0:0:
373,243,122295,2,0,B|368:304,1,47.9999985351563,2|0,0:0|0:0,0:0:0:0:
243,244,122739,2,0,B|202:272,1,47.9999985351563,0|2,0:0|0:0,0:0:0:0:
180,144,123184,2,0,B|128:135,1,47.9999985351563,2|2,0:0|0:0,0:0:0:0:
44,49,123628,5,4,0:0:0:0:
142,20,123850,1,2,0:0:0:0:
246,63,124072,1,0,0:0:0:0:
273,178,124295,1,2,0:0:0:0:
385,233,124517,1,2,0:0:0:0:
499,166,124739,1,2,0:0:0:0:
490,30,124961,1,2,0:0:0:0:
22,354,125406,5,4,0:0:0:0:
13,218,125628,1,2,0:0:0:0:
127,151,125850,1,2,0:0:0:0:
239,206,126072,1,0,0:0:0:0:
266,321,126295,1,2,0:0:0:0:
370,364,126517,1,2,0:0:0:0:
464,336,126739,1,2,0:0:0:0:
415,84,127184,5,4,0:0:0:0:
381,178,127406,1,2,0:0:0:0:
287,221,127628,1,0,0:0:0:0:
174,211,127850,1,2,0:0:0:0:
45,143,128072,1,2,0:0:0:0:
111,289,128295,1,0,0:0:0:0:
271,326,128517,1,2,0:0:0:0:
428,279,128739,1,0,0:0:0:0:
510,128,128961,5,4,0:0:0:0:
240,192,136072,6,0,B|229:249|290:284,1,95.9999970703126,4|0,0:0|0:0,0:0:0:0:
398,109,136961,1,0,0:0:0:0:
398,109,137184,2,0,B|338:80,1,47.9999985351563,0|0,0:0|0:0,0:0:0:0:
93,135,137850,6,0,B|74:189|117:230,1,95.9999970703126,4|0,0:0|0:0,0:0:0:0:
438,211,138739,1,0,0:0:0:0:
438,211,138961,2,0,B|489:187,1,47.9999985351563
256,336,143184,6,0,B|224:288|256:240,1,95.9999970703126,4|0,0:0|0:0,0:0:0:0:
384,67,144072,1,0,0:0:0:0:
384,67,144295,2,0,B|394:112|369:129,1,47.9999985351563
123,231,144961,6,0,B|109:172|160:136,1,95.9999970703126,4|0,0:0|0:0,0:0:0:0:
434,271,145850,1,0,0:0:0:0:
368,336,146072,2,0,B|359:353,4,20,0|0|0|0|4,0:0|0:0|0:0|0:0|0:0,0:0:0:0:
256,192,149850,5,0,0:0:0:0:
319,130,150072,1,0,0:0:0:0:
351,219,150295,2,0,B|361:262|335:306|308:310,1,95.9999970703126
321,304,150961,1,0,0:0:0:0:
124,312,151184,2,0,B|174:268|233:297,1,95.9999970703126
240,288,152072,6,0,B|191:361|77:336,1,160,4|8,0:0|0:0,0:0:0:0:
27,240,152739,2,0,B|36:201,2,40
123,169,153184,1,0,0:0:0:0:
235,101,153406,2,0,B|203:200,1,80,8|0,0:0|0:0,0:0:0:0:
240,288,153850,6,0,P|317:254|381:270,1,120
388,285,154295,2,0,L|497:257,1,80,8|0,0:0|0:0,0:0:0:0:
480,96,154739,2,0,L|416:112,1,40
416,112,154961,2,0,L|384:80,1,40
367,66,155184,2,0,P|319:50|271:66,1,80,8|4,0:0|0:0,0:0:0:0:
268,71,155517,1,8,0:0:0:0:
246,85,155628,6,0,P|207:94|150:85,1,80,4|0,0:0|0:0,0:0:0:0:
32,208,156072,1,8,0:0:0:0:
32,208,156295,2,0,P|80:256|80:288,1,80
16,352,156739,1,0,0:0:0:0:
208,304,156961,1,8,0:0:0:0:
304,352,157184,1,0,0:0:0:0:
416,336,157406,6,0,P|384:272|400:240,1,80
393,232,157739,1,0,0:0:0:0:
414,202,157850,2,0,P|430:138|414:106,1,80,8|0,0:0|0:0,0:0:0:0:
272,32,158295,2,0,L|304:80,3,40,4|0|0|0,0:0|0:0|0:0|0:0,0:0:0:0:
320,80,158739,2,0,P|288:128|304:176,1,80,12|0,0:0|0:0,0:0:0:0:
304,176,159072,1,0,0:0:0:0:
320,192,159184,6,0,L|144:208,1,160,4|8,0:0|0:0,0:0:0:0:
160,206,159850,1,0,0:0:0:0:
48,128,160072,1,0,0:0:0:0:
48,128,160184,2,0,L|32:192,1,40
2,292,160517,1,8,0:0:0:0:
126,332,160739,2,0,P|158:364|222:348,1,80
304,304,161184,5,0,0:0:0:0:
368,192,161406,1,8,0:0:0:0:
278,80,161628,1,0,0:0:0:0:
157,145,161850,2,0,L|92:150,4,40,0|0|0|0|8,0:0|0:0|0:0|0:0|0:0,0:0:0:0:
176,272,162517,1,0,0:0:0:0:
176,272,162628,1,0,0:0:0:0:
176,272,162739,6,0,L|80:288,1,80,4|0,0:0|0:0,0:0:0:0:
276,192,163184,2,0,L|372:176,1,80,8|0,0:0|0:0,0:0:0:0:
157,144,163628,1,0,0:0:0:0:
176,272,163850,1,0,0:0:0:0:
276,192,164072,1,8,0:0:0:0:
202,203,164295,1,0,0:0:0:0:
202,203,164406,1,0,0:0:0:0:
202,203,164517,6,0,P|240:256|288:256,1,80,4|0,0:0|0:0,0:0:0:0:
250,259,164850,1,0,0:0:0:0:
250,259,164961,1,12,0:0:0:0:
384,256,165184,1,0,0:0:0:0:
377,128,165406,1,4,0:0:0:0:
377,128,165517,1,0,0:0:0:0:
377,128,165628,1,0,0:0:0:0:
377,128,165739,1,8,0:0:0:0:
377,128,165850,1,8,0:0:0:0:
240,127,166072,1,8,0:0:0:0:
312,195,166295,6,0,L|342:335,1,120,4|0,0:0|0:0,0:0:0:0:
387,313,166739,2,0,P|287:292|226:321,1,160,8|0,0:0|0:0,0:0:0:0:
12,338,167628,1,8,0:0:0:0:
144,112,168072,5,0,0:0:0:0:
256,48,168295,1,0,0:0:0:0:
333,156,168517,1,8,0:0:0:0:
218,224,168739,1,0,0:0:0:0:
218,224,168850,1,0,0:0:0:0:
218,224,168961,2,0,P|208:272|160:304,1,80
96,352,169406,2,0,P|176:336|240:368,1,120,8|0,0:0|0:0,0:0:0:0:
240,352,169850,5,4,0:0:0:0:
336,320,170072,1,0,0:0:0:0:
368,224,170295,1,10,0:0:0:0:
96,48,170739,5,0,0:0:0:0:
144,144,170961,1,0,0:0:0:0:
256,160,171184,1,8,0:0:0:0:
368,96,171628,6,0,L|400:56,1,40
510,73,172072,2,0,L|478:117,1,40,8|0,0:0|0:0,0:0:0:0:
432,200,172517,5,4,0:0:0:0:
320,192,172739,1,0,0:0:0:0:
267,293,172961,1,12,0:0:0:0:
320,376,173184,1,0,0:0:0:0:
160,320,173406,6,0,L|128:304,4,20,4|0|0|0|8,0:0|0:0|0:0|0:0|0:0,0:0:0:0:
110,167,173850,2,0,L|103:132,4,20,0|0|0|0|8,0:0|0:0|0:0|0:0|0:0,0:0:0:0:
242,75,174295,2,0,P|304:64|368:88,1,120,4|0,0:0|0:0,0:0:0:0:
415,133,174739,1,8,0:0:0:0:
478,276,174961,2,0,L|470:241,2,20
478,276,175184,6,0,P|447:263|390:266,1,80,4|0,0:0|0:0,0:0:0:0:
168,289,175628,2,0,P|212:303|264:289,1,80,8|0,0:0|0:0,0:0:0:0:
295,153,176072,2,0,P|295:87|234:37,1,120
179,29,176517,1,8,0:0:0:0:
207,167,176739,1,0,0:0:0:0:
89,246,176961,6,0,P|79:305|99:333,1,80,4|8,0:0|0:0,0:0:0:0:
288,258,177406,1,8,0:0:0:0:
464,128,177850,6,0,P|464:80|416:48,1,80,0|8,0:0|0:0,0:0:0:0:
207,226,178295,1,8,0:0:0:0:
219,309,178517,1,0,0:0:0:0:
365,216,178739,6,0,P|340:183|282:176,1,80
128,48,179184,1,8,0:0:0:0:
141,133,179406,1,8,0:0:0:0:
141,133,179517,1,2,0:0:0:0:
141,133,179628,2,0,L|81:223,1,80,4|0,0:0|0:0,0:0:0:0:
16,240,180072,1,12,0:0:0:0:
448,176,180517,5,4,0:0:0:0:
