osu file format v12

[General]
AudioFilename: Orange Genome.mp3
AudioLeadIn: 0
PreviewTime: 56073
Countdown: 0
SampleSet: Normal
StackLeniency: 0.7
Mode: 0
LetterboxInBreaks: 0

[Editor]
DistanceSpacing: 1.2
BeatDivisor: 4
GridSize: 8

[Metadata]
Title:Orange Genome
TitleUnicode:橙ゲノム
Artist:tsunamaru
ArtistUnicode:つなまる
Creator:goodbye
Version:Easy
Source:
Tags:vocaloid hatsune miku mezamep jomnhnk no_gu
BeatmapID:219958
BeatmapSetID:61278

[Difficulty]
HPDrainRate:3
CircleSize:4
OverallDifficulty:3
ApproachRate:3
SliderMultiplier:0.6
SliderTickRate:1

[Events]
//Background and Video events
0,0,"29232836.jpg",0,0
Video,0,"orange genome.flv"
//Break Periods
2,70295,72410
2,129161,134632
2,140961,141744
2,148072,148855
//Storyboard Layer 0 (Background)
//Storyboard Layer 1 (Fail)
//Storyboard Layer 2 (Pass)
//Storyboard Layer 3 (Foreground)
//Storyboard Sound Samples
//Background Colour Transformations
3,100,163,162,255

[TimingPoints]
19629,444.444444444444,4,1,1,50,1,0
32073,-100,4,2,1,50,0,0
46295,-100,4,1,1,50,0,0
46628,-100,4,2,1,50,0,0
46740,-100,4,1,1,50,0,0
47073,-100,4,2,1,50,0,0
47184,-100,4,1,1,50,0,0
47517,-100,4,2,1,50,0,0
47628,-100,4,1,1,50,0,0
56073,444.444444444444,4,1,1,60,1,1
69850,-100,4,1,1,60,0,0
73850,-100,4,2,1,60,0,0
80961,-100,4,2,1,45,0,0
88072,-100,4,1,1,45,0,0
88406,-100,4,2,1,50,0,0
88517,-100,4,1,1,50,0,0
88850,-100,4,2,1,55,0,0
88961,-100,4,1,1,55,0,0
89295,-100,4,2,1,60,0,0
89406,-100,4,1,1,60,0,0
100517,-100,4,1,1,60,0,1
114295,-100,4,1,1,60,0,0
114739,-100,4,2,1,40,0,0
125406,-100,4,2,1,45,0,0
127184,-100,4,2,1,50,0,0
136072,-100,4,1,1,30,0,0
149850,-100,4,2,1,30,0,0
152072,-100,4,1,1,50,0,1
171628,-100,4,1,1,50,0,1
172517,-100,4,1,1,50,0,1
180517,-100,4,1,1,50,0,0

[Colours]
Combo1 : 255,196,106
Combo2 : 18,210,226
Combo3 : 0,255,128
Combo4 : 222,22,102

[HitObjects]
93,168,19629,2,0,B|154:74|254:141,1,180,4|8,0:0|0:0,0:0:0:0:
302,185,21406,2,0,P|366:241|441:203,1,180,0|8,0:0|0:0,0:0:0:0:
375,170,23184,6,0,L|367:42,1,120,4|0,0:0|0:0,0:0:0:0:
296,32,24517,1,8,0:0:0:0:
224,56,24962,6,0,P|176:72|93:54,1,120,0|0,0:0|0:0,0:0:0:0:
40,40,26295,1,8,0:0:0:0:
56,112,26740,5,4,0:0:0:0:
64,256,27628,2,0,P|96:240|128:248,1,60,0|8,0:0|0:0,0:0:0:0:
184,272,28517,6,0,B|240:296|319:274|312:176,1,180
264,136,30295,2,0,P|337:111|438:146,1,180
472,200,32073,5,4,0:0:0:0:
392,320,32962,1,2,0:0:0:0:
256,264,33851,1,0,0:0:0:0:
260,191,34295,1,0,0:0:0:0:
265,119,34740,1,2,0:0:0:0:
408,72,35628,5,0,0:0:0:0:
265,118,36517,1,2,0:0:0:0:
132,171,37406,1,0,0:0:0:0:
85,114,37851,1,0,0:0:0:0:
40,56,38295,1,2,0:0:0:0:
8,200,39184,6,0,P|32:256|120:280,1,120,4|2,0:0|0:0,0:0:0:0:
200,200,40962,1,0,0:0:0:0:
204,273,41406,1,0,0:0:0:0:
208,344,41851,1,2,0:0:0:0:
336,264,42740,6,0,P|360:184|328:128,1,120,0|2,0:0|0:0,0:0:0:0:
256,40,44517,2,0,P|234:121|280:184,1,120,0|2,0:0|0:0,0:0:0:0:
216,296,46295,5,4,0:0:0:0:
140,297,46740,1,8,0:0:0:0:
69,296,47184,1,0,0:0:0:0:
69,149,48073,1,0,0:0:0:0:
143,148,48517,1,8,0:0:0:0:
215,149,48962,1,0,0:0:0:0:
216,296,49851,6,0,P|280:256|360:272,1,120,0|8,0:0|0:0,0:0:0:0:
469,256,51628,2,0,P|406:197|418:126,1,120,0|8,0:0|0:0,0:0:0:0:
436,102,52962,1,0,0:0:0:0:
471,38,53406,6,0,L|407:53,1,60,0|8,0:0|0:0,0:0:0:0:
343,26,54295,2,0,L|290:82,1,60,8|0,0:0|0:0,0:0:0:0:
240,109,55184,1,4,0:0:0:0:
278,173,55628,1,0,0:0:0:0:
352,184,56073,6,0,P|392:256|352:320,1,120,4|0,0:0|0:0,0:0:0:0:
317,319,57406,1,8,0:0:0:0:
250,348,57850,2,0,L|112:351,1,120
26,246,59628,6,0,L|114:239,1,60,4|8,0:0|0:0,0:0:0:0:
157,225,60517,2,0,L|139:160,1,60,0|8,0:0|0:0,0:0:0:0:
160,96,61406,2,0,P|234:89|290:111,1,120,0|4,0:0|0:0,0:0:0:0:
328,154,62739,1,8,0:0:0:0:
384,104,63184,6,0,P|404:158|363:222,1,120,4|0,0:0|0:0,0:0:0:0:
307,229,64517,1,8,0:0:0:0:
255,280,64961,2,0,L|112:277,1,120
31,173,66739,6,0,P|47:137|95:128,1,60,4|8,0:0|0:0,0:0:0:0:
132,153,67628,2,0,P|164:167|197:159,1,60,0|8,0:0|0:0,0:0:0:0:
239,111,68517,2,0,L|367:83,1,120,4|0,0:0|0:0,0:0:0:0:
428,98,69850,1,8,0:0:0:0:
224,40,73850,6,0,P|168:64|144:152,1,120,4|2,0:0|0:0,0:0:0:0:
272,176,75628,1,0,0:0:0:0:
211,216,76072,1,0,0:0:0:0:
152,256,76517,1,2,0:0:0:0:
280,320,77406,6,0,P|360:344|416:312,1,120,0|2,0:0|0:0,0:0:0:0:
512,248,79183,2,0,P|431:226|368:272,1,120,0|2,0:0|0:0,0:0:0:0:
254,251,80961,5,2,0:0:0:0:
184,226,81850,1,0,0:0:0:0:
132,277,82739,1,2,0:0:0:0:
80,225,83628,5,0,0:0:0:0:
80,151,84517,1,2,0:0:0:0:
146,120,85406,1,0,0:0:0:0:
206,165,86295,2,0,P|240:208|306:219,1,120,2|0,0:0|0:0,0:0:0:0:
441,179,88072,5,4,0:0:0:0:
372,305,88961,1,0,0:0:0:0:
245,230,89850,1,0,0:0:0:0:
262,159,90295,1,0,0:0:0:0:
278,87,90739,1,0,0:0:0:0:
421,59,91627,5,0,0:0:0:0:
357,191,92516,1,0,0:0:0:0:
214,156,93405,1,0,0:0:0:0:
176,218,93850,1,0,0:0:0:0:
140,282,94294,1,0,0:0:0:0:
266,355,95184,6,0,P|354:321|411:330,1,120
481,218,96961,2,0,P|408:174|411:97,1,120
296,248,98739,5,0,0:0:0:0:
235,206,99184,1,0,0:0:0:0:
172,164,99628,1,0,0:0:0:0:
229,117,100072,1,0,0:0:0:0:
300,136,100517,6,0,P|334:201|289:269,1,120,4|0,0:0|0:0,0:0:0:0:
254,272,101850,1,8,0:0:0:0:
315,314,102295,2,0,L|462:295,1,120
434,153,104072,6,0,P|440:121|427:86,1,60,4|8,0:0|0:0,0:0:0:0:
381,43,104961,2,0,P|353:67|325:71,1,60,0|8,0:0|0:0,0:0:0:0:
259,56,105850,2,0,P|276:80|270:119,1,60,0|8,0:0|0:0,0:0:0:0:
239,173,106739,1,4,0:0:0:0:
321,293,107628,6,0,P|268:302|213:266,1,120,4|0,0:0|0:0,0:0:0:0:
142,272,108961,1,8,0:0:0:0:
142,199,109406,2,0,P|128:136|157:87,1,120
282,159,111184,6,0,P|354:191|426:143,1,120,4|0,0:0|0:0,0:0:0:0:
329,46,112961,2,0,L|252:33,1,60,0|8,0:0|0:0,0:0:0:0:
218,87,113850,2,0,L|136:93,1,60,8|0,0:0|0:0,0:0:0:0:
96,48,114739,5,4,0:0:0:0:
112,192,115628,1,0,0:0:0:0:
256,168,116517,5,0,0:0:0:0:
184,296,117406,1,0,0:0:0:0:
320,344,118295,5,4,0:0:0:0:
352,200,119184,1,0,0:0:0:0:
312,64,120072,2,0,P|248:40|192:56,1,120
119,174,121850,5,4,0:0:0:0:
249,112,122739,1,0,0:0:0:0:
249,262,123628,6,0,P|337:302|409:198,2,240,4|4|4,0:0|0:0|0:0,0:0:0:0:
256,192,127295,12,4,128961,0:0:0:0:
256,192,136072,12,2,139628,0:0:0:0:
256,192,143184,12,4,146739,0:0:0:0:
349,82,150295,5,2,0:0:0:0:
207,52,151184,1,2,0:0:0:0:
104,152,152072,6,0,P|120:232|200:256,1,120,4|0,0:0|0:0,0:0:0:0:
213,214,153406,1,8,0:0:0:0:
279,178,153850,2,0,L|414:160,1,120
488,280,155628,6,0,L|387:294,1,60,4|8,0:0|0:0,0:0:0:0:
362,252,156517,1,0,0:0:0:0:
360,330,156961,1,8,0:0:0:0:
286,330,157406,2,0,P|255:336|224:319,1,60,0|0,0:0|0:0,0:0:0:0:
176,273,158295,1,4,0:0:0:0:
26,286,159184,6,0,P|6:232|47:168,1,120,4|0,0:0|0:0,0:0:0:0:
103,161,160517,1,8,0:0:0:0:
155,110,160961,2,0,L|298:113,1,120
400,194,162739,6,0,P|384:230|336:239,1,60,4|8,0:0|0:0,0:0:0:0:
299,214,163628,2,0,P|267:200|234:208,1,60,0|8,0:0|0:0,0:0:0:0:
192,256,164517,2,0,L|130:270,1,60,4|4,0:0|0:0,0:0:0:0:
62,288,165406,1,4,0:0:0:0:
21,226,165850,1,12,0:0:0:0:
45,156,166295,6,0,P|118:78|225:93,1,180,4|8,0:0|0:0,0:0:0:0:
254,105,168072,2,0,P|324:141|433:89,1,180,0|8,0:0|0:0,0:0:0:0:
468,57,169850,6,0,L|469:212,1,120,4|0,0:0|0:0,0:0:0:0:
362,283,171628,2,0,L|279:268,1,60,0|8,0:0|0:0,0:0:0:0:
231,248,172517,2,0,L|171:290,1,60,12|8,0:0|0:0,0:0:0:0:
112,312,173406,6,0,P|46:251|58:201,1,120,4|0,0:0|0:0,0:0:0:0:
74,158,174739,1,8,0:0:0:0:
108,91,175184,1,4,0:0:0:0:
242,157,176072,1,4,0:0:0:0:
376,224,176961,6,0,L|463:209,1,60,4|8,0:0|0:0,0:0:0:0:
453,286,177850,2,0,L|356:303,1,60,0|8,0:0|0:0,0:0:0:0:
320,280,178739,2,0,P|229:258|187:286,1,120,0|4,0:0|0:0,0:0:0:0:
74,333,180517,5,4,0:0:0:0:
