osu file format v14

[General]
AudioFilename: trapman - minefield surfing.mp3
AudioLeadIn: 0
PreviewTime: 29981
Countdown: 0
SampleSet: Soft
StackLeniency: 0.7
Mode: 3
LetterboxInBreaks: 0
SpecialStyle: 1
WidescreenStoryboard: 1

[Editor]
DistanceSpacing: 0.9
BeatDivisor: 4
GridSize: 32
TimelineZoom: 2.1

[Metadata]
Title:minefield surfing
TitleUnicode:minefield surfing
Artist:trapman
ArtistUnicode:trapman
Creator:JamesHappy
Version:Another
Source:BMS
Tags:
BeatmapID:1154032
BeatmapSetID:544596

[Difficulty]
HPDrainRate:8
CircleSize:4
OverallDifficulty:10
ApproachRate:5
SliderMultiplier:1.4
SliderTickRate:1

[Events]
//Background and Video events
0,0,"sdsd.jpg",0,0
//Break Periods
//Storyboard Layer 0 (Background)
//Storyboard Layer 1 (Fail)
//Storyboard Layer 2 (Pass)
//Storyboard Layer 3 (Foreground)
//Storyboard Sound Samples

[TimingPoints]
3526,400,4,2,0,100,1,0
3526,-100,4,2,0,100,0,0
15526,342.857142857143,4,2,0,100,1,0
15526,-116.666666666667,4,2,0,100,0,0
16211,400,4,2,0,100,1,0
16211,-100,4,2,0,100,0,0
20211,342.857142857143,4,2,0,100,1,0
20211,-116.666666666667,4,2,0,100,0,0
20896,400,4,2,0,100,1,0
20896,-100,4,2,0,100,0,0
24896,342.857142857143,4,2,0,100,1,0
24896,-116.666666666667,4,2,0,100,0,0
25581,400,4,2,0,100,1,0
25581,-100,4,2,0,100,0,0
28781,300,4,2,0,100,1,0
28781,-133.333333333333,4,2,0,100,0,0
29981,400,4,2,0,100,1,0
29981,-100,4,2,0,100,0,0
34781,300,4,2,0,100,1,0
34781,-133.333333333333,4,2,0,100,0,0
35981,400,4,2,0,100,1,0
35981,-100,4,2,0,100,0,0
38381,342.857142857143,4,2,0,100,1,0
38381,-116.666666666667,4,2,0,100,0,0
39066,300,4,2,0,100,1,0
39066,-133.333333333333,4,2,0,100,0,0
40266,400,4,2,0,100,1,0
40266,-100,4,2,0,100,0,0
40666,394.736842105263,4,2,0,100,1,0
40666,-101.333333333333,4,2,0,100,0,0
41060,387.096774193548,4,2,0,100,1,0
41060,-103.333333333333,4,2,0,100,0,0
41447,379.746835443038,4,2,0,100,1,0
41447,-105.333333333333,4,2,0,100,0,0
41826,375,4,2,0,100,1,0
41826,-106.666666666667,4,2,0,100,0,0
42201,352.941176470588,4,2,0,100,1,0
42201,-113.333333333333,4,2,0,100,0,0
42553,333.333333333333,4,2,0,100,1,0
42553,-120,4,2,0,100,0,0
42886,352.941176470588,4,2,0,100,1,0
42886,-113.333333333333,4,2,0,100,0,0
43238,375,4,2,0,100,1,0
43238,-106.666666666667,4,2,0,100,0,0
43613,400,4,2,0,100,1,0
43613,-100,4,2,0,100,0,0
44013,405.405405405405,4,2,0,100,1,0
44013,-98.6666666666668,4,2,0,100,0,0
44418,428.571428571429,4,2,0,100,1,0
44418,-93.3333333333332,4,2,0,100,0,0
44846,461.538461538462,4,2,0,100,1,0
44846,-86.6666666666666,4,2,0,100,0,0
45307,500,4,2,0,100,1,0
45307,-80,4,2,0,100,0,0
45807,444.444444444444,4,2,0,100,1,0
45807,-90.0000000000001,4,2,0,100,0,0
46251,352.941176470588,4,2,0,100,1,0
46251,-113.333333333333,4,2,0,100,0,0
46603,333.333333333333,4,2,0,100,1,0
46603,-120,4,2,0,100,0,0
46936,315.789473684211,4,2,0,100,1,0
46936,-126.666666666667,4,2,0,100,0,0
47251,352.941176470588,4,2,0,100,1,0
47251,-113.333333333333,4,2,0,100,0,0
47603,400,4,2,0,100,1,0
47603,-100,4,2,0,100,0,0
48003,428.571428571429,4,2,0,100,1,0
48003,-93.3333333333332,4,2,0,100,0,0
48431,500,4,2,0,100,1,0
48431,-80,4,2,0,100,0,0
48931,400,4,2,0,100,1,0
48931,-100,4,2,0,100,0,0
49331,375,4,2,0,100,1,0
49331,-106.666666666667,4,2,0,100,0,0
49706,352.941176470588,4,2,0,100,1,0
49706,-113.333333333333,4,2,0,100,0,0
50058,272.727272727273,4,2,0,100,1,0
50058,-146.666666666667,4,2,0,100,0,0
50330,240,4,2,0,100,1,0
50330,-166.666666666667,4,2,0,100,0,0
50570,300,4,2,0,100,1,0
50570,-133.333333333333,4,2,0,100,0,0
50870,333.333333333333,4,2,0,100,1,0
50870,-120,4,2,0,100,0,0
51203,352.941176470588,4,2,0,100,1,0
51203,-113.333333333333,4,2,0,100,0,0
51555,375,4,2,0,100,1,0
51555,-106.666666666667,4,2,0,100,0,0
51930,400,4,2,0,100,1,0
51930,-100,4,2,0,100,0,0
52330,461.538461538462,4,2,0,100,1,0
52330,-86.6666666666666,4,2,0,100,0,0
52791,500,4,2,0,100,1,0
52791,-80,4,2,0,100,0,0
53291,666.666666666667,4,2,0,100,1,0
53291,-60,4,2,0,100,0,0
53957,461.538461538462,4,2,0,100,1,0
53957,-86.6666666666666,4,2,0,100,0,0
54418,428.571428571429,4,2,0,100,1,0
54418,-93.3333333333332,4,2,0,100,0,0
54846,500,4,2,0,100,1,0
54846,-80,4,2,0,100,0,0
55346,600,4,2,0,100,1,0
55346,-66.6666666666667,4,2,0,100,0,0
55946,666.666666666667,4,2,0,100,1,0
55946,-60,4,2,0,100,0,0
56612,1000,4,2,0,100,1,0
56612,-40,4,2,0,100,0,0
57612,600,4,2,0,100,1,0
57612,-66.6666666666667,4,2,0,100,0,0
58212,461.538461538462,4,2,0,100,1,0
58212,-86.6666666666666,4,2,0,100,0,0
58673,400,4,2,0,100,1,0
58673,-100,4,2,0,100,0,0
59073,352.941176470588,4,2,0,100,1,0
59073,-113.333333333333,4,2,0,100,0,0
59425,333.333333333333,4,2,0,100,1,0
59425,-120,4,2,0,100,0,0
59758,315.789473684211,4,2,0,100,1,0
59758,-126.666666666667,4,2,0,100,0,0
60073,300,4,2,0,100,1,0
60073,-133.333333333333,4,2,0,100,0,0
60373,285.714285714286,4,2,0,100,1,0
60373,-140,4,2,0,100,0,0
60658,272.727272727273,4,2,0,100,1,0
60658,-146.666666666667,4,2,0,100,0,0
60930,260.869565217391,4,2,0,100,1,0
60930,-153.333333333334,4,2,0,100,0,0
61190,250,4,2,0,100,1,0
61190,-160,4,2,0,100,0,0
61440,240,4,2,0,100,1,0
61440,-166.666666666667,4,2,0,100,0,0
61680,272.727272727273,4,2,0,100,1,0
61680,-146.666666666667,4,2,0,100,0,0
61952,300,4,2,0,100,1,0
61952,-133.333333333333,4,2,0,100,0,0
62252,333.333333333333,4,2,0,100,1,0
62252,-120,4,2,0,100,0,0
62585,400,4,2,0,100,1,0
62585,-100,4,2,0,100,0,0
62985,461.538461538462,4,2,0,100,1,0
62985,-86.6666666666666,4,2,0,100,0,0
63446,500,4,2,0,100,1,0
63446,-80,4,2,0,100,0,0
63946,428.571428571429,4,2,0,100,1,0
63946,-93.3333333333332,4,2,0,100,0,0
64374,400,4,2,0,100,1,0
64374,-100,4,2,0,100,0,0
64774,375,4,2,0,100,1,0
64774,-106.666666666667,4,2,0,100,0,0
65149,352.941176470588,4,2,0,100,1,0
65149,-113.333333333333,4,2,0,100,0,0
65501,375,4,2,0,100,1,0
65501,-106.666666666667,4,2,0,100,0,0
65876,400,4,2,0,100,1,0
65876,-100,4,2,0,100,0,0
66276,394.736842105263,4,2,0,100,1,0
66276,-101.333333333333,4,2,0,100,0,0
66670,387.096774193548,4,2,0,100,1,0
66670,-103.333333333333,4,2,0,100,0,0
67057,379.746835443038,4,2,0,100,1,0
67057,-105.333333333333,4,2,0,100,0,0
67436,375,4,2,0,100,1,0
67436,-106.666666666667,4,2,0,100,0,0
67811,352.941176470588,4,2,0,100,1,0
67811,-113.333333333333,4,2,0,100,0,0
68163,333.333333333333,4,2,0,100,1,0
68163,-120,4,2,0,100,0,0
68496,352.941176470588,4,2,0,100,1,0
68496,-113.333333333333,4,2,0,100,0,0
68848,375,4,2,0,100,1,0
68848,-106.666666666667,4,2,0,100,0,0
69223,400,4,2,0,100,1,0
69223,-100,4,2,0,100,0,0
69623,405.405405405405,4,2,0,100,1,0
69623,-98.6666666666668,4,2,0,100,0,0
70028,428.571428571429,4,2,0,100,1,0
70028,-93.3333333333332,4,2,0,100,0,0
70456,461.538461538462,4,2,0,100,1,0
70456,-86.6666666666666,4,2,0,100,0,0
70917,500,4,2,0,100,1,0
70917,-80,4,2,0,100,0,0
71417,444.444444444444,4,2,0,100,1,0
71417,-90.0000000000001,4,2,0,100,0,0
71861,352.941176470588,4,2,0,100,1,0
71861,-113.333333333333,4,2,0,100,0,0
72213,333.333333333333,4,2,0,100,1,0
72213,-120,4,2,0,100,0,0
72546,315.789473684211,4,2,0,100,1,0
72546,-126.666666666667,4,2,0,100,0,0
72861,352.941176470588,4,2,0,100,1,0
72861,-113.333333333333,4,2,0,100,0,0
73213,400,4,2,0,100,1,0
73213,-100,4,2,0,100,0,0
73613,428.571428571429,4,2,0,100,1,0
73613,-93.3333333333332,4,2,0,100,0,0
74041,500,4,2,0,100,1,0
74041,-80,4,2,0,100,0,0
74541,400,4,2,0,100,1,0
74541,-100,4,2,0,100,0,0
74941,375,4,2,0,100,1,0
74941,-106.666666666667,4,2,0,100,0,0
75316,352.941176470588,4,2,0,100,1,0
75316,-113.333333333333,4,2,0,100,0,0
75668,272.727272727273,4,2,0,100,1,0
75668,-146.666666666667,4,2,0,100,0,0
75940,240,4,2,0,100,1,0
75940,-166.666666666667,4,2,0,100,0,0
76180,300,4,2,0,100,1,0
76180,-133.333333333333,4,2,0,100,0,0
76480,333.333333333333,4,2,0,100,1,0
76480,-120,4,2,0,100,0,0
76813,352.941176470588,4,2,0,100,1,0
76813,-113.333333333333,4,2,0,100,0,0
77165,375,4,2,0,100,1,0
77165,-106.666666666667,4,2,0,100,0,0
77540,400,4,2,0,100,1,0
77540,-100,4,2,0,100,0,0
77940,461.538461538462,4,2,0,100,1,0
77940,-86.6666666666666,4,2,0,100,0,0
78401,500,4,2,0,100,1,0
78401,-80,4,2,0,100,0,0
78901,666.666666666667,4,2,0,100,1,0
78901,-60,4,2,0,100,0,0
79567,461.538461538462,4,2,0,100,1,0
79567,-86.6666666666666,4,2,0,100,0,0
80028,428.571428571429,4,2,0,100,1,0
80028,-93.3333333333332,4,2,0,100,0,0
80456,500,4,2,0,100,1,0
80456,-80,4,2,0,100,0,0
80956,600,4,2,0,100,1,0
80956,-66.6666666666667,4,2,0,100,0,0
81556,666.666666666667,4,2,0,100,1,0
81556,-60,4,2,0,100,0,0
82222,1000,4,2,0,100,1,0
82222,-40,4,2,0,100,0,0
83222,600,4,2,0,100,1,0
83222,-66.6666666666667,4,2,0,100,0,0
83822,461.538461538462,4,2,0,100,1,0
83822,-86.6666666666666,4,2,0,100,0,0
84283,400,4,2,0,100,1,0
84283,-100,4,2,0,100,0,0
84683,352.941176470588,4,2,0,100,1,0
84683,-113.333333333333,4,2,0,100,0,0
85035,333.333333333333,4,2,0,100,1,0
85035,-120,4,2,0,100,0,0
85368,315.789473684211,4,2,0,100,1,0
85368,-126.666666666667,4,2,0,100,0,0
85683,300,4,2,0,100,1,0
85683,-133.333333333333,4,2,0,100,0,0
85983,285.714285714286,4,2,0,100,1,0
85983,-140,4,2,0,100,0,0
86268,272.727272727273,4,2,0,100,1,0
86268,-146.666666666667,4,2,0,100,0,0
86540,260.869565217391,4,2,0,100,1,0
86540,-153.333333333334,4,2,0,100,0,0
86800,250,4,2,0,100,1,0
86800,-160,4,2,0,100,0,0
87050,240,4,2,0,100,1,0
87050,-166.666666666667,4,2,0,100,0,0
87290,272.727272727273,4,2,0,100,1,0
87290,-146.666666666667,4,2,0,100,0,0
87562,300,4,2,0,100,1,0
87562,-133.333333333333,4,2,0,100,0,0
87862,333.333333333333,4,2,0,100,1,0
87862,-120,4,2,0,100,0,0
88195,400,4,2,0,100,1,0
88195,-100,4,2,0,100,0,0
88595,461.538461538462,4,2,0,100,1,0
88595,-86.6666666666666,4,2,0,100,0,0
89056,500,4,2,0,100,1,0
89056,-80,4,2,0,100,0,0
89556,428.571428571429,4,2,0,100,1,0
89556,-93.3333333333332,4,2,0,100,0,0
89984,400,4,2,0,100,1,0
89984,-100,4,2,0,100,0,0
90384,375,4,2,0,100,1,0
90384,-106.666666666667,4,2,0,100,0,0
90759,352.941176470588,4,2,0,100,1,0
90759,-113.333333333333,4,2,0,100,0,0
91111,375,4,2,0,100,1,0
91111,-106.666666666667,4,2,0,100,0,0
91486,400,4,2,0,100,1,0
91486,-100,4,2,0,100,0,0
91686,397.350993377483,4,2,0,100,1,0
91686,-100.666666666667,4,2,0,100,0,0
91884,394.736842105263,4,2,0,100,1,0
91884,-101.333333333333,4,2,0,100,0,0
92081,392.156862745098,4,2,0,100,1,0
92081,-102,4,2,0,100,0,0
92277,389.61038961039,4,2,0,100,1,0
92277,-102.666666666667,4,2,0,100,0,0
92471,387.096774193548,4,2,0,100,1,0
92471,-103.333333333333,4,2,0,100,0,0
92664,384.615384615385,4,2,0,100,1,0
92664,-104,4,2,0,100,0,0
92856,382.165605095541,4,2,0,100,1,0
92856,-104.666666666667,4,2,0,100,0,0
93047,379.746835443038,4,2,0,100,1,0
93047,-105.333333333333,4,2,0,100,0,0
93236,377.358490566038,4,2,0,100,1,0
93236,-106,4,2,0,100,0,0
93424,375,4,2,0,100,1,0
93424,-106.666666666667,4,2,0,100,0,0
93611,372.670807453416,4,2,0,100,1,0
93611,-107.333333333333,4,2,0,100,0,0
93797,370.37037037037,4,2,0,100,1,0
93797,-108,4,2,0,100,0,0
93982,368.098159509202,4,2,0,100,1,0
93982,-108.666666666667,4,2,0,100,0,0
94166,365.853658536585,4,2,0,100,1,0
94166,-109.333333333333,4,2,0,100,0,0
94348,363.636363636364,4,2,0,100,1,0
94348,-110,4,2,0,100,0,0
94529,361.44578313253,4,2,0,100,1,0
94529,-110.666666666667,4,2,0,100,0,0
94709,359.281437125748,4,2,0,100,1,0
94709,-111.333333333333,4,2,0,100,0,0
94888,357.142857142857,4,2,0,100,1,0
94888,-112,4,2,0,100,0,0
95066,355.029585798817,4,2,0,100,1,0
95066,-112.666666666667,4,2,0,100,0,0
95243,352.941176470588,4,2,0,100,1,0
95243,-113.333333333333,4,2,0,100,0,0
95419,350.877192982456,4,2,0,100,1,0
95419,-114,4,2,0,100,0,0
95594,348.837209302326,4,2,0,100,1,0
95594,-114.666666666667,4,2,0,100,0,0
95768,346.820809248555,4,2,0,100,1,0
95768,-115.333333333333,4,2,0,100,0,0
95941,344.827586206897,4,2,0,100,1,0
95941,-116,4,2,0,100,0,0
96113,342.857142857143,4,2,0,100,1,0
96113,-116.666666666667,4,2,0,100,0,0
96284,340.909090909091,4,2,0,100,1,0
96284,-117.333333333333,4,2,0,100,0,0
96454,338.983050847458,4,2,0,100,1,0
96454,-118,4,2,0,100,0,0
96623,337.078651685393,4,2,0,100,1,0
96623,-118.666666666667,4,2,0,100,0,0
96791,335.195530726257,4,2,0,100,1,0
96791,-119.333333333333,4,2,0,100,0,0
96958,333.333333333333,4,2,0,100,1,0
96958,-120,4,2,0,100,0,0
97124,331.491712707182,4,2,0,100,1,0
97124,-120.666666666667,4,2,0,100,0,0
97289,329.67032967033,4,2,0,100,1,0
97289,-121.333333333333,4,2,0,100,0,0
97453,327.868852459016,4,2,0,100,1,0
97453,-122,4,2,0,100,0,0
97616,326.086956521739,4,2,0,100,1,0
97616,-122.666666666667,4,2,0,100,0,0
97779,324.324324324324,4,2,0,100,1,0
97779,-123.333333333333,4,2,0,100,0,0
97941,322.58064516129,4,2,0,100,1,0
97941,-124,4,2,0,100,0,0
98102,320.855614973262,4,2,0,100,1,0
98102,-124.666666666667,4,2,0,100,0,0
98262,319.148936170213,4,2,0,100,1,0
98262,-125.333333333333,4,2,0,100,0,0
98421,317.460317460317,4,2,0,100,1,0
98421,-126,4,2,0,100,0,0
98579,315.789473684211,4,2,0,100,1,0
98579,-126.666666666667,4,2,0,100,0,0
98736,314.13612565445,4,2,0,100,1,0
98736,-127.333333333333,4,2,0,100,0,0
98893,312.5,4,2,0,100,1,0
98893,-128,4,2,0,100,0,0
99049,310.880829015544,4,2,0,100,1,0
99049,-128.666666666667,4,2,0,100,0,0
99204,309.278350515464,4,2,0,100,1,0
99204,-129.333333333333,4,2,0,100,0,0
99358,307.692307692308,4,2,0,100,1,0
99358,-130,4,2,0,100,0,0
99511,306.122448979592,4,2,0,100,1,0
99511,-130.666666666667,4,2,0,100,0,0
99664,304.568527918782,4,2,0,100,1,0
99664,-131.333333333333,4,2,0,100,0,0
99816,303.030303030303,4,2,0,100,1,0
99816,-132,4,2,0,100,0,0
99967,301.507537688442,4,2,0,100,1,0
99967,-132.666666666667,4,2,0,100,0,0
100117,300,4,2,0,100,1,0
100117,-133.333333333333,4,2,0,100,0,0
100267,298.507462686567,4,2,0,100,1,0
100267,-134,4,2,0,100,0,0
100416,297.029702970297,4,2,0,100,1,0
100416,-134.666666666667,4,2,0,100,0,0
100564,295.566502463054,4,2,0,100,1,0
100564,-135.333333333333,4,2,0,100,0,0
100711,294.117647058824,4,2,0,100,1,0
100711,-136,4,2,0,100,0,0
100858,292.682926829268,4,2,0,100,1,0
100858,-136.666666666667,4,2,0,100,0,0
101004,291.26213592233,4,2,0,100,1,0
101004,-137.333333333333,4,2,0,100,0,0
101149,289.855072463768,4,2,0,100,1,0
101149,-138,4,2,0,100,0,0
101293,288.461538461538,4,2,0,100,1,0
101293,-138.666666666667,4,2,0,100,0,0
101437,287.081339712919,4,2,0,100,1,0
101437,-139.333333333333,4,2,0,100,0,0
101580,285.714285714286,4,2,0,100,1,0
101580,-140,4,2,0,100,0,0
101722,284.36018957346,4,2,0,100,1,0
101722,-140.666666666667,4,2,0,100,0,0
101864,283.018867924528,4,2,0,100,1,0
101864,-141.333333333333,4,2,0,100,0,0
102005,281.69014084507,4,2,0,100,1,0
102005,-142,4,2,0,100,0,0
102145,280.373831775701,4,2,0,100,1,0
102145,-142.666666666667,4,2,0,100,0,0
102285,279.06976744186,4,2,0,100,1,0
102285,-143.333333333334,4,2,0,100,0,0
102424,277.777777777778,4,2,0,100,1,0
102424,-144,4,2,0,100,0,0
102562,276.497695852535,4,2,0,100,1,0
102562,-144.666666666666,4,2,0,100,0,0
102700,275.229357798165,4,2,0,100,1,0
102700,-145.333333333333,4,2,0,100,0,0
102837,273.972602739726,4,2,0,100,1,0
102837,-146,4,2,0,100,0,0
102973,272.727272727273,4,2,0,100,1,0
102973,-146.666666666667,4,2,0,100,0,0
103109,271.493212669683,4,2,0,100,1,0
103109,-147.333333333333,4,2,0,100,0,0
103244,270.27027027027,4,2,0,100,1,0
103244,-148,4,2,0,100,0,0
103379,269.058295964126,4,2,0,100,1,0
103379,-148.666666666666,4,2,0,100,0,0
103513,267.857142857143,4,2,0,100,1,0
103513,-149.333333333333,4,2,0,100,0,0
103646,266.666666666667,4,2,0,100,1,0
103646,-150,4,2,0,100,0,0
103779,265.486725663717,4,2,0,100,1,0
103779,-150.666666666667,4,2,0,100,0,0
103911,264.31718061674,4,2,0,100,1,0
103911,-151.333333333333,4,2,0,100,0,0
104043,263.157894736842,4,2,0,100,1,0
104043,-152,4,2,0,100,0,0
104174,262.008733624454,4,2,0,100,1,0
104174,-152.666666666667,4,2,0,100,0,0
104305,260.869565217391,4,2,0,100,1,0
104305,-153.333333333334,4,2,0,100,0,0
104435,259.74025974026,4,2,0,100,1,0
104435,-154,4,2,0,100,0,0
104564,258.620689655172,4,2,0,100,1,0
104564,-154.666666666667,4,2,0,100,0,0
104693,257.510729613734,4,2,0,100,1,0
104693,-155.333333333333,4,2,0,100,0,0
104821,256.410256410256,4,2,0,100,1,0
104821,-156,4,2,0,100,0,0
104949,255.31914893617,4,2,0,100,1,0
104949,-156.666666666667,4,2,0,100,0,0
105076,254.237288135593,4,2,0,100,1,0
105076,-157.333333333333,4,2,0,100,0,0
105203,253.164556962025,4,2,0,100,1,0
105203,-158,4,2,0,100,0,0
105329,252.100840336134,4,2,0,100,1,0
105329,-158.666666666667,4,2,0,100,0,0
105455,251.046025104603,4,2,0,100,1,0
105455,-159.333333333333,4,2,0,100,0,0
105580,250,4,2,0,100,1,0
105580,-160,4,2,0,100,0,0
105705,248.96265560166,4,2,0,100,1,0
105705,-160.666666666666,4,2,0,100,0,0
105829,247.933884297521,4,2,0,100,1,0
105829,-161.333333333333,4,2,0,100,0,0
105952,246.913580246914,4,2,0,100,1,0
105952,-162,4,2,0,100,0,0
106075,245.901639344262,4,2,0,100,1,0
106075,-162.666666666667,4,2,0,100,0,0
106197,244.897959183673,4,2,0,100,1,0
106197,-163.333333333334,4,2,0,100,0,0
106319,243.90243902439,4,2,0,100,1,0
106319,-164,4,2,0,100,0,0
106440,242.914979757085,4,2,0,100,1,0
106440,-164.666666666667,4,2,0,100,0,0
106561,241.935483870968,4,2,0,100,1,0
106561,-165.333333333333,4,2,0,100,0,0
106681,240.963855421687,4,2,0,100,1,0
106681,-166,4,2,0,100,0,0
106801,240,4,2,0,100,1,0
106801,-166.666666666667,4,2,0,100,0,0
106921,239.043824701195,4,2,0,100,1,0
106921,-167.333333333333,4,2,0,100,0,0
107040,238.095238095238,4,2,0,100,1,0
107040,-168,4,2,0,100,0,0
107159,237.154150197628,4,2,0,100,1,0
107159,-168.666666666667,4,2,0,100,0,0
107277,236.220472440945,4,2,0,100,1,0
107277,-169.333333333333,4,2,0,100,0,0
107395,235.294117647059,4,2,0,100,1,0
107395,-170,4,2,0,100,0,0
107512,234.375,4,2,0,100,1,0
107512,-170.666666666667,4,2,0,100,0,0
107629,233.463035019455,4,2,0,100,1,0
107629,-171.333333333334,4,2,0,100,0,0
107745,232.558139534884,4,2,0,100,1,0
107745,-172,4,2,0,100,0,0
107861,231.660231660232,4,2,0,100,1,0
107861,-172.666666666666,4,2,0,100,0,0
107976,230.769230769231,4,2,0,100,1,0
107976,-173.333333333333,4,2,0,100,0,0
108091,229.885057471264,4,2,0,100,1,0
108091,-174,4,2,0,100,0,0
108205,229.007633587786,4,2,0,100,1,0
108205,-174.666666666667,4,2,0,100,0,0
108319,228.136882129278,4,2,0,100,1,0
108319,-175.333333333333,4,2,0,100,0,0
108433,227.272727272727,4,2,0,100,1,0
108433,-176,4,2,0,100,0,0
108546,226.415094339623,4,2,0,100,1,0
108546,-176.666666666666,4,2,0,100,0,0
108659,225.563909774436,4,2,0,100,1,0
108659,-177.333333333333,4,2,0,100,0,0
108771,224.719101123595,4,2,0,100,1,0
108771,-178,4,2,0,100,0,0
108883,223.880597014925,4,2,0,100,1,0
108883,-178.666666666667,4,2,0,100,0,0
108994,223.048327137546,4,2,0,100,1,0
108994,-179.333333333334,4,2,0,100,0,0
109105,222.222222222222,4,2,0,100,1,0
109105,-180,4,2,0,100,0,0
109216,221.40221402214,4,2,0,100,1,0
109216,-180.666666666667,4,2,0,100,0,0
109326,220.588235294118,4,2,0,100,1,0
109326,-181.333333333333,4,2,0,100,0,0
109436,219.78021978022,4,2,0,100,1,0
109436,-182,4,2,0,100,0,0
109545,218.978102189781,4,2,0,100,1,0
109545,-182.666666666667,4,2,0,100,0,0
109654,218.181818181818,4,2,0,100,1,0
109654,-183.333333333333,4,2,0,100,0,0
109763,217.391304347826,4,2,0,100,1,0
109763,-184,4,2,0,100,0,0
109871,216.606498194946,4,2,0,100,1,0
109871,-184.666666666667,4,2,0,100,0,0
109979,215.827338129496,4,2,0,100,1,0
109979,-185.333333333334,4,2,0,100,0,0
110086,240,4,2,0,100,1,0
110086,-166.666666666667,4,2,0,100,0,0
110206,285.714285714286,4,2,0,100,1,0
110206,-140,4,2,0,100,0,0
110348,315.789473684211,4,2,0,100,1,0
110348,-126.666666666667,4,2,0,100,0,0
110505,352.941176470588,4,2,0,100,1,0
110505,-113.333333333333,4,2,0,100,0,0
110681,428.571428571429,4,2,0,100,1,0
110681,-93.3333333333332,4,2,0,100,0,0
110895,545.454545454546,4,2,0,100,1,0
110895,-73.3333333333333,4,2,0,100,0,0
111167,750,4,2,0,100,1,0
111167,-53.3333333333333,4,2,0,100,0,0
111542,4000,4,2,0,100,1,0
111542,-10,4,2,0,100,0,0
111542,-1000,4,2,0,100,0,0
112317,400,4,2,0,100,1,0
112317,-100,4,2,0,100,0,0
112424,400,4,2,0,100,1,0
112424,-100,4,2,0,100,0,0

[HitObjects]
64,192,3526,5,0,0:0:0:0:
320,192,3626,1,0,0:0:0:0:
64,192,3726,1,0,0:0:0:0:
320,192,3826,1,0,0:0:0:0:
64,192,3926,1,0,0:0:0:0:
64,192,4126,1,0,0:0:0:0:
448,192,4226,1,0,0:0:0:0:
64,192,4326,1,0,0:0:0:0:
320,192,4326,1,0,0:0:0:0:
64,192,4526,1,0,0:0:0:0:
448,192,4526,1,0,0:0:0:0:
64,192,4726,1,0,0:0:0:0:
320,192,4826,1,0,0:0:0:0:
64,192,4926,1,0,0:0:0:0:
448,192,4926,1,0,0:0:0:0:
64,192,5126,1,0,0:0:0:0:
192,192,5126,1,0,0:0:0:0:
64,192,5326,1,0,0:0:0:0:
448,192,5326,1,0,0:0:0:0:
64,192,5526,1,0,0:0:0:0:
192,192,5526,1,0,0:0:0:0:
64,192,5726,1,0,0:0:0:0:
448,192,5726,1,0,0:0:0:0:
64,192,5926,1,0,0:0:0:0:
192,192,5926,1,0,0:0:0:0:
192,192,6026,1,0,0:0:0:0:
64,192,6126,1,0,0:0:0:0:
320,192,6126,1,0,0:0:0:0:
448,192,6226,1,0,0:0:0:0:
64,192,6326,1,0,0:0:0:0:
192,192,6326,1,0,0:0:0:0:
64,192,6526,1,0,0:0:0:0:
320,192,6526,1,0,0:0:0:0:
320,192,6626,1,0,0:0:0:0:
448,192,6726,1,0,0:0:0:0:
192,192,6826,1,0,0:0:0:0:
448,192,6926,1,0,0:0:0:0:
192,192,7026,1,0,0:0:0:0:
448,192,7126,1,0,0:0:0:0:
448,192,7326,1,0,0:0:0:0:
64,192,7426,1,0,0:0:0:0:
448,192,7526,1,0,0:0:0:0:
192,192,7526,1,0,0:0:0:0:
448,192,7726,1,0,0:0:0:0:
64,192,7726,1,0,0:0:0:0:
448,192,7926,1,0,0:0:0:0:
192,192,8026,1,0,0:0:0:0:
448,192,8126,1,0,0:0:0:0:
64,192,8126,1,0,0:0:0:0:
448,192,8326,1,0,0:0:0:0:
320,192,8326,1,0,0:0:0:0:
448,192,8526,1,0,0:0:0:0:
64,192,8526,1,0,0:0:0:0:
448,192,8726,1,0,0:0:0:0:
320,192,8726,1,0,0:0:0:0:
448,192,8926,1,0,0:0:0:0:
64,192,8926,1,0,0:0:0:0:
448,192,9126,1,0,0:0:0:0:
320,192,9126,1,0,0:0:0:0:
320,192,9226,1,0,0:0:0:0:
448,192,9326,1,0,0:0:0:0:
192,192,9326,1,0,0:0:0:0:
64,192,9426,1,0,0:0:0:0:
448,192,9526,1,0,0:0:0:0:
448,192,9726,1,0,0:0:0:0:
192,192,9726,1,0,0:0:0:0:
192,192,9826,1,0,0:0:0:0:
64,192,9926,1,0,0:0:0:0:
320,192,9926,1,0,0:0:0:0:
320,192,10026,1,0,0:0:0:0:
64,192,10126,1,0,0:0:0:0:
320,192,10226,1,0,0:0:0:0:
64,192,10326,1,0,0:0:0:0:
192,192,10326,1,0,0:0:0:0:
64,192,10526,1,0,0:0:0:0:
320,192,10626,1,0,0:0:0:0:
64,192,10726,1,0,0:0:0:0:
320,192,10726,1,0,0:0:0:0:
64,192,10926,1,0,0:0:0:0:
448,192,10926,1,0,0:0:0:0:
64,192,11126,1,0,0:0:0:0:
320,192,11126,1,0,0:0:0:0:
320,192,11226,1,0,0:0:0:0:
64,192,11326,1,0,0:0:0:0:
448,192,11326,1,0,0:0:0:0:
64,192,11526,1,0,0:0:0:0:
192,192,11526,1,0,0:0:0:0:
64,192,11726,1,0,0:0:0:0:
448,192,11726,1,0,0:0:0:0:
64,192,11926,1,0,0:0:0:0:
192,192,11926,1,0,0:0:0:0:
64,192,12126,1,0,0:0:0:0:
448,192,12126,1,0,0:0:0:0:
64,192,12326,1,0,0:0:0:0:
192,192,12326,1,0,0:0:0:0:
192,192,12426,1,0,0:0:0:0:
320,192,12426,1,0,0:0:0:0:
64,192,12526,1,0,0:0:0:0:
448,192,12526,1,0,0:0:0:0:
320,192,12626,1,0,0:0:0:0:
192,192,12626,1,0,0:0:0:0:
64,192,12726,1,0,0:0:0:0:
320,192,12726,1,0,0:0:0:0:
64,192,12926,1,0,0:0:0:0:
320,192,12926,1,0,0:0:0:0:
320,192,13026,1,0,0:0:0:0:
448,192,13126,1,0,0:0:0:0:
192,192,13126,1,0,0:0:0:0:
192,192,13226,1,0,0:0:0:0:
448,192,13326,1,0,0:0:0:0:
192,192,13426,1,0,0:0:0:0:
448,192,13526,1,0,0:0:0:0:
64,192,13526,1,0,0:0:0:0:
448,192,13726,1,0,0:0:0:0:
64,192,13826,1,0,0:0:0:0:
448,192,13926,1,0,0:0:0:0:
192,192,13926,1,0,0:0:0:0:
448,192,14126,1,0,0:0:0:0:
64,192,14126,1,0,0:0:0:0:
448,192,14326,1,0,0:0:0:0:
320,192,14326,1,0,0:0:0:0:
320,192,14426,1,0,0:0:0:0:
448,192,14526,1,0,0:0:0:0:
64,192,14526,1,0,0:0:0:0:
448,192,14726,1,0,0:0:0:0:
320,192,14726,1,0,0:0:0:0:
448,192,14926,1,0,0:0:0:0:
64,192,14926,1,0,0:0:0:0:
448,192,15126,1,0,0:0:0:0:
320,192,15126,1,0,0:0:0:0:
448,192,15326,1,0,0:0:0:0:
64,192,15326,1,0,0:0:0:0:
448,192,15526,1,0,0:0:0:0:
192,192,15526,1,0,0:0:0:0:
320,192,15611,1,0,0:0:0:0:
64,192,15611,1,0,0:0:0:0:
192,192,15697,1,0,0:0:0:0:
448,192,15697,1,0,0:0:0:0:
320,192,15783,1,0,0:0:0:0:
64,192,15783,1,0,0:0:0:0:
192,192,15868,1,0,0:0:0:0:
448,192,15868,1,0,0:0:0:0:
64,192,15954,1,0,0:0:0:0:
320,192,15954,1,0,0:0:0:0:
320,192,16040,1,0,0:0:0:0:
320,192,16126,1,0,0:0:0:0:
448,192,16211,1,0,0:0:0:0:
64,192,16211,1,0,0:0:0:0:
192,192,16211,1,0,0:0:0:0:
320,192,16311,1,0,0:0:0:0:
64,192,16411,1,0,0:0:0:0:
448,192,16411,1,0,0:0:0:0:
320,192,16511,1,0,0:0:0:0:
192,192,16611,1,0,0:0:0:0:
448,192,16611,1,0,0:0:0:0:
64,192,16711,1,0,0:0:0:0:
320,192,16811,1,0,0:0:0:0:
448,192,16811,1,0,0:0:0:0:
64,192,16911,1,0,0:0:0:0:
448,192,17011,1,0,0:0:0:0:
192,192,17011,1,0,0:0:0:0:
64,192,17111,1,0,0:0:0:0:
320,192,17211,1,0,0:0:0:0:
192,192,17211,1,0,0:0:0:0:
64,192,17311,1,0,0:0:0:0:
448,192,17411,1,0,0:0:0:0:
192,192,17411,1,0,0:0:0:0:
320,192,17511,1,0,0:0:0:0:
64,192,17611,1,0,0:0:0:0:
448,192,17611,1,0,0:0:0:0:
192,192,17711,1,0,0:0:0:0:
448,192,17811,1,0,0:0:0:0:
320,192,17811,1,0,0:0:0:0:
192,192,17911,1,0,0:0:0:0:
64,192,18011,1,0,0:0:0:0:
448,192,18011,1,0,0:0:0:0:
320,192,18111,1,0,0:0:0:0:
192,192,18211,1,0,0:0:0:0:
64,192,18211,1,0,0:0:0:0:
448,192,18311,1,0,0:0:0:0:
320,192,18411,1,0,0:0:0:0:
64,192,18411,1,0,0:0:0:0:
192,192,18511,1,0,0:0:0:0:
448,192,18611,1,0,0:0:0:0:
320,192,18611,1,0,0:0:0:0:
192,192,18711,1,0,0:0:0:0:
448,192,18811,1,0,0:0:0:0:
64,192,18811,1,0,0:0:0:0:
320,192,18911,1,0,0:0:0:0:
192,192,19011,1,0,0:0:0:0:
64,192,19011,1,0,0:0:0:0:
448,192,19111,1,0,0:0:0:0:
320,192,19211,1,0,0:0:0:0:
64,192,19211,1,0,0:0:0:0:
192,192,19311,1,0,0:0:0:0:
448,192,19411,1,0,0:0:0:0:
320,192,19411,1,0,0:0:0:0:
64,192,19511,1,0,0:0:0:0:
192,192,19611,1,0,0:0:0:0:
448,192,19611,1,0,0:0:0:0:
64,192,19711,1,0,0:0:0:0:
448,192,19811,1,0,0:0:0:0:
320,192,19811,1,0,0:0:0:0:
192,192,19911,1,0,0:0:0:0:
64,192,20011,1,0,0:0:0:0:
320,192,20011,1,0,0:0:0:0:
192,192,20111,1,0,0:0:0:0:
448,192,20211,1,0,0:0:0:0:
64,192,20211,1,0,0:0:0:0:
320,192,20296,1,0,0:0:0:0:
192,192,20296,1,0,0:0:0:0:
448,192,20382,1,0,0:0:0:0:
64,192,20382,1,0,0:0:0:0:
320,192,20468,1,0,0:0:0:0:
192,192,20468,1,0,0:0:0:0:
448,192,20553,1,0,0:0:0:0:
64,192,20553,1,0,0:0:0:0:
192,192,20639,1,0,0:0:0:0:
320,192,20639,1,0,0:0:0:0:
448,192,20725,1,0,0:0:0:0:
64,192,20725,1,0,0:0:0:0:
192,192,20811,1,0,0:0:0:0:
448,192,20896,1,0,0:0:0:0:
320,192,20896,1,0,0:0:0:0:
64,192,20896,1,0,0:0:0:0:
192,192,20996,1,0,0:0:0:0:
320,192,21096,1,0,0:0:0:0:
448,192,21096,1,0,0:0:0:0:
64,192,21196,1,0,0:0:0:0:
192,192,21296,1,0,0:0:0:0:
448,192,21296,1,0,0:0:0:0:
320,192,21396,1,0,0:0:0:0:
64,192,21496,1,0,0:0:0:0:
192,192,21496,1,0,0:0:0:0:
448,192,21596,1,0,0:0:0:0:
320,192,21696,1,0,0:0:0:0:
64,192,21696,1,0,0:0:0:0:
192,192,21796,1,0,0:0:0:0:
448,192,21896,1,0,0:0:0:0:
320,192,21896,1,0,0:0:0:0:
64,192,21996,1,0,0:0:0:0:
448,192,22096,1,0,0:0:0:0:
192,192,22096,1,0,0:0:0:0:
320,192,22196,1,0,0:0:0:0:
192,192,22296,1,0,0:0:0:0:
64,192,22296,1,0,0:0:0:0:
448,192,22396,1,0,0:0:0:0:
320,192,22496,1,0,0:0:0:0:
64,192,22496,1,0,0:0:0:0:
448,192,22596,1,0,0:0:0:0:
192,192,22696,1,0,0:0:0:0:
64,192,22696,1,0,0:0:0:0:
448,192,22796,1,0,0:0:0:0:
320,192,22896,1,0,0:0:0:0:
64,192,22896,1,0,0:0:0:0:
448,192,22996,1,0,0:0:0:0:
192,192,23096,1,0,0:0:0:0:
64,192,23096,1,0,0:0:0:0:
448,192,23196,1,0,0:0:0:0:
320,192,23296,1,0,0:0:0:0:
64,192,23296,1,0,0:0:0:0:
448,192,23396,1,0,0:0:0:0:
192,192,23496,1,0,0:0:0:0:
64,192,23496,1,0,0:0:0:0:
448,192,23596,1,0,0:0:0:0:
320,192,23696,1,0,0:0:0:0:
64,192,23696,1,0,0:0:0:0:
448,192,23796,1,0,0:0:0:0:
320,192,23896,1,0,0:0:0:0:
192,192,23896,1,0,0:0:0:0:
64,192,23996,1,0,0:0:0:0:
192,192,24096,1,0,0:0:0:0:
448,192,24096,1,0,0:0:0:0:
64,192,24196,1,0,0:0:0:0:
448,192,24296,1,0,0:0:0:0:
320,192,24296,1,0,0:0:0:0:
64,192,24396,1,0,0:0:0:0:
192,192,24496,1,0,0:0:0:0:
448,192,24496,1,0,0:0:0:0:
64,192,24596,1,0,0:0:0:0:
448,192,24696,1,0,0:0:0:0:
320,192,24696,1,0,0:0:0:0:
64,192,24796,1,0,0:0:0:0:
448,192,24896,1,0,0:0:0:0:
320,192,24896,1,0,0:0:0:0:
64,192,24981,1,0,0:0:0:0:
192,192,24981,1,0,0:0:0:0:
448,192,25067,1,0,0:0:0:0:
320,192,25067,1,0,0:0:0:0:
192,192,25153,1,0,0:0:0:0:
64,192,25153,1,0,0:0:0:0:
448,192,25238,1,0,0:0:0:0:
320,192,25238,1,0,0:0:0:0:
192,192,25324,1,0,0:0:0:0:
64,192,25324,1,0,0:0:0:0:
320,192,25410,1,0,0:0:0:0:
448,192,25410,1,0,0:0:0:0:
448,192,25581,1,0,0:0:0:0:
192,192,25581,1,0,0:0:0:0:
64,192,25581,1,0,0:0:0:0:
320,192,25681,1,0,0:0:0:0:
192,192,25781,1,0,0:0:0:0:
64,192,25781,1,0,0:0:0:0:
448,192,25881,1,0,0:0:0:0:
192,192,25981,1,0,0:0:0:0:
64,192,25981,1,0,0:0:0:0:
320,192,26081,1,0,0:0:0:0:
192,192,26181,1,0,0:0:0:0:
64,192,26181,1,0,0:0:0:0:
448,192,26281,1,0,0:0:0:0:
192,192,26381,1,0,0:0:0:0:
64,192,26381,1,0,0:0:0:0:
320,192,26481,1,0,0:0:0:0:
448,192,26581,1,0,0:0:0:0:
64,192,26581,1,0,0:0:0:0:
192,192,26681,1,0,0:0:0:0:
320,192,26781,1,0,0:0:0:0:
448,192,26781,1,0,0:0:0:0:
64,192,26881,1,0,0:0:0:0:
192,192,26981,1,0,0:0:0:0:
448,192,26981,1,0,0:0:0:0:
320,192,27081,1,0,0:0:0:0:
64,192,27181,1,0,0:0:0:0:
192,192,27181,1,0,0:0:0:0:
448,192,27281,1,0,0:0:0:0:
320,192,27381,1,0,0:0:0:0:
64,192,27381,1,0,0:0:0:0:
192,192,27481,1,0,0:0:0:0:
448,192,27581,1,0,0:0:0:0:
320,192,27581,1,0,0:0:0:0:
192,192,27681,1,0,0:0:0:0:
64,192,27781,1,0,0:0:0:0:
448,192,27781,1,0,0:0:0:0:
320,192,27881,1,0,0:0:0:0:
192,192,27981,1,0,0:0:0:0:
448,192,27981,1,0,0:0:0:0:
320,192,28081,1,0,0:0:0:0:
64,192,28181,1,0,0:0:0:0:
192,192,28181,1,0,0:0:0:0:
320,192,28281,1,0,0:0:0:0:
64,192,28381,1,0,0:0:0:0:
448,192,28381,1,0,0:0:0:0:
192,192,28481,1,0,0:0:0:0:
320,192,28581,1,0,0:0:0:0:
64,192,28581,1,0,0:0:0:0:
320,192,28681,1,0,0:0:0:0:
448,192,28781,1,0,0:0:0:0:
64,192,28781,1,0,0:0:0:0:
192,192,28781,1,0,0:0:0:0:
320,192,28856,1,0,0:0:0:0:
192,192,28931,1,0,0:0:0:0:
64,192,28931,1,0,0:0:0:0:
448,192,29006,1,0,0:0:0:0:
320,192,29081,1,0,0:0:0:0:
64,192,29081,1,0,0:0:0:0:
192,192,29156,1,0,0:0:0:0:
448,192,29231,1,0,0:0:0:0:
320,192,29231,1,0,0:0:0:0:
64,192,29306,1,0,0:0:0:0:
192,192,29381,1,0,0:0:0:0:
448,192,29381,1,0,0:0:0:0:
320,192,29456,1,0,0:0:0:0:
192,192,29531,1,0,0:0:0:0:
64,192,29531,1,0,0:0:0:0:
448,192,29606,1,0,0:0:0:0:
320,192,29681,1,0,0:0:0:0:
64,192,29681,1,0,0:0:0:0:
192,192,29756,1,0,0:0:0:0:
448,192,29831,1,0,0:0:0:0:
320,192,29831,1,0,0:0:0:0:
64,192,29906,1,0,0:0:0:0:
192,192,29981,1,0,0:0:0:0:
448,192,29981,1,0,0:0:0:0:
320,192,29981,1,0,0:0:0:0:
64,192,30081,1,0,0:0:0:0:
320,192,30181,1,0,0:0:0:0:
448,192,30181,1,0,0:0:0:0:
192,192,30281,1,0,0:0:0:0:
320,192,30381,1,0,0:0:0:0:
64,192,30381,1,0,0:0:0:0:
192,192,30481,1,0,0:0:0:0:
448,192,30581,1,0,0:0:0:0:
320,192,30581,1,0,0:0:0:0:
64,192,30681,1,0,0:0:0:0:
192,192,30781,1,0,0:0:0:0:
320,192,30781,1,0,0:0:0:0:
448,192,30881,1,0,0:0:0:0:
64,192,30981,1,0,0:0:0:0:
192,192,30981,1,0,0:0:0:0:
320,192,31081,1,0,0:0:0:0:
192,192,31181,1,0,0:0:0:0:
64,192,31181,1,0,0:0:0:0:
448,192,31281,1,0,0:0:0:0:
320,192,31381,1,0,0:0:0:0:
192,192,31381,1,0,0:0:0:0:
448,192,31481,1,0,0:0:0:0:
320,192,31581,1,0,0:0:0:0:
64,192,31581,1,0,0:0:0:0:
192,192,31681,1,0,0:0:0:0:
448,192,31781,1,0,0:0:0:0:
320,192,31781,1,0,0:0:0:0:
192,192,31881,1,0,0:0:0:0:
64,192,31981,1,0,0:0:0:0:
320,192,31981,1,0,0:0:0:0:
192,192,32081,1,0,0:0:0:0:
320,192,32181,1,0,0:0:0:0:
448,192,32181,1,0,0:0:0:0:
192,192,32281,1,0,0:0:0:0:
64,192,32381,1,0,0:0:0:0:
320,192,32381,1,0,0:0:0:0:
192,192,32481,1,0,0:0:0:0:
320,192,32581,1,0,0:0:0:0:
448,192,32581,1,0,0:0:0:0:
192,192,32681,1,0,0:0:0:0:
320,192,32781,1,0,0:0:0:0:
64,192,32781,1,0,0:0:0:0:
192,192,32881,1,0,0:0:0:0:
448,192,32981,1,0,0:0:0:0:
320,192,32981,1,0,0:0:0:0:
192,192,33081,1,0,0:0:0:0:
64,192,33181,1,0,0:0:0:0:
448,192,33181,1,0,0:0:0:0:
320,192,33281,1,0,0:0:0:0:
192,192,33381,1,0,0:0:0:0:
64,192,33381,1,0,0:0:0:0:
320,192,33481,1,0,0:0:0:0:
64,192,33581,1,0,0:0:0:0:
192,192,33581,1,0,0:0:0:0:
448,192,33681,1,0,0:0:0:0:
320,192,33781,1,0,0:0:0:0:
192,192,33781,1,0,0:0:0:0:
64,192,33881,1,0,0:0:0:0:
448,192,33981,1,0,0:0:0:0:
320,192,33981,1,0,0:0:0:0:
64,192,34081,1,0,0:0:0:0:
448,192,34181,1,0,0:0:0:0:
320,192,34181,1,0,0:0:0:0:
192,192,34281,1,0,0:0:0:0:
448,192,34381,1,0,0:0:0:0:
320,192,34381,1,0,0:0:0:0:
64,192,34481,1,0,0:0:0:0:
192,192,34581,1,0,0:0:0:0:
320,192,34581,1,0,0:0:0:0:
320,192,34681,1,0,0:0:0:0:
192,192,34781,1,0,0:0:0:0:
64,192,34781,1,0,0:0:0:0:
448,192,34781,1,0,0:0:0:0:
320,192,34856,1,0,0:0:0:0:
448,192,34931,1,0,0:0:0:0:
192,192,34931,1,0,0:0:0:0:
64,192,35006,1,0,0:0:0:0:
448,192,35081,1,0,0:0:0:0:
320,192,35081,1,0,0:0:0:0:
192,192,35156,1,0,0:0:0:0:
320,192,35231,1,0,0:0:0:0:
64,192,35231,1,0,0:0:0:0:
448,192,35306,1,0,0:0:0:0:
192,192,35381,1,0,0:0:0:0:
64,192,35381,1,0,0:0:0:0:
320,192,35456,1,0,0:0:0:0:
192,192,35531,1,0,0:0:0:0:
448,192,35531,1,0,0:0:0:0:
64,192,35606,1,0,0:0:0:0:
448,192,35681,1,0,0:0:0:0:
320,192,35681,1,0,0:0:0:0:
192,192,35756,1,0,0:0:0:0:
64,192,35831,1,0,0:0:0:0:
320,192,35831,1,0,0:0:0:0:
448,192,35906,1,0,0:0:0:0:
192,192,35981,1,0,0:0:0:0:
320,192,35981,1,0,0:0:0:0:
64,192,35981,1,0,0:0:0:0:
448,192,36081,1,0,0:0:0:0:
320,192,36181,1,0,0:0:0:0:
64,192,36181,1,0,0:0:0:0:
192,192,36281,1,0,0:0:0:0:
448,192,36381,1,0,0:0:0:0:
320,192,36381,1,0,0:0:0:0:
64,192,36481,1,0,0:0:0:0:
192,192,36581,1,0,0:0:0:0:
448,192,36581,1,0,0:0:0:0:
320,192,36681,1,0,0:0:0:0:
192,192,36781,1,0,0:0:0:0:
64,192,36781,1,0,0:0:0:0:
448,192,36881,1,0,0:0:0:0:
320,192,36981,1,0,0:0:0:0:
64,192,36981,1,0,0:0:0:0:
192,192,37081,1,0,0:0:0:0:
448,192,37181,1,0,0:0:0:0:
320,192,37181,1,0,0:0:0:0:
64,192,37281,1,0,0:0:0:0:
192,192,37381,1,0,0:0:0:0:
448,192,37381,1,0,0:0:0:0:
320,192,37481,1,0,0:0:0:0:
192,192,37581,1,0,0:0:0:0:
64,192,37581,1,0,0:0:0:0:
320,192,37681,1,0,0:0:0:0:
192,192,37781,1,0,0:0:0:0:
64,192,37781,1,0,0:0:0:0:
320,192,37881,1,0,0:0:0:0:
448,192,37981,1,0,0:0:0:0:
192,192,37981,1,0,0:0:0:0:
64,192,38081,1,0,0:0:0:0:
448,192,38181,1,0,0:0:0:0:
320,192,38181,1,0,0:0:0:0:
192,192,38281,1,0,0:0:0:0:
320,192,38381,1,0,0:0:0:0:
64,192,38381,1,0,0:0:0:0:
448,192,38466,1,0,0:0:0:0:
192,192,38466,1,0,0:0:0:0:
64,192,38552,1,0,0:0:0:0:
320,192,38552,1,0,0:0:0:0:
448,192,38638,1,0,0:0:0:0:
192,192,38638,1,0,0:0:0:0:
320,192,38723,1,0,0:0:0:0:
64,192,38723,1,0,0:0:0:0:
192,192,38809,1,0,0:0:0:0:
448,192,38809,1,0,0:0:0:0:
320,192,38895,1,0,0:0:0:0:
64,192,38895,1,0,0:0:0:0:
320,192,38981,1,0,0:0:0:0:
192,192,39066,1,0,0:0:0:0:
448,192,39066,1,0,0:0:0:0:
64,192,39066,1,0,0:0:0:0:
320,192,39141,1,0,0:0:0:0:
448,192,39216,1,0,0:0:0:0:
192,192,39216,1,0,0:0:0:0:
64,192,39291,1,0,0:0:0:0:
320,192,39366,1,0,0:0:0:0:
448,192,39366,1,0,0:0:0:0:
192,192,39441,1,0,0:0:0:0:
320,192,39516,1,0,0:0:0:0:
64,192,39516,1,0,0:0:0:0:
192,192,39591,1,0,0:0:0:0:
448,192,39666,1,0,0:0:0:0:
320,192,39666,1,0,0:0:0:0:
192,192,39741,1,0,0:0:0:0:
448,192,39816,1,0,0:0:0:0:
64,192,39816,1,0,0:0:0:0:
320,192,39891,1,0,0:0:0:0:
192,192,39966,1,0,0:0:0:0:
64,192,39966,1,0,0:0:0:0:
320,192,40041,1,0,0:0:0:0:
448,192,40116,1,0,0:0:0:0:
64,192,40116,1,0,0:0:0:0:
192,192,40191,1,0,0:0:0:0:
320,192,40266,1,0,0:0:0:0:
448,192,40266,1,0,0:0:0:0:
64,192,40266,1,0,0:0:0:0:
192,192,40466,1,0,0:0:0:0:
448,192,40466,1,0,0:0:0:0:
64,192,40566,1,0,0:0:0:0:
192,192,40666,1,0,0:0:0:0:
448,192,40666,1,0,0:0:0:0:
320,192,40863,1,0,0:0:0:0:
64,192,40863,1,0,0:0:0:0:
448,192,40962,1,0,0:0:0:0:
64,192,41060,1,0,0:0:0:0:
320,192,41060,1,0,0:0:0:0:
192,192,41156,1,0,0:0:0:0:
448,192,41253,1,0,0:0:0:0:
320,192,41253,1,0,0:0:0:0:
192,192,41350,1,0,0:0:0:0:
64,192,41447,1,0,0:0:0:0:
448,192,41447,1,0,0:0:0:0:
192,192,41636,1,0,0:0:0:0:
64,192,41636,1,0,0:0:0:0:
320,192,41731,1,0,0:0:0:0:
448,192,41826,1,0,0:0:0:0:
192,192,41826,1,0,0:0:0:0:
64,192,41919,1,0,0:0:0:0:
320,192,42013,1,0,0:0:0:0:
448,192,42013,1,0,0:0:0:0:
64,192,42107,1,0,0:0:0:0:
192,192,42201,1,0,0:0:0:0:
448,192,42201,1,0,0:0:0:0:
192,192,42377,1,0,0:0:0:0:
448,192,42377,1,0,0:0:0:0:
320,192,42465,1,0,0:0:0:0:
64,192,42553,1,0,0:0:0:0:
192,192,42553,1,0,0:0:0:0:
320,192,42636,1,0,0:0:0:0:
192,192,42719,1,0,0:0:0:0:
448,192,42719,1,0,0:0:0:0:
320,192,42803,1,0,0:0:0:0:
64,192,42886,1,0,0:0:0:0:
448,192,42886,1,0,0:0:0:0:
192,192,42974,1,0,0:0:0:0:
320,192,43062,1,0,0:0:0:0:
448,192,43062,1,0,0:0:0:0:
64,192,43150,1,0,0:0:0:0:
192,192,43238,1,0,0:0:0:0:
448,192,43238,1,0,0:0:0:0:
448,192,43425,1,0,0:0:0:0:
192,192,43425,1,0,0:0:0:0:
320,192,43519,1,0,0:0:0:0:
64,192,43613,1,0,0:0:0:0:
192,192,43613,1,0,0:0:0:0:
320,192,43813,1,0,0:0:0:0:
448,192,43813,1,0,0:0:0:0:
64,192,43913,1,0,0:0:0:0:
192,192,44013,1,0,0:0:0:0:
448,192,44013,1,0,0:0:0:0:
320,192,44114,1,0,0:0:0:0:
64,192,44215,1,0,0:0:0:0:
448,192,44215,1,0,0:0:0:0:
192,192,44317,1,0,0:0:0:0:
320,192,44317,1,0,0:0:0:0:
64,192,44418,1,0,0:0:0:0:
448,192,44418,1,0,0:0:0:0:
192,192,44525,1,0,0:0:0:0:
320,192,44632,1,0,0:0:0:0:
448,192,44632,1,0,0:0:0:0:
192,192,44739,1,0,0:0:0:0:
64,192,44846,1,0,0:0:0:0:
320,192,44846,1,0,0:0:0:0:
192,192,45076,1,0,0:0:0:0:
448,192,45076,1,0,0:0:0:0:
320,192,45192,1,0,0:0:0:0:
64,192,45307,1,0,0:0:0:0:
192,192,45307,1,0,0:0:0:0:
448,192,45557,1,0,0:0:0:0:
320,192,45682,1,0,0:0:0:0:
64,192,45682,1,0,0:0:0:0:
320,192,45807,1,0,0:0:0:0:
448,192,45807,1,0,0:0:0:0:
192,192,45918,1,0,0:0:0:0:
64,192,45918,1,0,0:0:0:0:
448,192,46029,1,0,0:0:0:0:
320,192,46029,1,0,0:0:0:0:
192,192,46140,1,0,0:0:0:0:
192,192,46251,1,0,0:0:0:0:
64,192,46251,1,0,0:0:0:0:
448,192,46339,1,0,0:0:0:0:
320,192,46427,1,0,0:0:0:0:
64,192,46427,1,0,0:0:0:0:
192,192,46515,1,0,0:0:0:0:
320,192,46603,1,0,0:0:0:0:
448,192,46603,1,0,0:0:0:0:
64,192,46686,1,0,0:0:0:0:
192,192,46769,1,0,0:0:0:0:
448,192,46769,1,0,0:0:0:0:
320,192,46853,1,0,0:0:0:0:
64,192,46936,1,0,0:0:0:0:
192,192,46936,1,0,0:0:0:0:
448,192,47093,1,0,0:0:0:0:
192,192,47093,1,0,0:0:0:0:
320,192,47172,1,0,0:0:0:0:
64,192,47251,1,0,0:0:0:0:
192,192,47251,1,0,0:0:0:0:
320,192,47427,1,0,0:0:0:0:
64,192,47427,1,0,0:0:0:0:
192,192,47515,1,0,0:0:0:0:
320,192,47603,1,0,0:0:0:0:
448,192,47603,1,0,0:0:0:0:
448,192,47703,1,0,0:0:0:0:
192,192,47803,1,0,0:0:0:0:
320,192,47803,1,0,0:0:0:0:
192,192,47903,1,0,0:0:0:0:
64,192,48003,1,0,0:0:0:0:
448,192,48003,1,0,0:0:0:0:
320,192,48217,1,0,0:0:0:0:
192,192,48324,1,0,0:0:0:0:
64,192,48431,1,0,0:0:0:0:
448,192,48431,1,0,0:0:0:0:
320,192,48681,1,0,0:0:0:0:
448,192,48681,1,0,0:0:0:0:
192,192,48806,1,0,0:0:0:0:
320,192,48931,1,0,0:0:0:0:
448,192,48931,1,0,0:0:0:0:
192,192,49031,1,0,0:0:0:0:
64,192,49131,1,0,0:0:0:0:
320,192,49131,1,0,0:0:0:0:
192,192,49231,1,0,0:0:0:0:
64,192,49331,1,0,0:0:0:0:
448,192,49331,1,0,0:0:0:0:
320,192,49424,1,0,0:0:0:0:
192,192,49518,1,0,0:0:0:0:
64,192,49518,1,0,0:0:0:0:
448,192,49612,1,0,0:0:0:0:
320,192,49706,1,0,0:0:0:0:
64,192,49706,1,0,0:0:0:0:
192,192,49794,1,0,0:0:0:0:
320,192,49882,1,0,0:0:0:0:
448,192,49882,1,0,0:0:0:0:
64,192,49970,1,0,0:0:0:0:
192,192,50058,1,0,0:0:0:0:
448,192,50058,1,0,0:0:0:0:
320,192,50194,1,0,0:0:0:0:
192,192,50262,1,0,0:0:0:0:
64,192,50330,1,0,0:0:0:0:
320,192,50330,1,0,0:0:0:0:
192,192,50390,1,0,0:0:0:0:
448,192,50450,1,0,0:0:0:0:
64,192,50450,1,0,0:0:0:0:
320,192,50510,1,0,0:0:0:0:
192,192,50570,1,0,0:0:0:0:
64,192,50570,1,0,0:0:0:0:
448,192,50645,1,0,0:0:0:0:
320,192,50720,1,0,0:0:0:0:
64,192,50720,1,0,0:0:0:0:
192,192,50795,1,0,0:0:0:0:
320,192,50870,1,0,0:0:0:0:
448,192,50870,1,0,0:0:0:0:
64,192,50953,1,0,0:0:0:0:
192,192,51036,1,0,0:0:0:0:
448,192,51036,1,0,0:0:0:0:
64,192,51120,1,0,0:0:0:0:
320,192,51120,1,0,0:0:0:0:
192,192,51203,1,0,0:0:0:0:
448,192,51203,1,0,0:0:0:0:
320,192,51379,1,0,0:0:0:0:
448,192,51467,1,0,0:0:0:0:
64,192,51555,1,0,0:0:0:0:
192,192,51555,1,0,0:0:0:0:
320,192,51648,1,0,0:0:0:0:
192,192,51742,1,0,0:0:0:0:
64,192,51742,1,0,0:0:0:0:
448,192,51836,1,0,0:0:0:0:
320,192,51836,1,0,0:0:0:0:
64,192,51930,1,0,0:0:0:0:
192,192,51930,1,0,0:0:0:0:
320,192,52030,1,0,0:0:0:0:
192,192,52130,1,0,0:0:0:0:
448,192,52130,1,0,0:0:0:0:
448,192,52230,1,0,0:0:0:0:
448,192,52330,1,0,0:0:0:0:
64,192,52330,1,0,0:0:0:0:
320,192,52330,1,0,0:0:0:0:
192,192,52560,1,0,0:0:0:0:
64,192,52560,1,0,0:0:0:0:
320,192,52676,1,0,0:0:0:0:
192,192,52791,1,0,0:0:0:0:
448,192,52791,1,0,0:0:0:0:
64,192,53041,1,0,0:0:0:0:
320,192,53041,1,0,0:0:0:0:
448,192,53166,1,0,0:0:0:0:
192,192,53291,1,0,0:0:0:0:
64,192,53291,1,0,0:0:0:0:
320,192,53457,1,0,0:0:0:0:
192,192,53624,1,0,0:0:0:0:
448,192,53624,1,0,0:0:0:0:
320,192,53791,1,0,0:0:0:0:
64,192,53957,1,0,0:0:0:0:
448,192,53957,1,0,0:0:0:0:
320,192,54187,1,0,0:0:0:0:
448,192,54187,1,0,0:0:0:0:
192,192,54303,1,0,0:0:0:0:
320,192,54418,1,0,0:0:0:0:
64,192,54418,1,0,0:0:0:0:
448,192,54525,1,0,0:0:0:0:
192,192,54632,1,0,0:0:0:0:
448,192,54632,1,0,0:0:0:0:
192,192,54739,1,0,0:0:0:0:
64,192,54846,1,0,0:0:0:0:
320,192,54846,1,0,0:0:0:0:
448,192,55096,1,0,0:0:0:0:
192,192,55096,1,0,0:0:0:0:
320,192,55221,1,0,0:0:0:0:
64,192,55346,1,0,0:0:0:0:
192,192,55346,1,0,0:0:0:0:
320,192,55496,1,0,0:0:0:0:
448,192,55646,1,0,0:0:0:0:
64,192,55646,1,0,0:0:0:0:
192,192,55796,1,0,0:0:0:0:
320,192,55946,1,0,0:0:0:0:
448,192,55946,1,0,0:0:0:0:
192,192,56112,1,0,0:0:0:0:
320,192,56279,1,0,0:0:0:0:
64,192,56279,1,0,0:0:0:0:
192,192,56446,1,0,0:0:0:0:
64,192,56612,1,0,0:0:0:0:
320,192,56612,1,0,0:0:0:0:
448,192,56862,1,0,0:0:0:0:
192,192,57112,1,0,0:0:0:0:
320,192,57362,1,0,0:0:0:0:
64,192,57612,1,0,0:0:0:0:
192,192,57612,1,0,0:0:0:0:
320,192,57912,1,0,0:0:0:0:
448,192,58212,1,0,0:0:0:0:
192,192,58212,1,0,0:0:0:0:
64,192,58327,1,0,0:0:0:0:
320,192,58442,1,0,0:0:0:0:
448,192,58442,1,0,0:0:0:0:
192,192,58558,1,0,0:0:0:0:
64,192,58558,1,0,0:0:0:0:
320,192,58673,1,0,0:0:0:0:
448,192,58673,1,0,0:0:0:0:
192,192,58773,1,0,0:0:0:0:
64,192,58873,1,0,0:0:0:0:
320,192,58873,1,0,0:0:0:0:
64,192,58973,1,0,0:0:0:0:
192,192,59073,1,0,0:0:0:0:
448,192,59073,1,0,0:0:0:0:
192,192,59161,1,0,0:0:0:0:
320,192,59249,1,0,0:0:0:0:
448,192,59249,1,0,0:0:0:0:
320,192,59337,1,0,0:0:0:0:
192,192,59425,1,0,0:0:0:0:
448,192,59425,1,0,0:0:0:0:
64,192,59591,1,0,0:0:0:0:
320,192,59591,1,0,0:0:0:0:
192,192,59675,1,0,0:0:0:0:
320,192,59758,1,0,0:0:0:0:
448,192,59758,1,0,0:0:0:0:
64,192,59836,1,0,0:0:0:0:
192,192,59915,1,0,0:0:0:0:
448,192,59915,1,0,0:0:0:0:
320,192,59994,1,0,0:0:0:0:
64,192,59994,1,0,0:0:0:0:
192,192,60073,1,0,0:0:0:0:
448,192,60073,1,0,0:0:0:0:
320,192,60148,1,0,0:0:0:0:
448,192,60223,1,0,0:0:0:0:
64,192,60223,1,0,0:0:0:0:
192,192,60298,1,0,0:0:0:0:
320,192,60373,1,0,0:0:0:0:
448,192,60373,1,0,0:0:0:0:
192,192,60444,1,0,0:0:0:0:
64,192,60515,1,0,0:0:0:0:
448,192,60515,1,0,0:0:0:0:
320,192,60587,1,0,0:0:0:0:
192,192,60658,1,0,0:0:0:0:
64,192,60658,1,0,0:0:0:0:
320,192,60794,1,0,0:0:0:0:
192,192,60862,1,0,0:0:0:0:
64,192,60930,1,0,0:0:0:0:
448,192,60930,1,0,0:0:0:0:
320,192,60995,1,0,0:0:0:0:
192,192,61060,1,0,0:0:0:0:
64,192,61060,1,0,0:0:0:0:
320,192,61125,1,0,0:0:0:0:
192,192,61190,1,0,0:0:0:0:
448,192,61190,1,0,0:0:0:0:
64,192,61252,1,0,0:0:0:0:
320,192,61315,1,0,0:0:0:0:
448,192,61315,1,0,0:0:0:0:
192,192,61377,1,0,0:0:0:0:
64,192,61440,1,0,0:0:0:0:
320,192,61440,1,0,0:0:0:0:
192,192,61500,1,0,0:0:0:0:
64,192,61560,1,0,0:0:0:0:
448,192,61560,1,0,0:0:0:0:
320,192,61620,1,0,0:0:0:0:
192,192,61680,1,0,0:0:0:0:
64,192,61680,1,0,0:0:0:0:
448,192,61816,1,0,0:0:0:0:
192,192,61884,1,0,0:0:0:0:
320,192,61952,1,0,0:0:0:0:
448,192,61952,1,0,0:0:0:0:
192,192,62027,1,0,0:0:0:0:
64,192,62102,1,0,0:0:0:0:
320,192,62102,1,0,0:0:0:0:
448,192,62177,1,0,0:0:0:0:
192,192,62252,1,0,0:0:0:0:
64,192,62252,1,0,0:0:0:0:
320,192,62335,1,0,0:0:0:0:
192,192,62418,1,0,0:0:0:0:
448,192,62418,1,0,0:0:0:0:
320,192,62502,1,0,0:0:0:0:
448,192,62585,1,0,0:0:0:0:
64,192,62585,1,0,0:0:0:0:
192,192,62685,1,0,0:0:0:0:
320,192,62785,1,0,0:0:0:0:
64,192,62785,1,0,0:0:0:0:
448,192,62885,1,0,0:0:0:0:
192,192,62985,1,0,0:0:0:0:
64,192,62985,1,0,0:0:0:0:
320,192,63215,1,0,0:0:0:0:
448,192,63215,1,0,0:0:0:0:
64,192,63331,1,0,0:0:0:0:
192,192,63446,1,0,0:0:0:0:
448,192,63446,1,0,0:0:0:0:
320,192,63571,1,0,0:0:0:0:
64,192,63696,1,0,0:0:0:0:
320,192,63696,1,0,0:0:0:0:
192,192,63821,1,0,0:0:0:0:
320,192,63946,1,0,0:0:0:0:
448,192,63946,1,0,0:0:0:0:
64,192,64160,1,0,0:0:0:0:
448,192,64160,1,0,0:0:0:0:
192,192,64267,1,0,0:0:0:0:
320,192,64374,1,0,0:0:0:0:
448,192,64374,1,0,0:0:0:0:
192,192,64474,1,0,0:0:0:0:
320,192,64574,1,0,0:0:0:0:
64,192,64574,1,0,0:0:0:0:
192,192,64674,1,0,0:0:0:0:
64,192,64774,1,0,0:0:0:0:
448,192,64774,1,0,0:0:0:0:
320,192,64961,1,0,0:0:0:0:
192,192,64961,1,0,0:0:0:0:
448,192,65055,1,0,0:0:0:0:
64,192,65149,1,0,0:0:0:0:
320,192,65149,1,0,0:0:0:0:
192,192,65237,1,0,0:0:0:0:
64,192,65237,1,0,0:0:0:0:
320,192,65325,1,0,0:0:0:0:
448,192,65325,1,0,0:0:0:0:
64,192,65413,1,0,0:0:0:0:
192,192,65413,1,0,0:0:0:0:
320,192,65501,1,0,0:0:0:0:
448,192,65501,1,0,0:0:0:0:
192,192,65594,1,0,0:0:0:0:
64,192,65688,1,0,0:0:0:0:
448,192,65688,1,0,0:0:0:0:
320,192,65782,1,0,0:0:0:0:
192,192,65782,1,0,0:0:0:0:
64,192,65876,1,0,0:0:0:0:
320,192,65876,1,0,0:0:0:0:
448,192,65876,1,0,0:0:0:0:
192,192,66076,1,0,0:0:0:0:
448,192,66076,1,0,0:0:0:0:
192,192,66176,1,0,0:0:0:0:
64,192,66276,1,0,0:0:0:0:
320,192,66276,1,0,0:0:0:0:
192,192,66473,1,0,0:0:0:0:
448,192,66473,1,0,0:0:0:0:
448,192,66572,1,0,0:0:0:0:
64,192,66670,1,0,0:0:0:0:
320,192,66670,1,0,0:0:0:0:
320,192,66766,1,0,0:0:0:0:
192,192,66863,1,0,0:0:0:0:
448,192,66863,1,0,0:0:0:0:
192,192,66960,1,0,0:0:0:0:
64,192,67057,1,0,0:0:0:0:
320,192,67057,1,0,0:0:0:0:
192,192,67246,1,0,0:0:0:0:
448,192,67246,1,0,0:0:0:0:
448,192,67341,1,0,0:0:0:0:
64,192,67436,1,0,0:0:0:0:
320,192,67436,1,0,0:0:0:0:
64,192,67529,1,0,0:0:0:0:
448,192,67623,1,0,0:0:0:0:
320,192,67623,1,0,0:0:0:0:
320,192,67717,1,0,0:0:0:0:
192,192,67811,1,0,0:0:0:0:
64,192,67811,1,0,0:0:0:0:
320,192,67987,1,0,0:0:0:0:
448,192,67987,1,0,0:0:0:0:
320,192,68075,1,0,0:0:0:0:
192,192,68163,1,0,0:0:0:0:
64,192,68163,1,0,0:0:0:0:
320,192,68246,1,0,0:0:0:0:
192,192,68329,1,0,0:0:0:0:
448,192,68329,1,0,0:0:0:0:
64,192,68413,1,0,0:0:0:0:
320,192,68496,1,0,0:0:0:0:
448,192,68496,1,0,0:0:0:0:
192,192,68584,1,0,0:0:0:0:
64,192,68672,1,0,0:0:0:0:
320,192,68672,1,0,0:0:0:0:
448,192,68760,1,0,0:0:0:0:
64,192,68848,1,0,0:0:0:0:
192,192,68848,1,0,0:0:0:0:
192,192,69035,1,0,0:0:0:0:
448,192,69035,1,0,0:0:0:0:
448,192,69129,1,0,0:0:0:0:
64,192,69223,1,0,0:0:0:0:
192,192,69223,1,0,0:0:0:0:
320,192,69423,1,0,0:0:0:0:
64,192,69423,1,0,0:0:0:0:
192,192,69523,1,0,0:0:0:0:
320,192,69623,1,0,0:0:0:0:
448,192,69623,1,0,0:0:0:0:
320,192,69825,1,0,0:0:0:0:
192,192,69825,1,0,0:0:0:0:
192,192,69927,1,0,0:0:0:0:
64,192,69927,1,0,0:0:0:0:
320,192,70028,1,0,0:0:0:0:
448,192,70028,1,0,0:0:0:0:
64,192,70242,1,0,0:0:0:0:
320,192,70242,1,0,0:0:0:0:
64,192,70349,1,0,0:0:0:0:
192,192,70456,1,0,0:0:0:0:
448,192,70456,1,0,0:0:0:0:
320,192,70686,1,0,0:0:0:0:
64,192,70686,1,0,0:0:0:0:
192,192,70802,1,0,0:0:0:0:
448,192,70917,1,0,0:0:0:0:
64,192,70917,1,0,0:0:0:0:
320,192,71167,1,0,0:0:0:0:
64,192,71167,1,0,0:0:0:0:
192,192,71292,1,0,0:0:0:0:
448,192,71292,1,0,0:0:0:0:
320,192,71417,1,0,0:0:0:0:
64,192,71528,1,0,0:0:0:0:
192,192,71528,1,0,0:0:0:0:
448,192,71639,1,0,0:0:0:0:
320,192,71750,1,0,0:0:0:0:
192,192,71861,1,0,0:0:0:0:
64,192,71861,1,0,0:0:0:0:
320,192,72037,1,0,0:0:0:0:
192,192,72125,1,0,0:0:0:0:
448,192,72125,1,0,0:0:0:0:
64,192,72213,1,0,0:0:0:0:
320,192,72213,1,0,0:0:0:0:
192,192,72296,1,0,0:0:0:0:
64,192,72379,1,0,0:0:0:0:
448,192,72379,1,0,0:0:0:0:
320,192,72463,1,0,0:0:0:0:
192,192,72463,1,0,0:0:0:0:
64,192,72546,1,0,0:0:0:0:
448,192,72546,1,0,0:0:0:0:
64,192,72703,1,0,0:0:0:0:
320,192,72703,1,0,0:0:0:0:
192,192,72782,1,0,0:0:0:0:
320,192,72861,1,0,0:0:0:0:
448,192,72861,1,0,0:0:0:0:
192,192,73037,1,0,0:0:0:0:
448,192,73037,1,0,0:0:0:0:
320,192,73125,1,0,0:0:0:0:
64,192,73213,1,0,0:0:0:0:
192,192,73213,1,0,0:0:0:0:
448,192,73313,1,0,0:0:0:0:
320,192,73413,1,0,0:0:0:0:
64,192,73413,1,0,0:0:0:0:
192,192,73513,1,0,0:0:0:0:
64,192,73613,1,0,0:0:0:0:
448,192,73613,1,0,0:0:0:0:
320,192,73827,1,0,0:0:0:0:
64,192,73827,1,0,0:0:0:0:
448,192,73934,1,0,0:0:0:0:
192,192,74041,1,0,0:0:0:0:
64,192,74041,1,0,0:0:0:0:
320,192,74291,1,0,0:0:0:0:
448,192,74291,1,0,0:0:0:0:
192,192,74416,1,0,0:0:0:0:
320,192,74541,1,0,0:0:0:0:
64,192,74541,1,0,0:0:0:0:
448,192,74641,1,0,0:0:0:0:
192,192,74741,1,0,0:0:0:0:
64,192,74741,1,0,0:0:0:0:
320,192,74841,1,0,0:0:0:0:
448,192,74941,1,0,0:0:0:0:
192,192,74941,1,0,0:0:0:0:
64,192,75034,1,0,0:0:0:0:
448,192,75128,1,0,0:0:0:0:
192,192,75128,1,0,0:0:0:0:
320,192,75222,1,0,0:0:0:0:
64,192,75316,1,0,0:0:0:0:
192,192,75316,1,0,0:0:0:0:
448,192,75404,1,0,0:0:0:0:
320,192,75492,1,0,0:0:0:0:
64,192,75492,1,0,0:0:0:0:
192,192,75580,1,0,0:0:0:0:
320,192,75668,1,0,0:0:0:0:
448,192,75668,1,0,0:0:0:0:
192,192,75804,1,0,0:0:0:0:
448,192,75804,1,0,0:0:0:0:
64,192,75872,1,0,0:0:0:0:
320,192,75940,1,0,0:0:0:0:
448,192,75940,1,0,0:0:0:0:
192,192,76000,1,0,0:0:0:0:
64,192,76060,1,0,0:0:0:0:
448,192,76060,1,0,0:0:0:0:
320,192,76120,1,0,0:0:0:0:
192,192,76180,1,0,0:0:0:0:
64,192,76180,1,0,0:0:0:0:
448,192,76255,1,0,0:0:0:0:
320,192,76330,1,0,0:0:0:0:
64,192,76330,1,0,0:0:0:0:
192,192,76405,1,0,0:0:0:0:
320,192,76480,1,0,0:0:0:0:
448,192,76480,1,0,0:0:0:0:
64,192,76563,1,0,0:0:0:0:
192,192,76646,1,0,0:0:0:0:
448,192,76646,1,0,0:0:0:0:
320,192,76730,1,0,0:0:0:0:
64,192,76813,1,0,0:0:0:0:
192,192,76813,1,0,0:0:0:0:
448,192,76989,1,0,0:0:0:0:
64,192,76989,1,0,0:0:0:0:
320,192,77077,1,0,0:0:0:0:
192,192,77165,1,0,0:0:0:0:
64,192,77165,1,0,0:0:0:0:
448,192,77258,1,0,0:0:0:0:
448,192,77352,1,0,0:0:0:0:
192,192,77352,1,0,0:0:0:0:
320,192,77446,1,0,0:0:0:0:
192,192,77446,1,0,0:0:0:0:
64,192,77540,1,0,0:0:0:0:
448,192,77540,1,0,0:0:0:0:
320,192,77640,1,0,0:0:0:0:
192,192,77740,1,0,0:0:0:0:
64,192,77740,1,0,0:0:0:0:
64,192,77840,1,0,0:0:0:0:
64,192,77940,1,0,0:0:0:0:
320,192,77940,1,0,0:0:0:0:
448,192,77940,1,0,0:0:0:0:
320,192,78170,1,0,0:0:0:0:
448,192,78170,1,0,0:0:0:0:
192,192,78286,1,0,0:0:0:0:
64,192,78401,1,0,0:0:0:0:
448,192,78401,1,0,0:0:0:0:
320,192,78651,1,0,0:0:0:0:
64,192,78651,1,0,0:0:0:0:
192,192,78776,1,0,0:0:0:0:
320,192,78901,1,0,0:0:0:0:
448,192,78901,1,0,0:0:0:0:
192,192,79067,1,0,0:0:0:0:
64,192,79234,1,0,0:0:0:0:
448,192,79234,1,0,0:0:0:0:
320,192,79401,1,0,0:0:0:0:
192,192,79567,1,0,0:0:0:0:
64,192,79567,1,0,0:0:0:0:
64,192,79797,1,0,0:0:0:0:
448,192,79797,1,0,0:0:0:0:
192,192,79913,1,0,0:0:0:0:
320,192,80028,1,0,0:0:0:0:
448,192,80028,1,0,0:0:0:0:
192,192,80135,1,0,0:0:0:0:
320,192,80242,1,0,0:0:0:0:
64,192,80242,1,0,0:0:0:0:
448,192,80349,1,0,0:0:0:0:
64,192,80456,1,0,0:0:0:0:
192,192,80456,1,0,0:0:0:0:
448,192,80706,1,0,0:0:0:0:
192,192,80706,1,0,0:0:0:0:
320,192,80831,1,0,0:0:0:0:
192,192,80956,1,0,0:0:0:0:
320,192,81106,1,0,0:0:0:0:
64,192,81256,1,0,0:0:0:0:
448,192,81256,1,0,0:0:0:0:
192,192,81406,1,0,0:0:0:0:
64,192,81556,1,0,0:0:0:0:
448,192,81556,1,0,0:0:0:0:
320,192,81722,1,0,0:0:0:0:
192,192,81889,1,0,0:0:0:0:
64,192,81889,1,0,0:0:0:0:
320,192,82056,1,0,0:0:0:0:
448,192,82222,1,0,0:0:0:0:
64,192,82222,1,0,0:0:0:0:
320,192,82472,1,0,0:0:0:0:
192,192,82722,1,0,0:0:0:0:
64,192,82722,1,0,0:0:0:0:
320,192,82972,1,0,0:0:0:0:
64,192,83222,1,0,0:0:0:0:
448,192,83222,1,0,0:0:0:0:
192,192,83522,1,0,0:0:0:0:
320,192,83522,1,0,0:0:0:0:
448,192,83672,1,0,0:0:0:0:
64,192,83822,1,0,0:0:0:0:
448,192,83822,1,0,0:0:0:0:
192,192,83937,1,0,0:0:0:0:
320,192,84052,1,0,0:0:0:0:
448,192,84052,1,0,0:0:0:0:
192,192,84168,1,0,0:0:0:0:
320,192,84168,1,0,0:0:0:0:
64,192,84283,1,0,0:0:0:0:
448,192,84283,1,0,0:0:0:0:
192,192,84383,1,0,0:0:0:0:
320,192,84483,1,0,0:0:0:0:
64,192,84483,1,0,0:0:0:0:
192,192,84583,1,0,0:0:0:0:
448,192,84583,1,0,0:0:0:0:
448,192,84683,1,0,0:0:0:0:
320,192,84683,1,0,0:0:0:0:
192,192,84771,1,0,0:0:0:0:
64,192,84859,1,0,0:0:0:0:
448,192,84859,1,0,0:0:0:0:
320,192,84947,1,0,0:0:0:0:
64,192,85035,1,0,0:0:0:0:
192,192,85035,1,0,0:0:0:0:
320,192,85201,1,0,0:0:0:0:
448,192,85201,1,0,0:0:0:0:
192,192,85285,1,0,0:0:0:0:
64,192,85368,1,0,0:0:0:0:
448,192,85368,1,0,0:0:0:0:
320,192,85446,1,0,0:0:0:0:
192,192,85525,1,0,0:0:0:0:
64,192,85525,1,0,0:0:0:0:
320,192,85604,1,0,0:0:0:0:
192,192,85683,1,0,0:0:0:0:
448,192,85683,1,0,0:0:0:0:
64,192,85758,1,0,0:0:0:0:
320,192,85833,1,0,0:0:0:0:
448,192,85833,1,0,0:0:0:0:
192,192,85908,1,0,0:0:0:0:
64,192,85983,1,0,0:0:0:0:
320,192,85983,1,0,0:0:0:0:
448,192,86054,1,0,0:0:0:0:
192,192,86125,1,0,0:0:0:0:
64,192,86125,1,0,0:0:0:0:
320,192,86197,1,0,0:0:0:0:
448,192,86268,1,0,0:0:0:0:
192,192,86268,1,0,0:0:0:0:
320,192,86336,1,0,0:0:0:0:
448,192,86404,1,0,0:0:0:0:
64,192,86404,1,0,0:0:0:0:
192,192,86472,1,0,0:0:0:0:
320,192,86540,1,0,0:0:0:0:
448,192,86540,1,0,0:0:0:0:
192,192,86605,1,0,0:0:0:0:
320,192,86670,1,0,0:0:0:0:
64,192,86670,1,0,0:0:0:0:
448,192,86735,1,0,0:0:0:0:
192,192,86800,1,0,0:0:0:0:
64,192,86800,1,0,0:0:0:0:
320,192,86862,1,0,0:0:0:0:
192,192,86925,1,0,0:0:0:0:
448,192,86925,1,0,0:0:0:0:
64,192,86987,1,0,0:0:0:0:
320,192,87050,1,0,0:0:0:0:
448,192,87050,1,0,0:0:0:0:
192,192,87110,1,0,0:0:0:0:
64,192,87170,1,0,0:0:0:0:
448,192,87170,1,0,0:0:0:0:
320,192,87230,1,0,0:0:0:0:
192,192,87290,1,0,0:0:0:0:
64,192,87290,1,0,0:0:0:0:
320,192,87358,1,0,0:0:0:0:
448,192,87426,1,0,0:0:0:0:
192,192,87426,1,0,0:0:0:0:
320,192,87494,1,0,0:0:0:0:
64,192,87562,1,0,0:0:0:0:
448,192,87562,1,0,0:0:0:0:
192,192,87637,1,0,0:0:0:0:
320,192,87712,1,0,0:0:0:0:
448,192,87712,1,0,0:0:0:0:
192,192,87787,1,0,0:0:0:0:
320,192,87862,1,0,0:0:0:0:
448,192,87862,1,0,0:0:0:0:
64,192,87945,1,0,0:0:0:0:
192,192,88028,1,0,0:0:0:0:
448,192,88028,1,0,0:0:0:0:
320,192,88112,1,0,0:0:0:0:
64,192,88195,1,0,0:0:0:0:
192,192,88195,1,0,0:0:0:0:
448,192,88295,1,0,0:0:0:0:
320,192,88395,1,0,0:0:0:0:
64,192,88395,1,0,0:0:0:0:
192,192,88495,1,0,0:0:0:0:
320,192,88595,1,0,0:0:0:0:
192,192,88595,1,0,0:0:0:0:
64,192,88825,1,0,0:0:0:0:
448,192,88825,1,0,0:0:0:0:
192,192,88941,1,0,0:0:0:0:
320,192,89056,1,0,0:0:0:0:
64,192,89056,1,0,0:0:0:0:
320,192,89181,1,0,0:0:0:0:
192,192,89306,1,0,0:0:0:0:
448,192,89306,1,0,0:0:0:0:
64,192,89431,1,0,0:0:0:0:
320,192,89556,1,0,0:0:0:0:
448,192,89556,1,0,0:0:0:0:
64,192,89770,1,0,0:0:0:0:
448,192,89770,1,0,0:0:0:0:
64,192,89877,1,0,0:0:0:0:
192,192,89984,1,0,0:0:0:0:
448,192,89984,1,0,0:0:0:0:
320,192,90084,1,0,0:0:0:0:
64,192,90184,1,0,0:0:0:0:
192,192,90284,1,0,0:0:0:0:
320,192,90384,1,0,0:0:0:0:
448,192,90384,1,0,0:0:0:0:
192,192,90571,1,0,0:0:0:0:
320,192,90665,1,0,0:0:0:0:
448,192,90759,1,0,0:0:0:0:
192,192,90759,1,0,0:0:0:0:
320,192,90847,1,0,0:0:0:0:
64,192,90935,1,0,0:0:0:0:
192,192,90935,1,0,0:0:0:0:
448,192,91023,1,0,0:0:0:0:
320,192,91111,1,0,0:0:0:0:
64,192,91111,1,0,0:0:0:0:
320,192,91298,1,0,0:0:0:0:
448,192,91298,1,0,0:0:0:0:
64,192,91486,1,0,0:0:0:0:
192,192,91486,1,0,0:0:0:0:
448,192,91486,1,0,0:0:0:0:
320,192,91586,1,0,0:0:0:0:
192,192,91686,1,0,0:0:0:0:
64,192,91686,1,0,0:0:0:0:
320,192,91785,1,0,0:0:0:0:
448,192,91884,1,0,0:0:0:0:
192,192,91884,1,0,0:0:0:0:
64,192,91982,1,0,0:0:0:0:
320,192,92081,1,0,0:0:0:0:
448,192,92081,1,0,0:0:0:0:
192,192,92179,1,0,0:0:0:0:
64,192,92277,1,0,0:0:0:0:
448,192,92277,1,0,0:0:0:0:
320,192,92374,1,0,0:0:0:0:
192,192,92471,1,0,0:0:0:0:
64,192,92471,1,0,0:0:0:0:
320,192,92567,1,0,0:0:0:0:
192,192,92664,1,0,0:0:0:0:
448,192,92664,1,0,0:0:0:0:
64,192,92760,1,0,0:0:0:0:
320,192,92856,1,0,0:0:0:0:
448,192,92856,1,0,0:0:0:0:
192,192,92951,1,0,0:0:0:0:
64,192,93047,1,0,0:0:0:0:
320,192,93047,1,0,0:0:0:0:
448,192,93141,1,0,0:0:0:0:
192,192,93236,1,0,0:0:0:0:
64,192,93236,1,0,0:0:0:0:
320,192,93330,1,0,0:0:0:0:
448,192,93424,1,0,0:0:0:0:
64,192,93424,1,0,0:0:0:0:
192,192,93517,1,0,0:0:0:0:
320,192,93611,1,0,0:0:0:0:
448,192,93611,1,0,0:0:0:0:
192,192,93704,1,0,0:0:0:0:
320,192,93797,1,0,0:0:0:0:
64,192,93797,1,0,0:0:0:0:
448,192,93889,1,0,0:0:0:0:
192,192,93982,1,0,0:0:0:0:
64,192,93982,1,0,0:0:0:0:
320,192,94074,1,0,0:0:0:0:
192,192,94166,1,0,0:0:0:0:
448,192,94166,1,0,0:0:0:0:
64,192,94257,1,0,0:0:0:0:
320,192,94348,1,0,0:0:0:0:
448,192,94348,1,0,0:0:0:0:
192,192,94438,1,0,0:0:0:0:
64,192,94529,1,0,0:0:0:0:
320,192,94529,1,0,0:0:0:0:
448,192,94619,1,0,0:0:0:0:
192,192,94709,1,0,0:0:0:0:
64,192,94709,1,0,0:0:0:0:
320,192,94798,1,0,0:0:0:0:
192,192,94888,1,0,0:0:0:0:
64,192,94888,1,0,0:0:0:0:
320,192,94977,1,0,0:0:0:0:
448,192,95066,1,0,0:0:0:0:
192,192,95066,1,0,0:0:0:0:
320,192,95154,1,0,0:0:0:0:
192,192,95243,1,0,0:0:0:0:
64,192,95243,1,0,0:0:0:0:
320,192,95331,1,0,0:0:0:0:
448,192,95419,1,0,0:0:0:0:
64,192,95419,1,0,0:0:0:0:
192,192,95506,1,0,0:0:0:0:
320,192,95594,1,0,0:0:0:0:
448,192,95594,1,0,0:0:0:0:
192,192,95681,1,0,0:0:0:0:
64,192,95768,1,0,0:0:0:0:
320,192,95768,1,0,0:0:0:0:
448,192,95854,1,0,0:0:0:0:
192,192,95941,1,0,0:0:0:0:
64,192,95941,1,0,0:0:0:0:
320,192,96027,1,0,0:0:0:0:
192,192,96113,1,0,0:0:0:0:
64,192,96113,1,0,0:0:0:0:
448,192,96198,1,0,0:0:0:0:
320,192,96284,1,0,0:0:0:0:
64,192,96284,1,0,0:0:0:0:
192,192,96369,1,0,0:0:0:0:
320,192,96454,1,0,0:0:0:0:
64,192,96454,1,0,0:0:0:0:
192,192,96538,1,0,0:0:0:0:
448,192,96623,1,0,0:0:0:0:
320,192,96623,1,0,0:0:0:0:
64,192,96707,1,0,0:0:0:0:
192,192,96791,1,0,0:0:0:0:
448,192,96791,1,0,0:0:0:0:
320,192,96874,1,0,0:0:0:0:
64,192,96958,1,0,0:0:0:0:
192,192,96958,1,0,0:0:0:0:
320,192,97041,1,0,0:0:0:0:
192,192,97124,1,0,0:0:0:0:
448,192,97124,1,0,0:0:0:0:
320,192,97206,1,0,0:0:0:0:
192,192,97289,1,0,0:0:0:0:
64,192,97289,1,0,0:0:0:0:
448,192,97371,1,0,0:0:0:0:
320,192,97453,1,0,0:0:0:0:
64,192,97453,1,0,0:0:0:0:
192,192,97534,1,0,0:0:0:0:
320,192,97616,1,0,0:0:0:0:
64,192,97616,1,0,0:0:0:0:
448,192,97697,1,0,0:0:0:0:
320,192,97779,1,0,0:0:0:0:
64,192,97779,1,0,0:0:0:0:
192,192,97860,1,0,0:0:0:0:
320,192,97941,1,0,0:0:0:0:
448,192,97941,1,0,0:0:0:0:
192,192,98021,1,0,0:0:0:0:
64,192,98102,1,0,0:0:0:0:
448,192,98102,1,0,0:0:0:0:
320,192,98182,1,0,0:0:0:0:
192,192,98262,1,0,0:0:0:0:
448,192,98262,1,0,0:0:0:0:
64,192,98341,1,0,0:0:0:0:
320,192,98421,1,0,0:0:0:0:
448,192,98421,1,0,0:0:0:0:
192,192,98500,1,0,0:0:0:0:
64,192,98579,1,0,0:0:0:0:
320,192,98579,1,0,0:0:0:0:
448,192,98657,1,0,0:0:0:0:
192,192,98736,1,0,0:0:0:0:
64,192,98736,1,0,0:0:0:0:
320,192,98814,1,0,0:0:0:0:
192,192,98893,1,0,0:0:0:0:
320,192,98971,1,0,0:0:0:0:
448,192,99049,1,0,0:0:0:0:
64,192,99049,1,0,0:0:0:0:
192,192,99126,1,0,0:0:0:0:
320,192,99204,1,0,0:0:0:0:
448,192,99204,1,0,0:0:0:0:
192,192,99281,1,0,0:0:0:0:
320,192,99358,1,0,0:0:0:0:
64,192,99358,1,0,0:0:0:0:
448,192,99434,1,0,0:0:0:0:
192,192,99511,1,0,0:0:0:0:
64,192,99511,1,0,0:0:0:0:
320,192,99587,1,0,0:0:0:0:
448,192,99664,1,0,0:0:0:0:
192,192,99664,1,0,0:0:0:0:
64,192,99740,1,0,0:0:0:0:
320,192,99816,1,0,0:0:0:0:
448,192,99816,1,0,0:0:0:0:
192,192,99891,1,0,0:0:0:0:
64,192,99967,1,0,0:0:0:0:
448,192,99967,1,0,0:0:0:0:
320,192,100042,1,0,0:0:0:0:
192,192,100117,1,0,0:0:0:0:
64,192,100117,1,0,0:0:0:0:
320,192,100192,1,0,0:0:0:0:
192,192,100267,1,0,0:0:0:0:
448,192,100267,1,0,0:0:0:0:
64,192,100341,1,0,0:0:0:0:
320,192,100416,1,0,0:0:0:0:
448,192,100416,1,0,0:0:0:0:
192,192,100490,1,0,0:0:0:0:
320,192,100564,1,0,0:0:0:0:
448,192,100564,1,0,0:0:0:0:
64,192,100637,1,0,0:0:0:0:
192,192,100711,1,0,0:0:0:0:
448,192,100711,1,0,0:0:0:0:
320,192,100784,1,0,0:0:0:0:
64,192,100858,1,0,0:0:0:0:
192,192,100858,1,0,0:0:0:0:
320,192,100931,1,0,0:0:0:0:
448,192,101004,1,0,0:0:0:0:
192,192,101004,1,0,0:0:0:0:
320,192,101076,1,0,0:0:0:0:
448,192,101149,1,0,0:0:0:0:
64,192,101149,1,0,0:0:0:0:
192,192,101221,1,0,0:0:0:0:
320,192,101293,1,0,0:0:0:0:
448,192,101293,1,0,0:0:0:0:
192,192,101365,1,0,0:0:0:0:
64,192,101437,1,0,0:0:0:0:
320,192,101437,1,0,0:0:0:0:
448,192,101508,1,0,0:0:0:0:
192,192,101580,1,0,0:0:0:0:
64,192,101580,1,0,0:0:0:0:
320,192,101651,1,0,0:0:0:0:
192,192,101722,1,0,0:0:0:0:
448,192,101722,1,0,0:0:0:0:
320,192,101793,1,0,0:0:0:0:
64,192,101864,1,0,0:0:0:0:
448,192,101864,1,0,0:0:0:0:
192,192,101934,1,0,0:0:0:0:
320,192,102005,1,0,0:0:0:0:
448,192,102005,1,0,0:0:0:0:
64,192,102075,1,0,0:0:0:0:
448,192,102145,1,0,0:0:0:0:
192,192,102145,1,0,0:0:0:0:
192,192,102215,1,0,0:0:0:0:
320,192,102285,1,0,0:0:0:0:
64,192,102285,1,0,0:0:0:0:
448,192,102285,1,0,0:0:0:0:
192,192,102354,1,0,0:0:0:0:
448,192,102424,1,0,0:0:0:0:
64,192,102424,1,0,0:0:0:0:
320,192,102493,1,0,0:0:0:0:
192,192,102562,1,0,0:0:0:0:
448,192,102562,1,0,0:0:0:0:
64,192,102631,1,0,0:0:0:0:
320,192,102700,1,0,0:0:0:0:
448,192,102700,1,0,0:0:0:0:
192,192,102768,1,0,0:0:0:0:
64,192,102837,1,0,0:0:0:0:
320,192,102837,1,0,0:0:0:0:
448,192,102905,1,0,0:0:0:0:
192,192,102973,1,0,0:0:0:0:
320,192,102973,1,0,0:0:0:0:
64,192,103041,1,0,0:0:0:0:
192,192,103109,1,0,0:0:0:0:
448,192,103109,1,0,0:0:0:0:
320,192,103176,1,0,0:0:0:0:
64,192,103244,1,0,0:0:0:0:
192,192,103244,1,0,0:0:0:0:
320,192,103311,1,0,0:0:0:0:
192,192,103379,1,0,0:0:0:0:
448,192,103379,1,0,0:0:0:0:
64,192,103446,1,0,0:0:0:0:
320,192,103513,1,0,0:0:0:0:
448,192,103513,1,0,0:0:0:0:
192,192,103579,1,0,0:0:0:0:
320,192,103646,1,0,0:0:0:0:
64,192,103646,1,0,0:0:0:0:
448,192,103712,1,0,0:0:0:0:
192,192,103779,1,0,0:0:0:0:
64,192,103779,1,0,0:0:0:0:
320,192,103845,1,0,0:0:0:0:
192,192,103911,1,0,0:0:0:0:
448,192,103911,1,0,0:0:0:0:
320,192,103977,1,0,0:0:0:0:
448,192,104043,1,0,0:0:0:0:
64,192,104043,1,0,0:0:0:0:
192,192,104108,1,0,0:0:0:0:
320,192,104174,1,0,0:0:0:0:
448,192,104174,1,0,0:0:0:0:
192,192,104239,1,0,0:0:0:0:
320,192,104305,1,0,0:0:0:0:
448,192,104305,1,0,0:0:0:0:
192,192,104370,1,0,0:0:0:0:
64,192,104435,1,0,0:0:0:0:
320,192,104435,1,0,0:0:0:0:
448,192,104499,1,0,0:0:0:0:
64,192,104564,1,0,0:0:0:0:
192,192,104564,1,0,0:0:0:0:
320,192,104628,1,0,0:0:0:0:
192,192,104693,1,0,0:0:0:0:
320,192,104757,1,0,0:0:0:0:
448,192,104821,1,0,0:0:0:0:
64,192,104821,1,0,0:0:0:0:
192,192,104885,1,0,0:0:0:0:
320,192,104949,1,0,0:0:0:0:
448,192,104949,1,0,0:0:0:0:
192,192,105012,1,0,0:0:0:0:
320,192,105076,1,0,0:0:0:0:
448,192,105076,1,0,0:0:0:0:
64,192,105139,1,0,0:0:0:0:
192,192,105203,1,0,0:0:0:0:
448,192,105203,1,0,0:0:0:0:
320,192,105266,1,0,0:0:0:0:
64,192,105329,1,0,0:0:0:0:
192,192,105329,1,0,0:0:0:0:
448,192,105392,1,0,0:0:0:0:
320,192,105455,1,0,0:0:0:0:
64,192,105455,1,0,0:0:0:0:
192,192,105517,1,0,0:0:0:0:
320,192,105580,1,0,0:0:0:0:
448,192,105580,1,0,0:0:0:0:
192,192,105642,1,0,0:0:0:0:
64,192,105705,1,0,0:0:0:0:
448,192,105705,1,0,0:0:0:0:
320,192,105767,1,0,0:0:0:0:
192,192,105829,1,0,0:0:0:0:
64,192,105829,1,0,0:0:0:0:
320,192,105890,1,0,0:0:0:0:
192,192,105952,1,0,0:0:0:0:
64,192,105952,1,0,0:0:0:0:
320,192,106013,1,0,0:0:0:0:
192,192,106075,1,0,0:0:0:0:
448,192,106075,1,0,0:0:0:0:
320,192,106136,1,0,0:0:0:0:
448,192,106197,1,0,0:0:0:0:
64,192,106197,1,0,0:0:0:0:
192,192,106258,1,0,0:0:0:0:
320,192,106319,1,0,0:0:0:0:
448,192,106319,1,0,0:0:0:0:
192,192,106379,1,0,0:0:0:0:
320,192,106440,1,0,0:0:0:0:
448,192,106440,1,0,0:0:0:0:
64,192,106500,1,0,0:0:0:0:
192,192,106561,1,0,0:0:0:0:
448,192,106561,1,0,0:0:0:0:
320,192,106621,1,0,0:0:0:0:
64,192,106681,1,0,0:0:0:0:
192,192,106681,1,0,0:0:0:0:
320,192,106741,1,0,0:0:0:0:
192,192,106801,1,0,0:0:0:0:
64,192,106801,1,0,0:0:0:0:
320,192,106861,1,0,0:0:0:0:
448,192,106921,1,0,0:0:0:0:
64,192,106921,1,0,0:0:0:0:
192,192,106980,1,0,0:0:0:0:
320,192,107040,1,0,0:0:0:0:
448,192,107040,1,0,0:0:0:0:
192,192,107099,1,0,0:0:0:0:
64,192,107159,1,0,0:0:0:0:
448,192,107159,1,0,0:0:0:0:
320,192,107218,1,0,0:0:0:0:
192,192,107277,1,0,0:0:0:0:
64,192,107277,1,0,0:0:0:0:
448,192,107336,1,0,0:0:0:0:
320,192,107395,1,0,0:0:0:0:
64,192,107395,1,0,0:0:0:0:
192,192,107453,1,0,0:0:0:0:
320,192,107512,1,0,0:0:0:0:
448,192,107512,1,0,0:0:0:0:
192,192,107570,1,0,0:0:0:0:
64,192,107629,1,0,0:0:0:0:
448,192,107629,1,0,0:0:0:0:
320,192,107687,1,0,0:0:0:0:
192,192,107745,1,0,0:0:0:0:
64,192,107745,1,0,0:0:0:0:
320,192,107803,1,0,0:0:0:0:
192,192,107861,1,0,0:0:0:0:
64,192,107861,1,0,0:0:0:0:
320,192,107918,1,0,0:0:0:0:
192,192,107976,1,0,0:0:0:0:
448,192,107976,1,0,0:0:0:0:
64,192,108033,1,0,0:0:0:0:
320,192,108091,1,0,0:0:0:0:
448,192,108091,1,0,0:0:0:0:
192,192,108148,1,0,0:0:0:0:
64,192,108205,1,0,0:0:0:0:
320,192,108205,1,0,0:0:0:0:
192,192,108262,1,0,0:0:0:0:
64,192,108319,1,0,0:0:0:0:
448,192,108319,1,0,0:0:0:0:
320,192,108376,1,0,0:0:0:0:
192,192,108433,1,0,0:0:0:0:
64,192,108433,1,0,0:0:0:0:
320,192,108489,1,0,0:0:0:0:
192,192,108546,1,0,0:0:0:0:
448,192,108546,1,0,0:0:0:0:
64,192,108602,1,0,0:0:0:0:
320,192,108659,1,0,0:0:0:0:
448,192,108659,1,0,0:0:0:0:
192,192,108715,1,0,0:0:0:0:
64,192,108771,1,0,0:0:0:0:
320,192,108771,1,0,0:0:0:0:
448,192,108827,1,0,0:0:0:0:
192,192,108883,1,0,0:0:0:0:
64,192,108883,1,0,0:0:0:0:
320,192,108938,1,0,0:0:0:0:
192,192,108994,1,0,0:0:0:0:
64,192,108994,1,0,0:0:0:0:
320,192,109049,1,0,0:0:0:0:
448,192,109105,1,0,0:0:0:0:
192,192,109105,1,0,0:0:0:0:
320,192,109160,1,0,0:0:0:0:
448,192,109216,1,0,0:0:0:0:
64,192,109216,1,0,0:0:0:0:
192,192,109271,1,0,0:0:0:0:
320,192,109326,1,0,0:0:0:0:
448,192,109326,1,0,0:0:0:0:
64,192,109326,1,0,0:0:0:0:
192,192,109381,1,0,0:0:0:0:
320,192,109436,1,0,0:0:0:0:
448,192,109436,1,0,0:0:0:0:
192,192,109490,1,0,0:0:0:0:
64,192,109545,1,0,0:0:0:0:
448,192,109545,1,0,0:0:0:0:
320,192,109599,1,0,0:0:0:0:
192,192,109654,1,0,0:0:0:0:
64,192,109654,1,0,0:0:0:0:
320,192,109708,1,0,0:0:0:0:
448,192,109763,1,0,0:0:0:0:
64,192,109763,1,0,0:0:0:0:
192,192,109817,1,0,0:0:0:0:
320,192,109871,1,0,0:0:0:0:
448,192,109871,1,0,0:0:0:0:
192,192,109925,1,0,0:0:0:0:
320,192,109979,1,0,0:0:0:0:
448,192,109979,1,0,0:0:0:0:
64,192,110032,1,0,0:0:0:0:
192,192,110086,1,0,0:0:0:0:
448,192,110086,1,0,0:0:0:0:
320,192,110146,1,0,0:0:0:0:
64,192,110206,1,0,0:0:0:0:
192,192,110206,1,0,0:0:0:0:
448,192,110206,1,0,0:0:0:0:
320,192,110277,1,0,0:0:0:0:
192,192,110348,1,0,0:0:0:0:
64,192,110348,1,0,0:0:0:0:
320,192,110426,1,0,0:0:0:0:
192,192,110505,1,0,0:0:0:0:
448,192,110505,1,0,0:0:0:0:
64,192,110505,1,0,0:0:0:0:
320,192,110593,1,0,0:0:0:0:
448,192,110681,1,0,0:0:0:0:
192,192,110681,1,0,0:0:0:0:
64,192,110788,1,0,0:0:0:0:
320,192,110895,1,0,0:0:0:0:
448,192,110895,1,0,0:0:0:0:
192,192,111031,1,0,0:0:0:0:
64,192,111031,1,0,0:0:0:0:
448,192,111031,1,0,0:0:0:0:
64,192,111167,1,0,0:0:0:0:
320,192,111167,1,0,0:0:0:0:
192,192,111354,1,0,0:0:0:0:
448,192,111354,1,0,0:0:0:0:
64,192,111542,1,0,0:0:0:0:
192,192,111542,1,0,0:0:0:0:
64,192,112417,1,0,0:0:0:0:
192,192,112417,1,0,0:0:0:0:
320,192,112417,1,0,0:0:0:0:
448,192,112417,1,0,0:0:0:0:
