osu file format v14

[General]
AudioFilename: SHINING LINE tomatomerde.mp3
AudioLeadIn: 0
PreviewTime: 77023
Countdown: 0
SampleSet: Soft
StackLeniency: 0.7
Mode: 3
LetterboxInBreaks: 0
SpecialStyle: 0
WidescreenStoryboard: 1

[Editor]
DistanceSpacing: 1
BeatDivisor: 4
GridSize: 32
TimelineZoom: 2

[Metadata]
Title:SHINING LINE*
TitleUnicode:SHINING LINE*
Artist:tomatomerde
ArtistUnicode:tomatomerde
Creator:Zylin
Version:Hard
Source:アイカツ!
Tags:DNB Drum and Bass アイドルカツドウ Aidoru Katsudou Aikatsu! kongou_san
BeatmapID:1532349
BeatmapSetID:725753

[Difficulty]
HPDrainRate:7.5
CircleSize:7
OverallDifficulty:7.5
ApproachRate:5
SliderMultiplier:1.4
SliderTickRate:1

[Events]
//Background and Video events
0,0,"cropped-1366-768-735017.jpg",0,0
//Break Periods
//Storyboard Layer 0 (Background)
//Storyboard Layer 1 (Fail)
//Storyboard Layer 2 (Pass)
//Storyboard Layer 3 (Foreground)
//Storyboard Sound Samples

[TimingPoints]
8015,387.096774193548,4,2,1,80,1,0
19081,342.857142857143,4,2,1,80,1,0

[HitObjects]
475,192,8014,128,0,9563:0:0:0:0:
36,192,8014,128,0,8208:0:0:0:0:
109,192,8208,128,0,8402:0:0:0:0:
402,192,8402,128,0,8595:0:0:0:0:
329,192,8595,128,0,8789:0:0:0:0:
182,192,8789,128,0,8982:0:0:0:0:
256,192,8982,128,0,9176:0:0:0:0:
109,192,9176,128,0,9369:0:0:0:0:
36,192,9369,128,0,9563:0:0:0:0:
402,192,9563,128,0,9756:0:0:0:0:
329,192,9756,128,0,10724:0:0:0:0:
36,192,9756,128,0,9950:0:0:0:0:
109,192,9950,128,0,10144:0:0:0:0:
256,192,10144,128,0,10337:0:0:0:0:
182,192,10337,128,0,10531:0:0:0:0:
109,192,10531,128,0,10724:0:0:0:0:
36,192,10724,1,0,0:0:0:0:
256,192,10724,1,0,0:0:0:0:
475,192,10724,1,0,0:0:0:0:
36,192,12079,128,0,12273:0:0:0:0:
475,192,12079,128,0,13047:0:0:0:0:
109,192,12273,128,0,12466:0:0:0:0:
182,192,12466,128,0,12660:0:0:0:0:
256,192,12660,128,0,12853:0:0:0:0:
329,192,12853,128,0,13047:0:0:0:0:
36,192,13047,128,0,13434:0:0:0:0:
402,192,13047,128,0,13434:0:0:0:0:
329,192,13240,1,0,0:0:0:0:
109,192,13434,128,0,13821:0:0:0:0:
182,192,13627,1,0,0:0:0:0:
256,192,13821,128,0,14208:0:0:0:0:
402,192,14014,1,0,0:0:0:0:
329,192,14208,128,0,14595:0:0:0:0:
36,192,14402,1,0,0:0:0:0:
475,192,14595,128,0,14982:0:0:0:0:
182,192,14595,128,0,14982:0:0:0:0:
109,192,14789,1,0,0:0:0:0:
402,192,14982,128,0,15369:0:0:0:0:
109,192,15176,1,0,0:0:0:0:
256,192,15369,128,0,15756:0:0:0:0:
36,192,15369,128,0,15756:0:0:0:0:
402,192,15563,1,0,0:0:0:0:
182,192,15756,128,0,16144:0:0:0:0:
475,192,15950,1,0,0:0:0:0:
109,192,16144,128,0,16531:0:0:0:0:
402,192,16144,128,0,16531:0:0:0:0:
329,192,16337,1,0,0:0:0:0:
36,192,16531,128,0,16918:0:0:0:0:
475,192,16724,1,0,0:0:0:0:
256,192,16918,128,0,17305:0:0:0:0:
329,192,17111,1,0,0:0:0:0:
475,192,17305,128,0,17692:0:0:0:0:
182,192,17498,1,0,0:0:0:0:
109,192,17692,1,0,0:0:0:0:
36,192,17692,128,0,18853:0:0:0:0:
402,192,17692,1,0,0:0:0:0:
256,192,17692,128,0,18853:0:0:0:0:
256,192,19081,1,2,0:0:0:0:
256,192,19252,1,2,0:0:0:0:
402,192,19423,1,0,0:0:0:0:
109,192,19423,1,2,0:0:0:0:
109,192,19595,1,2,0:0:0:0:
402,192,19595,1,0,0:0:0:0:
402,192,19766,1,0,0:0:0:0:
109,192,19766,1,2,0:0:0:0:
402,192,19938,1,0,0:0:0:0:
109,192,19938,1,2,0:0:0:0:
475,192,20109,1,0,0:0:0:0:
36,192,20109,1,0,0:0:0:0:
329,192,20109,1,8,0:0:0:0:
182,192,20109,1,0,0:0:0:0:
109,192,20452,1,2,0:0:0:0:
182,192,20623,1,0,0:0:0:0:
256,192,20795,1,8,0:0:0:0:
329,192,20795,1,0,0:0:0:0:
475,192,20795,1,0,0:0:0:0:
402,192,20966,1,0,0:0:0:0:
36,192,21138,1,0,0:0:0:0:
109,192,21309,1,2,0:0:0:0:
182,192,21481,1,0,0:0:0:0:
475,192,21481,1,0,0:0:0:0:
402,192,21481,1,8,0:0:0:0:
329,192,21652,1,0,0:0:0:0:
256,192,21823,1,2,0:0:0:0:
36,192,21995,1,0,0:0:0:0:
256,192,22166,1,8,0:0:0:0:
475,192,22166,1,0,0:0:0:0:
109,192,22166,1,0,0:0:0:0:
402,192,22338,1,0,0:0:0:0:
182,192,22509,1,0,0:0:0:0:
329,192,22681,1,2,0:0:0:0:
109,192,22852,1,8,0:0:0:0:
475,192,22852,1,0,0:0:0:0:
36,192,22852,1,0,0:0:0:0:
402,192,23023,1,0,0:0:0:0:
256,192,23195,1,2,0:0:0:0:
475,192,23366,1,0,0:0:0:0:
402,192,23538,1,8,0:0:0:0:
182,192,23538,1,0,0:0:0:0:
36,192,23538,1,0,0:0:0:0:
329,192,23709,1,0,0:0:0:0:
475,192,23881,1,0,0:0:0:0:
256,192,24052,1,2,0:0:0:0:
329,192,24223,1,0,0:0:0:0:
109,192,24223,1,8,0:0:0:0:
402,192,24223,1,0,0:0:0:0:
36,192,24395,1,0,0:0:0:0:
182,192,24566,1,2,0:0:0:0:
402,192,24738,1,0,0:0:0:0:
329,192,24909,1,8,0:0:0:0:
109,192,24909,1,0,0:0:0:0:
475,192,24909,1,0,0:0:0:0:
36,192,25081,1,0,0:0:0:0:
475,192,25252,1,0,0:0:0:0:
256,192,25423,1,2,0:0:0:0:
109,192,25595,1,0,0:0:0:0:
329,192,25595,1,8,0:0:0:0:
475,192,25595,1,0,0:0:0:0:
182,192,25766,1,0,0:0:0:0:
256,192,25938,1,6,0:0:0:0:
36,192,25938,1,0,0:0:0:0:
475,192,25938,1,0,0:0:0:0:
402,192,26109,1,0,0:0:0:0:
329,192,26281,1,0,0:0:0:0:
109,192,26281,1,8,0:0:0:0:
36,192,26281,1,0,0:0:0:0:
475,192,26452,1,0,0:0:0:0:
182,192,26623,1,0,0:0:0:0:
402,192,26795,1,2,0:0:0:0:
329,192,26966,1,8,0:0:0:0:
109,192,26966,1,0,0:0:0:0:
475,192,26966,1,0,0:0:0:0:
36,192,27138,1,0,0:0:0:0:
256,192,27309,1,2,0:0:0:0:
402,192,27481,1,0,0:0:0:0:
109,192,27652,1,8,0:0:0:0:
329,192,27652,1,0,0:0:0:0:
36,192,27652,1,0,0:0:0:0:
256,192,27823,1,0,0:0:0:0:
475,192,27995,1,0,0:0:0:0:
182,192,28166,1,2,0:0:0:0:
109,192,28338,1,0,0:0:0:0:
329,192,28338,1,0,0:0:0:0:
402,192,28338,1,8,0:0:0:0:
36,192,28509,1,0,0:0:0:0:
256,192,28681,1,2,0:0:0:0:
475,192,28852,1,0,0:0:0:0:
402,192,29023,1,0,0:0:0:0:
109,192,29023,1,0,0:0:0:0:
182,192,29023,1,8,0:0:0:0:
36,192,29195,1,0,0:0:0:0:
475,192,29366,1,0,0:0:0:0:
256,192,29538,1,2,0:0:0:0:
36,192,29709,1,0,0:0:0:0:
329,192,29709,1,8,0:0:0:0:
402,192,29709,1,0,0:0:0:0:
182,192,29881,1,0,0:0:0:0:
256,192,30052,1,2,0:0:0:0:
402,192,30223,1,0,0:0:0:0:
109,192,30395,1,0,0:0:0:0:
329,192,30395,1,0,0:0:0:0:
182,192,30395,1,8,0:0:0:0:
36,192,30566,1,0,0:0:0:0:
475,192,30738,1,0,0:0:0:0:
256,192,30909,1,2,0:0:0:0:
109,192,31081,1,8,0:0:0:0:
402,192,31081,1,0,0:0:0:0:
36,192,31081,1,0,0:0:0:0:
182,192,31252,1,0,0:0:0:0:
256,192,31423,1,6,0:0:0:0:
475,192,31423,1,0,0:0:0:0:
36,192,31423,1,0,0:0:0:0:
402,192,31595,1,0,0:0:0:0:
329,192,31766,1,8,0:0:0:0:
109,192,31766,1,0,0:0:0:0:
182,192,31766,1,0,0:0:0:0:
475,192,31938,1,0,0:0:0:0:
36,192,32109,1,0,0:0:0:0:
402,192,32281,1,2,0:0:0:0:
329,192,32452,1,8,0:0:0:0:
109,192,32452,1,0,0:0:0:0:
475,192,32452,1,0,0:0:0:0:
182,192,32623,1,0,0:0:0:0:
256,192,32795,1,2,0:0:0:0:
182,192,32966,1,0,0:0:0:0:
329,192,33138,1,0,0:0:0:0:
109,192,33138,1,8,0:0:0:0:
36,192,33138,1,0,0:0:0:0:
402,192,33309,1,0,0:0:0:0:
475,192,33481,1,0,0:0:0:0:
256,192,33652,1,2,0:0:0:0:
329,192,33823,1,8,0:0:0:0:
36,192,33823,1,0,0:0:0:0:
402,192,33823,1,0,0:0:0:0:
109,192,33995,1,0,0:0:0:0:
256,192,34166,1,2,0:0:0:0:
182,192,34338,1,0,0:0:0:0:
329,192,34509,1,0,0:0:0:0:
109,192,34509,1,8,0:0:0:0:
475,192,34509,1,0,0:0:0:0:
402,192,34681,1,0,0:0:0:0:
329,192,34852,1,0,0:0:0:0:
256,192,35023,1,2,0:0:0:0:
329,192,35195,1,0,0:0:0:0:
36,192,35195,1,0,0:0:0:0:
402,192,35195,1,8,0:0:0:0:
182,192,35366,1,0,0:0:0:0:
256,192,35538,1,2,0:0:0:0:
36,192,35709,1,0,0:0:0:0:
329,192,35881,1,0,0:0:0:0:
109,192,35881,1,8,0:0:0:0:
475,192,35881,1,0,0:0:0:0:
402,192,36052,1,0,0:0:0:0:
182,192,36223,1,0,0:0:0:0:
329,192,36395,1,2,0:0:0:0:
182,192,36566,1,0,0:0:0:0:
475,192,36566,1,0,0:0:0:0:
36,192,36566,1,8,0:0:0:0:
402,192,36738,1,0,0:0:0:0:
256,192,36909,1,6,0:0:0:0:
109,192,36909,1,0,0:0:0:0:
475,192,36909,1,0,0:0:0:0:
329,192,37081,1,0,0:0:0:0:
402,192,37252,1,0,0:0:0:0:
182,192,37252,1,8,0:0:0:0:
36,192,37252,1,0,0:0:0:0:
475,192,37423,1,0,0:0:0:0:
402,192,37595,1,0,0:0:0:0:
256,192,37766,1,2,0:0:0:0:
109,192,37938,1,8,0:0:0:0:
329,192,37938,1,0,0:0:0:0:
36,192,37938,1,0,0:0:0:0:
182,192,38109,1,0,0:0:0:0:
475,192,38281,1,2,0:0:0:0:
256,192,38452,1,0,0:0:0:0:
329,192,38623,1,0,0:0:0:0:
109,192,38623,1,0,0:0:0:0:
182,192,38623,1,8,0:0:0:0:
402,192,38795,1,0,0:0:0:0:
256,192,38966,1,0,0:0:0:0:
329,192,39138,1,2,0:0:0:0:
109,192,39309,1,0,0:0:0:0:
256,192,39309,1,0,0:0:0:0:
182,192,39309,1,8,0:0:0:0:
36,192,39481,1,0,0:0:0:0:
256,192,39652,1,2,0:0:0:0:
182,192,39652,1,0,0:0:0:0:
402,192,39823,1,0,0:0:0:0:
256,192,39995,1,2,0:0:0:0:
475,192,39995,1,0,0:0:0:0:
182,192,40166,1,0,0:0:0:0:
36,192,40338,1,0,0:0:0:0:
109,192,40338,1,2,0:0:0:0:
256,192,40509,1,0,0:0:0:0:
402,192,40681,1,2,0:0:0:0:
475,192,40681,1,0,0:0:0:0:
256,192,40852,1,2,0:0:0:0:
182,192,40938,1,2,0:0:0:0:
109,192,41023,1,2,0:0:0:0:
36,192,41023,1,0,0:0:0:0:
475,192,41195,1,0,0:0:0:0:
402,192,41195,1,2,0:0:0:0:
182,192,41366,1,2,0:0:0:0:
36,192,41366,1,0,0:0:0:0:
402,192,41538,1,2,0:0:0:0:
475,192,41538,1,0,0:0:0:0:
182,192,41709,1,2,0:0:0:0:
109,192,41709,1,0,0:0:0:0:
329,192,41795,1,2,0:0:0:0:
402,192,41795,1,0,0:0:0:0:
182,192,41881,1,2,0:0:0:0:
109,192,41881,1,0,0:0:0:0:
182,192,42052,1,0,0:0:0:0:
329,192,42052,1,8,0:0:0:0:
475,192,42052,1,0,0:0:0:0:
36,192,42052,1,0,0:0:0:0:
329,192,42395,1,2,0:0:0:0:
182,192,42395,1,0,0:0:0:0:
109,192,42566,1,0,0:0:0:0:
475,192,42738,1,0,0:0:0:0:
256,192,42738,1,0,0:0:0:100:low clap.wav
36,192,42738,1,0,0:0:0:0:
402,192,42909,1,0,0:0:0:0:
109,192,42995,1,0,0:0:0:0:
402,192,43081,1,0,0:0:0:0:
109,192,43166,1,0,0:0:0:0:
329,192,43252,1,2,0:0:0:0:
256,192,43252,1,0,0:0:0:0:
475,192,43423,1,0,0:0:0:100:low clap.wav
36,192,43423,1,0,0:0:0:0:
402,192,43595,1,0,0:0:0:0:
256,192,43766,1,0,0:0:0:0:
329,192,43766,1,2,0:0:0:0:
182,192,43938,1,0,0:0:0:0:
109,192,44109,1,0,0:0:0:100:low clap.wav
475,192,44109,1,0,0:0:0:0:
36,192,44109,1,0,0:0:0:0:
402,192,44281,1,0,0:0:0:0:
256,192,44366,1,0,0:0:0:0:
475,192,44452,1,0,0:0:0:0:
329,192,44538,1,0,0:0:0:0:
182,192,44623,1,2,0:0:0:0:
109,192,44623,1,0,0:0:0:0:
475,192,44795,1,0,0:0:0:100:low clap.wav
36,192,44795,1,0,0:0:0:0:
402,192,44966,1,0,0:0:0:0:
256,192,45138,1,2,0:0:0:0:
182,192,45138,1,0,0:0:0:0:
36,192,45309,1,0,0:0:0:0:
329,192,45481,1,0,0:0:0:100:low clap.wav
109,192,45481,1,0,0:0:0:0:
475,192,45481,1,0,0:0:0:0:
182,192,45652,1,0,0:0:0:0:
329,192,45738,1,0,0:0:0:0:
256,192,45823,1,0,0:0:0:0:
402,192,45909,1,0,0:0:0:0:
109,192,45995,1,2,0:0:0:0:
36,192,45995,1,0,0:0:0:0:
475,192,46166,1,0,0:0:0:0:
329,192,46166,1,0,0:0:0:100:low clap.wav
256,192,46338,1,0,0:0:0:0:
182,192,46509,1,2,0:0:0:0:
402,192,46509,1,0,0:0:0:0:
256,192,46681,1,0,0:0:0:0:
329,192,46852,1,0,0:0:0:0:
109,192,46852,1,0,0:0:0:100:low clap.wav
36,192,46852,1,0,0:0:0:0:
182,192,47023,1,0,0:0:0:0:
329,192,47109,1,0,0:0:0:0:
182,192,47195,1,0,0:0:0:0:
329,192,47281,1,0,0:0:0:0:
182,192,47366,1,0,0:0:0:0:
402,192,47366,1,2,0:0:0:0:
475,192,47538,1,0,0:0:0:100:low clap.wav
36,192,47538,1,0,0:0:0:0:
109,192,47709,1,0,0:0:0:0:
256,192,47881,1,2,0:0:0:0:
329,192,47881,1,0,0:0:0:0:
402,192,48052,1,0,0:0:0:0:
109,192,48223,1,0,0:0:0:0:
329,192,48223,1,0,0:0:0:100:low clap.wav
475,192,48223,1,0,0:0:0:0:
182,192,48395,1,0,0:0:0:0:
402,192,48481,1,0,0:0:0:0:
36,192,48566,1,0,0:0:0:0:
256,192,48652,1,0,0:0:0:0:
182,192,48738,1,2,0:0:0:0:
475,192,48738,1,0,0:0:0:0:
329,192,48909,1,0,0:0:0:0:
36,192,48909,1,0,0:0:0:100:low clap.wav
402,192,49081,1,0,0:0:0:0:
256,192,49252,1,0,0:0:0:0:
475,192,49252,1,2,0:0:0:0:
182,192,49423,1,0,0:0:0:0:
329,192,49595,1,0,0:0:0:100:low clap.wav
36,192,49595,1,0,0:0:0:0:
402,192,49595,1,0,0:0:0:0:
109,192,49766,1,0,0:0:0:0:
329,192,49852,1,0,0:0:0:0:
182,192,49938,1,0,0:0:0:0:
475,192,50023,1,0,0:0:0:0:
256,192,50109,1,2,0:0:0:0:
109,192,50109,1,0,0:0:0:0:
475,192,50281,1,0,0:0:0:0:
36,192,50281,1,0,0:0:0:100:low clap.wav
182,192,50452,1,0,0:0:0:0:
256,192,50623,1,0,0:0:0:0:
329,192,50623,1,2,0:0:0:0:
475,192,50623,1,0,0:0:0:0:
182,192,50795,1,0,0:0:0:0:
256,192,50881,1,0,0:0:0:0:
109,192,50966,1,2,0:0:0:0:
36,192,50966,1,0,0:0:0:0:
402,192,50966,1,0,0:0:0:0:
256,192,51138,1,0,0:0:0:0:
329,192,51223,1,0,0:0:0:0:
109,192,51309,1,0,0:0:0:0:
475,192,51309,1,0,0:0:0:0:
402,192,51309,1,2,0:0:0:0:
182,192,51395,1,0,0:0:0:0:
329,192,51481,1,0,0:0:0:0:
256,192,51566,1,0,0:0:0:0:
109,192,51652,1,2,0:0:0:0:
36,192,51652,1,0,0:0:0:0:
256,192,51823,1,0,0:0:0:0:
402,192,51995,1,2,0:0:0:0:
475,192,51995,1,0,0:0:0:0:
109,192,52166,1,2,0:0:0:0:
36,192,52166,1,0,0:0:0:0:
402,192,52338,1,2,0:0:0:0:
475,192,52338,1,0,0:0:0:0:
36,192,52509,1,0,0:0:0:0:
109,192,52509,1,2,0:0:0:0:
402,192,52681,1,2,0:0:0:0:
475,192,52681,1,0,0:0:0:0:
182,192,52852,1,0,0:0:0:0:
329,192,52852,1,2,0:0:0:0:
475,192,53023,1,0,0:0:0:0:
256,192,53023,1,8,0:0:0:0:
36,192,53023,1,0,0:0:0:0:
402,192,53195,1,0,0:0:0:0:
329,192,53281,1,0,0:0:0:0:
256,192,53366,1,2,0:0:0:0:
475,192,53538,1,0,0:0:0:0:
329,192,53709,1,8,0:0:0:0:
109,192,53709,1,0,0:0:0:0:
256,192,53709,1,0,0:0:0:0:
475,192,53881,1,0,0:0:0:0:
36,192,53966,1,0,0:0:0:0:
402,192,54052,1,0,0:0:0:0:
109,192,54138,1,0,0:0:0:0:
329,192,54223,1,2,0:0:0:0:
475,192,54395,1,0,0:0:0:0:
182,192,54395,1,8,0:0:0:0:
36,192,54395,1,0,0:0:0:0:
402,192,54566,1,0,0:0:0:0:
256,192,54738,1,2,0:0:0:0:
475,192,54909,1,0,0:0:0:0:
36,192,55081,1,0,0:0:0:0:
256,192,55081,1,0,0:0:0:0:
329,192,55081,1,8,0:0:0:0:
109,192,55252,1,0,0:0:0:0:
329,192,55338,1,0,0:0:0:0:
109,192,55423,1,0,0:0:0:0:
329,192,55509,1,0,0:0:0:0:
182,192,55595,1,2,0:0:0:0:
475,192,55766,1,0,0:0:0:0:
36,192,55766,1,0,0:0:0:0:
402,192,55766,1,8,0:0:0:0:
109,192,55938,128,0,56109:0:0:0:0:
256,192,56109,1,2,0:0:0:0:
475,192,56281,1,0,0:0:0:0:
329,192,56452,1,8,0:0:0:0:
109,192,56452,1,0,0:0:0:0:
256,192,56452,1,0,0:0:0:0:
182,192,56623,1,0,0:0:0:0:
475,192,56709,1,0,0:0:0:0:
329,192,56795,1,0,0:0:0:0:
109,192,56881,1,0,0:0:0:0:
256,192,56966,1,2,0:0:0:0:
329,192,57138,1,0,0:0:0:0:
109,192,57138,1,8,0:0:0:0:
36,192,57138,1,0,0:0:0:0:
475,192,57309,1,0,0:0:0:0:
256,192,57481,1,2,0:0:0:0:
182,192,57652,1,0,0:0:0:0:
329,192,57823,1,8,0:0:0:0:
109,192,57823,1,0,0:0:0:0:
475,192,57823,1,0,0:0:0:0:
182,192,57995,1,0,0:0:0:0:
402,192,58081,1,0,0:0:0:0:
256,192,58166,1,0,0:0:0:0:
475,192,58252,1,0,0:0:0:0:
329,192,58338,1,2,0:0:0:0:
36,192,58509,1,0,0:0:0:0:
475,192,58509,1,0,0:0:0:0:
182,192,58509,1,8,0:0:0:0:
402,192,58681,128,0,58852:0:0:0:0:
109,192,58681,1,0,0:0:0:0:
256,192,58852,1,2,0:0:0:0:
182,192,59023,1,0,0:0:0:0:
329,192,59195,1,8,0:0:0:0:
109,192,59195,1,0,0:0:0:0:
36,192,59195,1,0,0:0:0:0:
475,192,59366,1,0,0:0:0:0:
182,192,59452,1,0,0:0:0:0:
329,192,59538,1,0,0:0:0:0:
402,192,59623,1,0,0:0:0:0:
109,192,59709,1,2,0:0:0:0:
329,192,59881,1,8,0:0:0:0:
475,192,59881,1,0,0:0:0:0:
36,192,59881,1,0,0:0:0:0:
182,192,60052,1,0,0:0:0:0:
256,192,60223,1,2,0:0:0:0:
402,192,60395,1,0,0:0:0:0:
182,192,60566,1,8,0:0:0:0:
475,192,60566,1,0,0:0:0:0:
36,192,60566,1,0,0:0:0:0:
109,192,60738,1,0,0:0:0:0:
402,192,60823,1,0,0:0:0:0:
256,192,60909,1,0,0:0:0:0:
109,192,60995,1,0,0:0:0:0:
256,192,61081,1,2,0:0:0:0:
329,192,61252,1,0,0:0:0:0:
402,192,61252,1,8,0:0:0:0:
109,192,61252,1,0,0:0:0:0:
256,192,61423,1,0,0:0:0:0:
475,192,61595,1,0,0:0:0:0:
36,192,61595,1,2,0:0:0:0:
182,192,61766,1,0,0:0:0:0:
329,192,61938,1,8,0:0:0:0:
109,192,61938,1,0,0:0:0:0:
402,192,61938,1,0,0:0:0:0:
256,192,62109,1,0,0:0:0:0:
36,192,62195,1,0,0:0:0:0:
475,192,62281,1,0,0:0:0:0:
329,192,62366,1,0,0:0:0:0:
182,192,62452,1,2,0:0:0:0:
36,192,62623,1,0,0:0:0:0:
256,192,62623,1,8,0:0:0:0:
475,192,62623,1,0,0:0:0:0:
329,192,62795,1,0,0:0:0:0:
256,192,62966,1,2,0:0:0:0:
109,192,63223,1,8,0:0:0:0:
36,192,63223,1,0,0:0:0:0:
402,192,63223,1,0,0:0:0:0:
256,192,63481,1,2,0:0:0:0:
329,192,63652,1,0,0:0:0:0:
475,192,63652,1,8,0:0:0:0:
36,192,63652,1,0,0:0:0:0:
402,192,63823,1,2,0:0:0:0:
182,192,63995,1,8,0:0:0:0:
256,192,63995,1,0,0:0:0:0:
109,192,63995,1,0,0:0:0:0:
182,192,64338,1,2,0:0:0:0:
36,192,64338,1,0,0:0:0:0:
256,192,64509,1,2,0:0:0:0:
402,192,64509,1,0,0:0:0:0:
475,192,65023,1,0,0:0:0:0:
256,192,65023,1,8,0:0:0:0:
36,192,65023,1,0,0:0:0:0:
402,192,65195,128,0,65281:0:0:0:100:ngehe.wav
402,192,65366,128,0,65452:0:0:0:100:ngehe.wav
402,192,65538,128,0,65623:0:0:0:100:ngehe.wav
182,192,65709,1,2,0:0:0:0:
109,192,65709,1,0,0:0:0:0:
329,192,65881,1,0,0:0:0:0:
256,192,65881,1,2,0:0:0:0:
475,192,66395,1,0,0:0:0:0:
256,192,66395,1,8,0:0:0:0:
36,192,66395,1,0,0:0:0:0:
256,192,66566,1,2,0:0:0:0:
256,192,66738,128,0,67081:0:0:0:0:
329,192,67081,1,0,0:0:0:0:
182,192,67081,1,2,0:0:0:0:
475,192,67252,1,0,0:0:0:0:
36,192,67252,1,2,0:0:0:0:
475,192,67766,1,0,0:0:0:0:
256,192,67766,1,8,0:0:0:0:
36,192,67766,1,0,0:0:0:0:
109,192,67938,128,0,68023:0:0:0:100:ngehe.wav
109,192,68109,128,0,68195:0:0:0:100:ngehe.wav
109,192,68281,128,0,68366:0:0:0:100:ngehe.wav
182,192,68366,1,2,0:0:0:0:
329,192,68452,1,2,0:0:0:0:
402,192,68708,1,2,0:0:0:0:
109,192,68708,1,0,0:0:0:0:
36,192,68966,1,2,0:0:0:0:
402,192,69138,1,0,0:0:0:0:
109,192,69138,1,0,0:0:0:0:
256,192,69138,1,8,0:0:0:0:
182,192,69395,1,2,0:0:0:0:
256,192,69652,1,2,0:0:0:0:
36,192,69823,1,0,0:0:0:0:
475,192,69823,1,0,0:0:0:0:
329,192,69823,1,2,0:0:0:0:
402,192,69995,1,0,0:0:0:0:
36,192,70166,1,0,0:0:0:0:
256,192,70166,1,2,0:0:0:0:
182,192,70338,1,0,0:0:0:0:
402,192,70509,1,0,0:0:0:0:
329,192,70509,1,2,0:0:0:0:
475,192,70681,1,0,0:0:0:0:
182,192,70852,1,0,0:0:0:0:
256,192,70852,1,2,0:0:0:0:
36,192,71023,1,0,0:0:0:0:
402,192,71195,1,0,0:0:0:0:
109,192,71195,1,2,0:0:0:0:
256,192,71366,1,0,0:0:0:0:
182,192,71538,1,2,0:0:0:0:
402,192,71538,1,0,0:0:0:0:
329,192,71709,1,0,0:0:0:0:
36,192,71881,1,0,0:0:0:0:
475,192,71881,1,2,0:0:0:0:
182,192,72052,1,0,0:0:0:0:
109,192,72223,1,0,0:0:0:0:
329,192,72223,1,2,0:0:0:0:
402,192,72395,1,0,0:0:0:0:
475,192,72566,1,0,0:0:0:0:
256,192,72566,1,2,0:0:0:0:
109,192,72738,1,2,0:0:0:0:
36,192,72738,1,0,0:0:0:0:
329,192,72909,1,0,0:0:0:0:
402,192,72909,1,2,0:0:0:0:
182,192,73081,1,0,0:0:0:0:
109,192,73081,1,0,0:0:0:0:
329,192,73252,1,2,0:0:0:0:
475,192,73252,1,0,0:0:0:0:
256,192,73423,1,2,0:0:0:0:
182,192,73423,1,0,0:0:0:0:
402,192,73595,1,0,0:0:0:0:
36,192,73595,1,2,0:0:0:0:
109,192,73766,1,0,0:0:0:0:
182,192,73766,1,2,0:0:0:0:
329,192,73938,1,2,0:0:0:0:
475,192,73938,1,0,0:0:0:0:
182,192,74109,1,2,0:0:0:0:
36,192,74109,1,0,0:0:0:0:
402,192,74281,5,0,0:0:0:0:
329,192,74281,1,2,0:0:0:0:
36,192,74452,1,0,0:0:0:0:
109,192,74452,1,2,0:0:0:0:
475,192,74623,1,0,0:0:0:0:
256,192,74623,1,2,0:0:0:0:
182,192,74795,1,0,0:0:0:0:
329,192,74795,1,2,0:0:0:0:
402,192,74966,1,2,0:0:0:0:
475,192,74966,1,0,0:0:0:0:
109,192,75138,1,2,0:0:0:0:
36,192,75138,1,0,0:0:0:0:
329,192,75309,1,2,0:0:0:0:
182,192,75395,1,2,0:0:0:0:
402,192,75481,1,2,0:0:0:0:
36,192,75566,1,2,0:0:0:0:
475,192,75652,1,2,0:0:0:0:
109,192,75738,1,2,0:0:0:0:
256,192,75823,1,2,0:0:0:0:
402,192,75909,1,2,0:0:0:0:
36,192,75995,1,2,0:0:0:0:
329,192,76081,1,2,0:0:0:0:
182,192,76166,1,2,0:0:0:0:
475,192,76252,1,2,0:0:0:0:
36,192,76338,1,2,0:0:0:0:
182,192,76423,1,2,0:0:0:0:
329,192,76509,1,2,0:0:0:0:
182,192,76595,1,2,0:0:0:0:
475,192,76681,1,0,0:0:0:0:
36,192,76681,1,0,0:0:0:0:
256,192,76681,1,2,0:0:0:0:
475,192,77366,1,0,0:0:0:0:
36,192,77366,1,0,0:0:0:0:
109,192,77452,1,0,0:0:0:0:
182,192,77538,1,0,0:0:0:0:
256,192,77623,1,0,0:0:0:0:
329,192,77709,1,0,0:0:0:0:
475,192,77709,128,0,78052:0:0:0:0:
36,192,77709,1,0,0:0:0:0:
109,192,78052,1,2,0:0:0:0:
36,192,78052,128,0,78738:0:0:0:0:
329,192,78223,1,0,0:0:0:0:
182,192,78395,1,0,0:0:0:0:
475,192,78395,1,0,0:0:0:0:
402,192,78395,1,8,0:0:0:0:
329,192,78566,1,0,0:0:0:0:
182,192,78738,128,0,79423:0:0:0:0:
475,192,78738,1,0,0:0:0:0:
402,192,78909,1,2,0:0:0:0:
329,192,79081,1,8,0:0:0:0:
109,192,79081,1,0,0:0:0:0:
36,192,79081,1,0,0:0:0:0:
256,192,79252,1,0,0:0:0:0:
402,192,79423,1,2,0:0:0:0:
475,192,79423,128,0,80109:0:0:0:0:
182,192,79595,1,0,0:0:0:0:
329,192,79766,1,8,0:0:0:0:
256,192,79766,1,0,0:0:0:0:
36,192,79766,1,0,0:0:0:0:
109,192,79938,1,0,0:0:0:0:
36,192,80109,128,0,80795:0:0:0:0:
182,192,80109,1,0,0:0:0:0:
402,192,80281,1,2,0:0:0:0:
109,192,80452,1,8,0:0:0:0:
329,192,80452,1,0,0:0:0:0:
475,192,80452,1,0,0:0:0:0:
182,192,80623,1,0,0:0:0:0:
256,192,80795,1,2,0:0:0:0:
329,192,80795,128,0,81481:0:0:0:0:
182,192,80966,1,0,0:0:0:0:
109,192,81138,1,8,0:0:0:0:
402,192,81138,1,0,0:0:0:0:
36,192,81138,1,0,0:0:0:0:
256,192,81309,1,0,0:0:0:0:
182,192,81481,128,0,82166:0:0:0:0:
475,192,81481,1,0,0:0:0:0:
256,192,81652,1,2,0:0:0:0:
329,192,81823,1,8,0:0:0:0:
109,192,81823,1,0,0:0:0:0:
402,192,81823,1,0,0:0:0:0:
36,192,81995,1,0,0:0:0:0:
256,192,82166,1,2,0:0:0:0:
475,192,82166,128,0,82852:0:0:0:0:
329,192,82338,1,0,0:0:0:0:
109,192,82509,1,0,0:0:0:0:
256,192,82509,1,8,0:0:0:0:
402,192,82509,1,0,0:0:0:0:
182,192,82681,1,0,0:0:0:0:
402,192,82852,128,0,83538:0:0:0:0:
36,192,82852,128,0,83023:0:0:0:0:
182,192,83023,128,2,83195:0:0:0:0:
329,192,83195,128,8,83366:0:0:0:0:
109,192,83366,128,0,83538:0:0:0:0:
475,192,83538,1,6,0:0:0:0:
182,192,83538,128,0,84223:0:0:0:0:
256,192,83709,1,0,0:0:0:0:
109,192,83881,1,0,0:0:0:0:
329,192,83881,1,0,0:0:0:0:
402,192,83881,1,8,0:0:0:0:
256,192,84052,1,0,0:0:0:0:
36,192,84223,128,0,84909:0:0:0:0:
475,192,84223,1,0,0:0:0:0:
402,192,84395,1,2,0:0:0:0:
109,192,84566,1,0,0:0:0:0:
329,192,84566,1,8,0:0:0:0:
182,192,84566,1,0,0:0:0:0:
475,192,84738,1,0,0:0:0:0:
256,192,84909,1,2,0:0:0:0:
402,192,84909,128,0,85595:0:0:0:0:
182,192,85081,1,0,0:0:0:0:
329,192,85252,1,0,0:0:0:0:
109,192,85252,1,8,0:0:0:0:
36,192,85252,1,0,0:0:0:0:
475,192,85423,1,0,0:0:0:0:
256,192,85595,128,0,86281:0:0:0:0:
182,192,85595,1,0,0:0:0:0:
36,192,85766,1,2,0:0:0:0:
109,192,85938,1,0,0:0:0:0:
329,192,85938,1,0,0:0:0:0:
475,192,85938,1,8,0:0:0:0:
402,192,86109,1,0,0:0:0:0:
329,192,86281,128,0,86966:0:0:0:0:
182,192,86281,1,2,0:0:0:0:
36,192,86452,1,0,0:0:0:0:
109,192,86623,1,0,0:0:0:0:
256,192,86623,1,8,0:0:0:0:
475,192,86623,1,0,0:0:0:0:
182,192,86795,1,0,0:0:0:0:
475,192,86966,128,0,87652:0:0:0:0:
402,192,86966,1,0,0:0:0:0:
109,192,87138,1,2,0:0:0:0:
182,192,87309,1,8,0:0:0:0:
329,192,87309,1,0,0:0:0:0:
36,192,87309,1,0,0:0:0:0:
402,192,87481,1,0,0:0:0:0:
182,192,87652,128,0,88338:0:0:0:0:
256,192,87652,1,2,0:0:0:0:
329,192,87823,1,0,0:0:0:0:
402,192,87995,1,8,0:0:0:0:
475,192,87995,1,0,0:0:0:0:
109,192,87995,1,0,0:0:0:0:
256,192,88166,128,0,88338:0:0:0:0:
329,192,88338,128,0,88509:0:0:0:0:
36,192,88509,128,2,88681:0:0:0:0:
182,192,88681,128,8,88852:0:0:0:0:
329,192,88852,128,0,89023:0:0:0:0:
256,192,89023,1,6,0:0:0:0:
475,192,89023,128,0,89709:0:0:0:0:
182,192,89195,1,0,0:0:0:0:
329,192,89366,1,0,0:0:0:0:
109,192,89366,1,8,0:0:0:0:
36,192,89366,1,0,0:0:0:0:
402,192,89538,1,0,0:0:0:0:
182,192,89709,128,0,90395:0:0:0:0:
329,192,89709,1,0,0:0:0:0:
256,192,89881,1,2,0:0:0:0:
329,192,90052,1,8,0:0:0:0:
36,192,90052,1,0,0:0:0:0:
402,192,90052,1,0,0:0:0:0:
475,192,90223,1,0,0:0:0:0:
36,192,90395,128,0,91081:0:0:0:0:
109,192,90395,1,2,0:0:0:0:
402,192,90566,1,0,0:0:0:0:
329,192,90738,1,0,0:0:0:0:
109,192,90738,1,0,0:0:0:0:
182,192,90738,1,8,0:0:0:0:
256,192,90909,1,0,0:0:0:0:
402,192,91081,128,0,91766:0:0:0:0:
475,192,91081,1,0,0:0:0:0:
256,192,91252,1,2,0:0:0:0:
329,192,91423,1,0,0:0:0:0:
182,192,91423,1,8,0:0:0:0:
36,192,91423,1,0,0:0:0:0:
475,192,91595,1,0,0:0:0:0:
256,192,91766,1,2,0:0:0:0:
182,192,91766,128,0,92452:0:0:0:0:
402,192,91938,1,0,0:0:0:0:
329,192,92109,1,8,0:0:0:0:
109,192,92109,1,0,0:0:0:0:
475,192,92109,1,0,0:0:0:0:
256,192,92281,1,0,0:0:0:0:
475,192,92452,128,0,93138:0:0:0:0:
36,192,92452,1,0,0:0:0:0:
256,192,92623,1,2,0:0:0:0:
329,192,92795,1,0,0:0:0:0:
109,192,92795,1,8,0:0:0:0:
182,192,92795,1,0,0:0:0:0:
36,192,92966,1,0,0:0:0:0:
256,192,93138,1,2,0:0:0:0:
402,192,93138,128,0,93823:0:0:0:0:
36,192,93309,1,0,0:0:0:0:
109,192,93481,1,8,0:0:0:0:
329,192,93481,1,0,0:0:0:0:
475,192,93481,1,0,0:0:0:0:
256,192,93652,1,0,0:0:0:0:
36,192,93652,128,0,93823:0:0:0:0:
109,192,93823,128,0,93995:0:0:0:0:
256,192,93995,128,2,94166:0:0:0:0:
402,192,94166,128,8,94338:0:0:0:0:
36,192,94338,128,0,94509:0:0:0:0:
256,192,94509,1,6,0:0:0:0:
182,192,94509,128,0,95195:0:0:0:0:
402,192,94681,1,0,0:0:0:0:
109,192,94852,1,8,0:0:0:0:
329,192,94852,1,0,0:0:0:0:
256,192,94852,1,0,0:0:0:0:
36,192,95023,1,0,0:0:0:0:
36,192,95195,128,0,95881:0:0:0:0:
402,192,95195,1,0,0:0:0:0:
475,192,95366,1,2,0:0:0:0:
109,192,95538,1,0,0:0:0:0:
329,192,95538,1,8,0:0:0:0:
402,192,95538,1,0,0:0:0:0:
182,192,95709,1,0,0:0:0:0:
256,192,95881,1,2,0:0:0:0:
182,192,95881,128,0,96566:0:0:0:0:
402,192,96052,1,0,0:0:0:0:
109,192,96223,1,8,0:0:0:0:
329,192,96223,1,0,0:0:0:0:
36,192,96223,1,0,0:0:0:0:
475,192,96395,1,0,0:0:0:0:
256,192,96566,128,0,97252:0:0:0:0:
36,192,96566,1,0,0:0:0:0:
402,192,96738,1,2,0:0:0:0:
109,192,96909,1,0,0:0:0:0:
329,192,96909,1,8,0:0:0:0:
475,192,96909,1,0,0:0:0:0:
36,192,97081,1,0,0:0:0:0:
402,192,97252,128,0,97938:0:0:0:0:
182,192,97252,1,2,0:0:0:0:
256,192,97423,1,0,0:0:0:0:
109,192,97595,1,8,0:0:0:0:
329,192,97595,1,0,0:0:0:0:
36,192,97595,1,0,0:0:0:0:
182,192,97766,1,0,0:0:0:0:
36,192,97938,128,0,98623:0:0:0:0:
475,192,97938,1,0,0:0:0:0:
256,192,98109,1,2,0:0:0:0:
109,192,98281,1,0,0:0:0:0:
329,192,98281,1,8,0:0:0:0:
475,192,98281,1,0,0:0:0:0:
182,192,98452,1,0,0:0:0:0:
475,192,98623,128,0,99309:0:0:0:0:
402,192,98623,1,2,0:0:0:0:
329,192,98795,128,0,98966:0:0:0:0:
36,192,98966,128,8,99138:0:0:0:0:
256,192,99138,128,0,99309:0:0:0:0:
109,192,99309,128,0,99481:0:0:0:0:
402,192,99481,128,2,99652:0:0:0:0:
329,192,99652,128,8,99823:0:0:0:0:
182,192,99823,128,0,99995:0:0:0:0:
402,192,99995,1,0,0:0:0:0:
256,192,99995,128,2,100681:0:0:0:0:
329,192,100166,1,0,0:0:0:0:
329,192,100338,128,0,100381:0:0:0:0:
109,192,100338,1,8,0:0:0:0:
475,192,100509,1,0,0:0:0:0:
402,192,100681,1,0,0:0:0:0:
109,192,100681,128,0,101366:0:0:0:0:
329,192,100852,1,2,0:0:0:0:
36,192,101023,128,0,101066:0:0:0:0:
256,192,101023,1,8,0:0:0:0:
329,192,101195,1,0,0:0:0:0:
256,192,101366,1,2,0:0:0:0:
402,192,101366,128,0,102052:0:0:0:0:
182,192,101538,1,0,0:0:0:0:
475,192,101709,128,0,101752:0:0:0:0:
329,192,101709,1,8,0:0:0:0:
36,192,101881,1,0,0:0:0:0:
109,192,102052,1,0,0:0:0:0:
256,192,102052,128,0,102738:0:0:0:0:
329,192,102223,1,2,0:0:0:0:
475,192,102395,128,0,102438:0:0:0:0:
182,192,102395,1,8,0:0:0:0:
36,192,102566,1,0,0:0:0:0:
109,192,102738,1,0,0:0:0:0:
402,192,102738,1,2,0:0:0:0:
256,192,103081,1,2,0:0:0:0:
256,192,103423,1,2,0:0:0:0:
256,192,103766,1,2,0:0:0:0:
256,192,103938,1,2,0:0:0:0:
256,192,104281,1,2,0:0:0:0:
475,192,104452,1,0,0:0:0:0:
256,192,104452,1,8,0:0:0:0:
36,192,104452,1,0,0:0:0:0:
402,192,104795,1,0,0:0:0:0:
329,192,104881,1,0,0:0:0:0:
256,192,104966,1,0,0:0:0:0:
182,192,105052,1,0,0:0:0:0:
109,192,105138,1,4,0:0:0:0:
475,192,105138,1,0,0:0:0:0:
36,192,105138,1,0,0:0:0:0:
109,192,105481,1,0,0:0:0:0:
402,192,105481,1,0,0:0:0:100:low clap.wav
109,192,105823,1,0,0:0:0:0:
402,192,105823,1,0,0:0:0:100:low clap.wav
475,192,106166,1,0,0:0:0:0:
36,192,106166,1,0,0:0:0:100:low clap.wav
475,192,106509,1,0,0:0:0:0:
36,192,106509,1,0,0:0:0:100:low clap.wav
402,192,106852,1,0,0:0:0:0:
109,192,106852,1,0,0:0:0:0:
256,192,106852,1,0,0:0:0:100:low clap.wav
402,192,107023,1,0,0:0:0:0:
109,192,107023,1,0,0:0:0:0:
256,192,107023,1,0,0:0:0:100:low clap.wav
402,192,107195,1,0,0:0:0:0:
109,192,107195,1,0,0:0:0:0:
256,192,107195,1,0,0:0:0:100:low clap.wav
329,192,107366,1,0,0:0:0:0:
182,192,107366,1,0,0:0:0:100:low clap.wav
329,192,107538,1,0,0:0:0:100:low clap.wav
182,192,107538,1,0,0:0:0:0:
402,192,107709,1,0,0:0:0:0:
109,192,107709,1,2,0:0:0:0:
475,192,107881,1,0,0:0:0:0:
256,192,107881,1,8,0:0:0:0:
36,192,107881,1,0,0:0:0:0:
256,192,108223,1,2,0:0:0:0:
475,192,108223,128,0,108909:0:0:0:0:
36,192,108395,1,0,0:0:0:0:
329,192,108566,1,0,0:0:0:0:
109,192,108566,1,8,0:0:0:0:
402,192,108566,1,0,0:0:0:0:
256,192,108738,1,0,0:0:0:0:
182,192,108909,1,0,0:0:0:0:
36,192,108909,128,0,109595:0:0:0:0:
329,192,109081,1,2,0:0:0:0:
402,192,109252,1,8,0:0:0:0:
475,192,109252,1,0,0:0:0:0:
109,192,109252,1,0,0:0:0:0:
256,192,109423,1,0,0:0:0:0:
109,192,109595,1,2,0:0:0:0:
182,192,109595,128,0,110281:0:0:0:0:
402,192,109766,1,0,0:0:0:0:
329,192,109938,1,0,0:0:0:0:
36,192,109938,1,8,0:0:0:0:
475,192,109938,1,0,0:0:0:0:
109,192,110109,1,0,0:0:0:0:
256,192,110281,128,0,110966:0:0:0:0:
402,192,110281,1,0,0:0:0:0:
36,192,110452,1,2,0:0:0:0:
329,192,110623,1,8,0:0:0:0:
475,192,110623,1,0,0:0:0:0:
109,192,110623,1,0,0:0:0:0:
182,192,110795,1,0,0:0:0:0:
402,192,110966,128,0,111652:0:0:0:0:
329,192,110966,1,2,0:0:0:0:
182,192,111138,1,0,0:0:0:0:
109,192,111309,1,8,0:0:0:0:
475,192,111309,1,0,0:0:0:0:
36,192,111309,1,0,0:0:0:0:
256,192,111481,1,0,0:0:0:0:
182,192,111652,128,0,112338:0:0:0:0:
475,192,111652,1,0,0:0:0:0:
36,192,111823,1,2,0:0:0:0:
329,192,111995,1,8,0:0:0:0:
475,192,111995,1,0,0:0:0:0:
109,192,111995,1,0,0:0:0:0:
256,192,112166,1,0,0:0:0:0:
329,192,112338,128,0,113023:0:0:0:0:
402,192,112338,1,2,0:0:0:0:
36,192,112509,1,0,0:0:0:0:
475,192,112681,1,0,0:0:0:0:
256,192,112681,1,8,0:0:0:0:
182,192,112681,1,0,0:0:0:0:
109,192,112852,1,0,0:0:0:0:
256,192,113023,128,0,113709:0:0:0:0:
36,192,113023,1,0,0:0:0:0:
475,192,113195,1,2,0:0:0:0:
182,192,113366,1,8,0:0:0:0:
36,192,113366,1,0,0:0:0:0:
402,192,113366,1,0,0:0:0:0:
329,192,113538,1,0,0:0:0:0:
475,192,113709,128,4,114395:0:0:0:0:
402,192,113709,1,2,0:0:0:0:
109,192,113881,1,0,0:0:0:0:
329,192,114052,1,8,0:0:0:0:
36,192,114052,1,0,0:0:0:0:
182,192,114052,1,0,0:0:0:0:
256,192,114223,1,0,0:0:0:0:
109,192,114395,128,0,115081:0:0:0:0:
36,192,114395,1,0,0:0:0:0:
256,192,114566,1,2,0:0:0:0:
329,192,114738,1,8,0:0:0:0:
475,192,114738,1,0,0:0:0:0:
182,192,114738,1,0,0:0:0:0:
402,192,114909,1,0,0:0:0:0:
256,192,115081,1,2,0:0:0:0:
182,192,115081,128,0,115766:0:0:0:0:
475,192,115252,1,0,0:0:0:0:
329,192,115423,1,8,0:0:0:0:
36,192,115423,1,0,0:0:0:0:
402,192,115423,1,0,0:0:0:0:
256,192,115595,1,0,0:0:0:0:
36,192,115766,128,0,116452:0:0:0:0:
475,192,115766,1,0,0:0:0:0:
256,192,115938,1,2,0:0:0:0:
329,192,116109,1,8,0:0:0:0:
109,192,116109,1,0,0:0:0:0:
475,192,116109,1,0,0:0:0:0:
182,192,116281,1,0,0:0:0:0:
256,192,116452,1,2,0:0:0:0:
402,192,116452,128,0,117138:0:0:0:0:
109,192,116623,1,0,0:0:0:0:
36,192,116795,1,8,0:0:0:0:
475,192,116795,1,0,0:0:0:0:
329,192,116795,1,0,0:0:0:0:
256,192,116966,1,0,0:0:0:0:
182,192,117138,128,0,117823:0:0:0:0:
36,192,117138,1,0,0:0:0:0:
329,192,117309,1,2,0:0:0:0:
109,192,117481,1,0,0:0:0:0:
475,192,117481,1,8,0:0:0:0:
256,192,117481,1,0,0:0:0:0:
36,192,117652,1,0,0:0:0:0:
256,192,117823,128,0,118509:0:0:0:0:
402,192,117823,1,2,0:0:0:0:
475,192,117995,1,0,0:0:0:0:
109,192,118166,1,8,0:0:0:0:
329,192,118166,1,0,0:0:0:0:
36,192,118166,1,0,0:0:0:0:
402,192,118338,1,0,0:0:0:0:
329,192,118509,128,0,119195:0:0:0:0:
109,192,118509,1,0,0:0:0:0:
256,192,118681,1,2,0:0:0:0:
475,192,118852,1,0,0:0:0:0:
182,192,118852,1,0,0:0:0:0:
109,192,118852,1,8,0:0:0:0:
36,192,119023,1,0,0:0:0:0:
256,192,119195,1,6,0:0:0:0:
109,192,119195,128,0,119881:0:0:0:0:
475,192,119366,1,0,0:0:0:0:
256,192,119538,1,8,0:0:0:0:
36,192,119538,1,0,0:0:0:0:
402,192,119538,1,0,0:0:0:0:
182,192,119709,1,0,0:0:0:0:
475,192,119881,128,0,120566:0:0:0:0:
402,192,119881,1,0,0:0:0:0:
256,192,120052,1,2,0:0:0:0:
109,192,120223,1,0,0:0:0:0:
402,192,120223,1,8,0:0:0:0:
182,192,120223,1,0,0:0:0:0:
329,192,120395,1,0,0:0:0:0:
256,192,120566,1,2,0:0:0:0:
36,192,120566,128,0,121252:0:0:0:0:
402,192,120738,1,0,0:0:0:0:
109,192,120909,1,8,0:0:0:0:
475,192,120909,1,0,0:0:0:0:
182,192,120909,1,0,0:0:0:0:
329,192,121081,1,0,0:0:0:0:
256,192,121252,128,0,121938:0:0:0:0:
475,192,121252,1,0,0:0:0:0:
182,192,121423,1,2,0:0:0:0:
329,192,121595,1,8,0:0:0:0:
475,192,121595,1,0,0:0:0:0:
36,192,121595,1,0,0:0:0:0:
109,192,121766,1,0,0:0:0:0:
182,192,121938,128,2,122623:0:0:0:0:
402,192,121938,1,4,0:0:0:0:
109,192,122109,1,0,0:0:0:0:
329,192,122281,1,8,0:0:0:0:
36,192,122281,1,0,0:0:0:0:
475,192,122281,1,0,0:0:0:0:
256,192,122452,1,0,0:0:0:0:
402,192,122623,128,0,123309:0:0:0:0:
475,192,122623,1,0,0:0:0:0:
256,192,122795,1,2,0:0:0:0:
329,192,122966,1,0,0:0:0:0:
109,192,122966,1,8,0:0:0:0:
182,192,122966,1,0,0:0:0:0:
475,192,123138,1,0,0:0:0:0:
256,192,123309,1,2,0:0:0:0:
329,192,123309,128,0,123995:0:0:0:0:
182,192,123481,1,0,0:0:0:0:
36,192,123652,1,0,0:0:0:0:
256,192,123652,1,8,0:0:0:0:
475,192,123652,1,0,0:0:0:0:
402,192,123823,1,0,0:0:0:0:
182,192,123995,128,0,124681:0:0:0:0:
109,192,123995,1,0,0:0:0:0:
475,192,124166,1,2,0:0:0:0:
256,192,124338,1,0,0:0:0:0:
402,192,124338,1,8,0:0:0:0:
329,192,124338,1,0,0:0:0:0:
36,192,124509,1,0,0:0:0:0:
256,192,124681,128,0,125366:0:0:0:0:
475,192,124681,1,2,0:0:0:0:
402,192,124852,1,0,0:0:0:0:
329,192,125023,1,0,0:0:0:0:
109,192,125023,1,8,0:0:0:0:
36,192,125023,1,0,0:0:0:0:
182,192,125195,1,0,0:0:0:0:
475,192,125366,128,0,126052:0:0:0:0:
402,192,125366,1,0,0:0:0:0:
256,192,125538,1,2,0:0:0:0:
329,192,125709,1,8,0:0:0:0:
109,192,125709,1,0,0:0:0:0:
402,192,125709,1,0,0:0:0:0:
182,192,125881,1,0,0:0:0:0:
256,192,126052,1,2,0:0:0:0:
36,192,126052,128,0,126738:0:0:0:0:
402,192,126223,1,0,0:0:0:0:
109,192,126395,1,8,0:0:0:0:
475,192,126395,1,0,0:0:0:0:
256,192,126395,1,0,0:0:0:0:
329,192,126566,1,0,0:0:0:0:
182,192,126738,128,0,127423:0:0:0:0:
109,192,126738,1,0,0:0:0:0:
475,192,126909,1,2,0:0:0:0:
329,192,127081,1,8,0:0:0:0:
109,192,127081,1,0,0:0:0:0:
36,192,127081,1,0,0:0:0:0:
402,192,127252,1,0,0:0:0:0:
256,192,127423,1,2,0:0:0:0:
475,192,127423,1,0,0:0:0:0:
182,192,127766,1,2,0:0:0:0:
109,192,127766,1,0,0:0:0:0:
475,192,128109,1,2,0:0:0:0:
329,192,128109,1,0,0:0:0:0:
182,192,128452,1,2,0:0:0:0:
36,192,128452,1,0,0:0:0:0:
329,192,128795,1,2,0:0:0:0:
256,192,128795,1,0,0:0:0:0:
475,192,128966,1,0,0:0:0:0:
402,192,128966,1,2,0:0:0:0:
36,192,129138,1,0,0:0:0:0:
182,192,129138,1,2,0:0:0:0:
402,192,129309,1,0,0:0:0:0:
329,192,129309,1,2,0:0:0:0:
36,192,129481,1,2,0:0:0:0:
475,192,129481,1,0,0:0:0:0:
402,192,129566,1,2,0:0:0:0:
109,192,129566,1,0,0:0:0:0:
256,192,129652,128,0,129823:0:0:0:0:
329,192,129823,1,0,0:0:0:0:
182,192,129823,1,8,0:0:0:0:
256,192,129995,1,2,0:0:0:0:
256,192,130166,128,6,131881:0:0:0:0:
