osu file format v14

[General]
AudioFilename: SHINING LINE tomatomerde.mp3
AudioLeadIn: 0
PreviewTime: 77032
Countdown: 0
SampleSet: Normal
StackLeniency: 0.7
Mode: 0
LetterboxInBreaks: 0
WidescreenStoryboard: 0

[Editor]
DistanceSpacing: 1.2
BeatDivisor: 2
GridSize: 4
TimelineZoom: 1.3

[Metadata]
Title:SHINING LINE*
TitleUnicode:SHINING LINE*
Artist:tomatomerde
ArtistUnicode:tomatomerde
Creator:Lanturn
Version:Easy
Source:アイカツ!
Tags:DNB Drum and Bass Aikatsu! Idol Activities Opening Katsudou STAR☆ANIS Aoi Ran Ichigo わか ふうり すなお Waka Fuuri Sunao samplefish pkhg guineaQ
BeatmapID:630933
BeatmapSetID:269175

[Difficulty]
HPDrainRate:2
CircleSize:3
OverallDifficulty:2
ApproachRate:3
SliderMultiplier:0.699999999999999
SliderTickRate:1

[Events]
//Background and Video events
0,0,"TomatoAikatsu.jpg",0,0
//Break Periods
//Storyboard Layer 0 (Background)
//Storyboard Layer 1 (Fail)
//Storyboard Layer 2 (Pass)
//Storyboard Layer 3 (Foreground)
//Storyboard Sound Samples

[TimingPoints]
8016,387.096774193548,4,1,1,30,1,0
8983,387.096774193548,4,1,1,30,1,0
12116,387.096774193548,4,1,1,40,1,0
13083,387.096774193548,4,1,1,50,1,0
19090,342.857142857143,4,1,1,70,1,0
20461,342.857142857143,4,1,1,70,1,0
42403,-100,4,1,1,60,0,0
64346,-100,4,1,1,70,0,0
78061,-100,4,1,1,80,0,1
100003,-100,4,1,1,70,0,1
105489,-100,4,1,1,70,0,0
131889,-100,4,1,1,5,0,0

[Colours]
Combo1 : 255,255,15
Combo2 : 174,40,17
Combo3 : 0,92,206

[HitObjects]
256,56,8015,6,0,B|308:136|236:144|284:232,1,175,2|2,0:0|0:0,0:0:0:0:
440,272,9757,2,0,P|432:332|400:372,1,105,2|2,0:0|0:0,0:0:0:0:
324,356,10724,1,2,0:0:0:0:
256,56,12116,6,0,B|204:136|276:144|228:232,1,175,2|2,0:0|0:0,0:0:0:0:
72,272,13858,2,0,P|80:332|112:372,1,105,2|2,0:0|0:0,0:0:0:0:
188,356,14825,1,2,0:0:0:0:
284,276,15405,6,0,P|300:216|292:172,1,105,2|2,0:0|0:0,0:0:0:0:
259,52,16566,2,0,P|345:58|407:118,1,175
432,248,19090,6,0,B|412:256|400:276|400:276|364:272|344:296|344:296|312:296|294:317|294:317|264:308|240:324,1,210,8|8,2:0|0:0,0:0:0:0:
168,344,20461,5,12,2:0:0:0:
112,280,20803,2,0,B|104:232|104:232|120:184|120:184|112:136,1,140,8|8,0:0|0:0,0:0:0:0:
164,76,21832,2,0,L|240:48,1,69.9999999999999,8|8,2:0|0:0,0:0:0:0:
288,112,22518,2,0,L|364:112,1,69.9999999999999,2|10,0:0|0:0,0:0:0:0:
432,148,23203,6,0,P|436:88|411:48,2,105,8|2|8,2:0|0:0|0:0,0:0:0:0:
408,228,24575,1,8,2:0:0:0:
364,300,24918,1,8,0:0:0:0:
288,268,25261,2,0,L|212:268,1,69.9999999999999,2|10,0:0|0:0,0:0:0:0:
136,248,25946,6,0,B|107:167|107:167|128:144|128:104,1,140,12|0,2:0|0:0,0:0:0:0:
44,112,26975,1,8,0:0:0:0:
92,44,27318,2,0,B|121:30|163:28|201:56|211:94|209:121|209:121|240:160,1,210,8|10,2:0|0:0,0:0:0:0:
292,216,28689,6,0,B|340:248|376:228|376:228|412:160,1,140,8|0,2:0|0:0,0:0:0:0:
412,100,29718,1,8,0:0:0:0:
348,44,30061,2,0,P|312:36|276:44,1,69.9999999999999,8|8,2:0|0:0,0:0:0:0:
220,100,30746,2,0,P|180:108|132:100,1,69.9999999999999,2|10,0:0|0:0,0:0:0:0:
68,88,31432,6,0,B|40:152|40:152|40:232,1,140,12|0,2:0|0:0,0:0:0:0:
100,280,32461,1,8,0:0:0:0:
184,272,32803,2,0,P|215:286|249:316,1,69.9999999999999,8|8,2:0|0:0,0:0:0:0:
312,356,33489,2,0,P|348:356|388:348,1,69.9999999999999,2|10,0:0|0:0,0:0:0:0:
452,304,34175,6,0,P|477:254|462:195,2,105,8|2|8,2:0|0:0|0:0,0:0:0:0:
396,244,35546,2,0,B|344:180|344:180|396:120|356:56,1,210,8|10,2:0|0:0,0:0:0:0:
280,36,36918,5,12,2:0:0:0:
204,68,37261,2,0,B|144:92|144:92|80:148,1,140,8|8,0:0|0:0,0:0:0:0:
20,192,38289,1,8,2:0:0:0:
87,242,38632,2,0,B|144:292|144:292|204:316,1,140,8|8,0:0|0:0,0:0:0:0:
276,272,39661,6,0,L|360:288,1,69.9999999999999,10|8,2:0|2:0,0:0:0:0:
368,204,40346,2,0,L|444:240,1,69.9999999999999,8|8,2:0|2:0,0:0:0:0:
496,180,41032,2,0,B|496:120|496:120|468:80|432:72,1,140,8|10,2:0|2:0,0:0:0:0:
356,44,42061,1,8,0:0:0:0:
280,80,42403,6,0,P|208:104|112:76,1,175,12|10,2:0|2:0,0:0:0:0:
40,180,43775,2,0,B|72:244|72:244|128:248|168:288,1,175,8|10,2:0|2:0,0:0:0:0:
268,216,45146,6,0,B|296:120|296:120|328:152|388:152,1,175,8|10,2:0|2:0,0:0:0:0:
480,100,46518,2,0,B|505:161|474:214|474:214|440:268,1,175,8|10,2:0|2:0,0:0:0:0:
328,312,47889,6,0,B|244:272|244:348|160:308,1,175,12|10,2:0|2:0,0:0:0:0:
116,192,49261,2,0,B|136:152|128:104|128:104|184:104|212:56,1,175,8|10,2:0|2:0,0:0:0:0:
324,44,50632,6,0,L|372:112,1,69.9999999999999,8|8,2:0|2:0,0:0:0:0:
424,160,51318,2,0,L|424:236,1,69.9999999999999,8|8,2:0|2:0,0:0:0:0:
364,288,52003,2,0,P|264:316|200:240,1,210,8|10,2:0|0:0,0:0:0:0:
176,164,53375,5,12,2:0:0:0:
92,144,53718,2,0,B|52:172|52:172|72:224|48:272,1,140,8|8,0:0|0:0,0:0:0:0:
82,339,54746,1,8,2:0:0:0:
160,308,55089,2,0,P|226:289|292:309,1,140,8|8,0:0|0:0,0:0:0:0:
352,248,56118,6,0,P|336:192|363:139,2,105,8|2|8,2:0|0:0|0:0,0:0:0:0:
420,200,57489,2,0,B|452:144|413:92|413:92|432:48|432:48|408:4,1,210,8|10,2:0|0:0,0:0:0:0:
336,52,58861,6,0,P|308:112|220:120,1,140,12|0,2:0|0:0,0:0:0:0:
160,100,59889,1,10,0:0:0:0:
84,132,60232,2,0,B|60:160|60:160|40:224,1,69.9999999999999,8|8,2:0|0:0,0:0:0:0:
92,264,60918,2,0,B|128:272|128:272|156:304,1,69.9999999999999,0|8,0:0|0:0,0:0:0:0:
216,348,61603,6,0,L|344:348,2,105,0|2|8,0:0|0:0|0:0,0:0:0:0:
236,264,62975,2,0,L|364:264,2,105,8|10|10,2:0|2:0|0:0,0:0:0:0:
216,184,64346,6,0,B|216:100|272:132|278:66|278:66|312:44,1,175,8|2,2:0|0:0,0:0:0:0:
432,48,65718,2,0,B|488:76|478:147,2,105,10|2|0,2:0|0:0|0:0,0:0:0:0:
396,124,67089,6,0,B|369:188|369:188|376:224|376:224|351:246|351:246|351:288,1,175,8|2,2:0|0:0,0:0:0:0:
224,276,68461,2,0,L|176:180,2,105,10|8|0,2:0|2:0|0:0,0:0:0:0:
176,344,69832,5,4,0:0:0:0:
108,292,70175,1,10,2:0:0:0:
76,216,70518,1,8,2:0:0:0:
84,132,70861,1,8,2:0:0:0:
136,68,71203,2,0,P|184:52|236:68,2,105,10|2|8,2:0|0:0|2:0,0:0:0:0:
186,135,72575,6,0,L|186:216,1,69.9999999999999,10|10,2:0|2:0,0:0:0:0:
256,252,73261,2,0,L|288:172,1,69.9999999999999,10|10,2:0|2:0,0:0:0:0:
364,168,73946,2,0,L|364:256,1,69.9999999999999,10|10,2:0|2:0,0:0:0:0:
432,292,74632,2,0,L|460:224,1,69.9999999999999,10|10,2:0|2:0,0:0:0:0:
256,192,75146,12,4,76689,0:0:0:0:
312,164,78061,6,0,P|312:204|292:244,1,69.9999999999999,12|8,2:0|0:0,0:0:0:0:
236,284,78746,2,0,L|288:336,1,69.9999999999999,2|8,0:0|0:0,0:0:0:0:
368,356,79432,2,0,P|440:328|464:252,1,140,8|2,2:0|0:0,0:0:0:0:
436,196,80461,1,8,0:0:0:0:
368,148,80803,6,0,B|268:104|268:212|136:132,1,210,8|8,2:0|0:0,0:0:0:0:
88,112,82175,2,0,P|68:140|68:192,1,69.9999999999999,8|8,2:0|0:0,0:0:0:0:
84,256,82861,1,0,0:0:0:0:
144,316,83203,1,8,0:0:0:0:
212,264,83546,6,0,B|244:192|184:192|216:124,1,140,12|2,2:0|0:0,0:0:0:0:
260,56,84575,1,8,0:0:0:0:
344,68,84918,2,0,L|408:100,1,69.9999999999999,8|8,2:0|0:0,0:0:0:0:
364,172,85603,2,0,L|412:248,1,69.9999999999999,2|8,0:0|0:0,0:0:0:0:
356,304,86289,5,8,2:0:0:0:
276,272,86632,2,0,P|212:252|144:276,1,140,8|8,0:0|0:0,0:0:0:0:
76,324,87661,2,0,P|32:224|64:128,1,210,8|8,2:0|0:0,0:0:0:0:
120,72,89032,6,0,B|188:56|188:56|260:72,1,140,12|2,2:0|0:0,0:0:0:0:
316,128,90061,1,8,0:0:0:0:
372,64,90403,2,0,L|460:64,1,69.9999999999999,8|8,0:2|0:0,0:0:0:0:
500,128,91089,1,2,0:0:0:0:
444,192,91432,1,8,0:0:0:0:
432,276,91775,6,0,P|432:312|404:356,1,69.9999999999999,8|10,2:0|0:0,0:0:0:0:
352,292,92461,2,0,L|272:272,1,69.9999999999999,0|8,0:0|0:0,0:0:0:0:
220,220,93146,2,0,B|188:160|240:144|192:88|192:88|120:124,1,210,8|8,2:0|0:0,0:0:0:0:
68,180,94518,6,0,B|52:232|72:276|72:276|52:336,1,140,12|2,2:0|0:0,0:0:0:0:
128,360,95546,1,8,0:0:0:0:
204,328,95889,2,0,P|268:304|336:328,1,140,8|2,2:0|0:0,0:0:0:0:
404,372,96918,1,8,0:0:0:0:
472,320,97261,6,0,L|472:244,1,69.9999999999999,8|10,2:0|0:0,0:0:0:0:
400,208,97946,2,0,L|400:120,1,69.9999999999999,2|8,0:0|0:0,0:0:0:0:
336,84,98632,2,0,P|220:60|120:92,1,210,8|8,2:0|0:0,0:0:0:0:
104,164,100003,6,0,L|180:196,1,69.9999999999999,12|8,2:0|0:0,0:0:0:0:
252,168,100689,2,0,L|328:168,1,69.9999999999999,2|8,0:0|0:0,0:0:0:0:
376,232,101375,2,0,L|376:308,1,69.9999999999999,8|8,2:0|0:0,0:0:0:0:
292,320,102061,2,0,L|292:244,1,69.9999999999999,2|8,0:0|0:0,0:0:0:0:
208,248,102746,6,0,P|156:268|92:248,1,105,10|2,2:0|0:0,0:0:0:0:
36,108,103946,2,0,L|132:48,1,105,12|8,2:0|0:0,0:0:0:0:
376,56,105489,6,0,P|384:96|376:132,1,69.9999999999999,8|8,0:0|0:0,0:0:0:0:
312,176,106175,2,0,P|304:224|312:256,1,69.9999999999999,8|8,0:0|0:0,0:0:0:0:
248,304,106861,2,0,B|184:296|151:335|151:335|140:280|80:264,1,210,8|8,0:0|0:0,0:0:0:0:
28,200,108232,6,0,B|28:132|28:132|80:80,1,140,12|0,2:0|0:0,0:0:0:0:
138,21,109261,1,8,0:0:0:0:
200,80,109603,2,0,L|275:80,1,69.9999999999999,0|8,0:0|0:0,0:0:0:0:
340,124,110289,2,0,P|344:172|328:212,1,69.9999999999999,2|10,0:0|0:0,0:0:0:0:
264,232,110975,6,0,P|211:212|161:231,2,105,8|2|8,2:0|0:0|0:0,0:0:0:0:
212,300,112346,2,0,P|135:349|40:296,1,210,8|10,2:0|0:0,0:0:0:0:
88,228,113718,6,0,L|28:88,1,140,12|0,2:0|0:0,0:0:0:0:
92,40,114746,1,8,0:0:0:0:
160,88,115089,2,0,L|236:72,1,69.9999999999999,8|8,2:0|0:0,0:0:0:0:
268,148,115775,2,0,L|344:92,1,69.9999999999999,2|10,0:0|0:0,0:0:0:0:
384,168,116461,5,8,2:0:0:0:
448,224,116803,2,0,P|460:292|424:360,1,140,8|8,0:0|0:0,0:0:0:0:
348,364,117832,1,8,2:0:0:0:
276,316,118175,2,0,B|224:271|224:271|144:272,1,140,8|10,0:0|0:0,0:0:0:0:
68,284,119203,6,0,P|108:348|144:360,2,105,12|2|8,2:0|0:0|0:0,0:0:0:0:
100,208,120575,2,0,L|60:96,2,105,8|0|10,2:0|0:0|0:0,0:0:0:0:
180,184,121946,6,0,L|260:184,1,69.9999999999999,8|8,2:0|0:0,0:0:0:0:
304,116,122632,2,0,L|380:116,1,69.9999999999999,0|8,0:0|0:0,0:0:0:0:
428,180,123318,2,0,P|392:240|408:308,1,140,8|2,2:0|0:0,0:0:0:0:
348,368,124346,1,10,0:0:0:0:
276,320,124689,6,0,B|240:272|256:221|256:221|216:184|216:184|216:128,1,210,12|8,2:0|0:0,0:0:0:0:
300,128,126061,2,0,P|230:49|145:86,1,210,8|10,2:0|0:0,0:0:0:0:
80,136,127432,6,0,L|24:216,1,69.9999999999999,8|8,2:0|2:0,0:0:0:0:
112,240,128118,2,0,L|144:324,1,69.9999999999999,8|8,2:0|2:0,0:0:0:0:
216,336,128803,2,0,B|285:320|257:264|333:284|333:284|341:252|377:228,1,210,8|8,2:0|0:0,0:0:0:0:
456,196,130175,5,12,2:0:0:0:
256,192,130346,12,0,131889,0:0:0:0:
