osu file format v14

[General]
AudioFilename: Brave Shine_202639911_soundcloud.mp3
AudioLeadIn: 0
PreviewTime: 65463
Countdown: 0
SampleSet: Soft
StackLeniency: 0.7
Mode: 3
LetterboxInBreaks: 0
SpecialStyle: 0
WidescreenStoryboard: 1

[Editor]
DistanceSpacing: 0.7
BeatDivisor: 4
GridSize: 4
TimelineZoom: 1.5

[Metadata]
Title:Brave Shine
TitleUnicode:Brave Shine
Artist:tomatomerde
ArtistUnicode:tomatomerde
Creator:Syadow-
Version:Brave
Source:Fate/stay night [Unlimited Blade Works]
Tags:エメ 2nd second Season opening フェイト/ステイナイト Aimer drumstep dubstep Amiichii -_Ly0572_- Ly0572
BeatmapID:1419759
BeatmapSetID:534948

[Difficulty]
HPDrainRate:8
CircleSize:4
OverallDifficulty:8
ApproachRate:5
SliderMultiplier:1.4
SliderTickRate:1

[Events]
//Background and Video events
0,0,"fate.jpg",0,0
//Break Periods
//Storyboard Layer 0 (Background)
//Storyboard Layer 1 (Fail)
//Storyboard Layer 2 (Pass)
//Storyboard Layer 3 (Foreground)
//Storyboard Sound Samples

[TimingPoints]
149,342.857142857143,4,2,1,15,1,0
149,-111.111111111111,4,2,1,15,0,0
2206,-105.263157894737,4,2,1,15,0,0
3577,-100,4,2,1,30,0,0
4949,-25,4,2,1,30,0,0
5034,-200,4,2,1,30,0,0
5591,-66.6666666666667,4,2,1,30,0,0
5634,-100,4,2,1,30,0,0
15920,-38.4615384615385,4,2,1,30,0,0
15963,-100,4,2,1,30,0,0
16006,-166.666666666667,4,2,1,30,0,0
16177,-38.4615384615385,4,2,1,30,0,0
16220,-100,4,2,1,30,0,0
16263,-166.666666666667,4,2,1,30,0,0
16434,-45.4545454545455,4,2,1,30,0,0
16477,-166.666666666667,4,2,1,30,0,0
16606,-100,4,2,1,30,0,0
25520,-40,4,2,1,30,0,0
25563,-142.857142857143,4,2,1,30,0,0
25777,-40,4,2,1,30,0,0
25820,-142.857142857143,4,2,1,30,0,0
26034,-57.1428571428571,4,2,1,30,0,0
26077,-133.333333333333,4,2,1,30,0,0
26206,-40,4,2,1,30,0,0
26249,-142.857142857143,4,2,1,30,0,0
26463,-40,4,2,1,30,0,0
26506,-142.857142857143,4,2,1,30,0,0
26720,-52.6315789473684,4,2,1,30,0,0
26763,-142.857142857143,4,2,1,30,0,0
26891,-76.9230769230769,4,2,1,30,0,0
26977,-142.857142857143,4,2,1,30,0,0
27063,-76.9230769230769,4,2,1,30,0,0
27149,-142.857142857143,4,2,1,30,0,0
27234,-76.9230769230769,4,2,1,30,0,0
27320,-142.857142857143,4,2,1,30,0,0
27406,-76.9230769230769,4,2,1,30,0,0
27491,-142.857142857143,4,2,1,30,0,0
27577,-100,4,2,1,30,0,0
32549,-40,4,2,1,30,0,0
32591,-200,4,2,1,30,0,0
32634,-166.666666666667,4,2,1,30,0,0
32677,-142.857142857143,4,2,1,30,0,0
32720,-125,4,2,1,30,0,0
32763,-111.111111111111,4,2,1,30,0,0
32806,-100,4,2,1,30,0,0
37863,-71.4285714285714,4,2,1,30,0,0
37949,-166.666666666667,4,2,1,30,0,0
38034,-71.4285714285714,4,2,1,30,0,0
38120,-166.666666666667,4,2,1,30,0,0
38206,-71.4285714285714,4,2,1,30,0,0
38291,-166.666666666667,4,2,1,30,0,0
38377,-71.4285714285714,4,2,1,30,0,0
38463,-166.666666666667,4,2,1,30,0,0
38549,-100,4,2,1,30,0,0
43520,-40,4,2,1,30,0,0
43563,-200,4,2,1,30,0,0
43606,-166.666666666667,4,2,1,30,0,0
43649,-142.857142857143,4,2,1,30,0,0
43691,-125,4,2,1,30,0,0
43734,-111.111111111111,4,2,1,30,0,0
43777,-100,4,2,1,30,0,0
48834,-71.4285714285714,4,2,1,30,0,0
48920,-166.666666666667,4,2,1,30,0,0
49006,-71.4285714285714,4,2,1,30,0,0
49091,-166.666666666667,4,2,1,30,0,0
49177,-71.4285714285714,4,2,1,30,0,0
49263,-166.666666666667,4,2,1,30,0,0
49349,-71.4285714285714,4,2,1,30,0,0
49434,-166.666666666667,4,2,1,30,0,0
49520,-105.263157894737,4,2,1,30,0,0
59806,-104.166666666667,4,2,1,30,0,0
59977,-103.092783505155,4,2,1,30,0,0
60149,-102.040816326531,4,2,1,30,0,0
60320,-101.010101010101,4,2,1,30,0,0
60491,-100,4,2,1,30,0,0
63406,-18.1818181818182,4,2,1,30,0,0
63577,-200,4,2,1,30,0,0
65463,-100,4,2,1,30,0,0
65634,-125,4,2,1,30,0,0
65891,-62.5,4,2,1,30,0,0
65977,-100,4,2,1,30,0,1
71120,-111.111111111111,4,2,1,30,0,1
71377,-76.9230769230769,4,2,1,30,0,1
71463,-100,4,2,1,30,0,1
76949,-111.111111111111,4,2,1,30,0,1
77206,-76.9230769230769,4,2,1,30,0,1
77291,-100,4,2,1,30,0,1
85177,-50,4,2,1,30,0,1
85220,-151.515151515152,4,2,1,30,0,1
85349,-50,4,2,1,30,0,1
85391,-151.515151515152,4,2,1,30,0,1
85520,-50,4,2,1,30,0,1
85563,-151.515151515152,4,2,1,30,0,1
85691,-50,4,2,1,30,0,1
85734,-151.515151515152,4,2,1,30,0,1
85863,-50,4,2,1,30,0,1
85906,-151.515151515152,4,2,1,30,0,1
86034,-50,4,2,1,30,0,1
86077,-151.515151515152,4,2,1,30,0,1
86206,-50,4,2,1,30,0,1
86249,-151.515151515152,4,2,1,30,0,1
86377,-50,4,2,1,30,0,1
86420,-151.515151515152,4,2,1,30,0,1
86549,-100,4,2,1,30,0,1
96149,-71.4285714285714,4,2,1,30,0,1
96234,-166.666666666667,4,2,1,30,0,1
96320,-71.4285714285714,4,2,1,30,0,1
96406,-166.666666666667,4,2,1,30,0,1
96491,-71.4285714285714,4,2,1,30,0,1
96577,-166.666666666667,4,2,1,30,0,1
96663,-71.4285714285714,4,2,1,30,0,1
96749,-166.666666666667,4,2,1,30,0,1
96834,-71.4285714285714,4,2,1,30,0,1
96920,-166.666666666667,4,2,1,30,0,1
97006,-71.4285714285714,4,2,1,30,0,1
97091,-166.666666666667,4,2,1,30,0,1
97177,-71.4285714285714,4,2,1,30,0,1
97263,-166.666666666667,4,2,1,30,0,1
97349,-71.4285714285714,4,2,1,30,0,1
97434,-166.666666666667,4,2,1,30,0,1
97520,-100,4,2,1,30,0,0
97563,-105.263157894737,4,2,1,30,0,0
97606,-111.111111111111,4,2,1,30,0,0
97649,-117.647058823529,4,2,1,30,0,0
97691,-125,4,2,1,30,0,0
97863,-117.647058823529,4,2,1,30,0,0
97906,-111.111111111111,4,2,1,30,0,0
97949,-105.263157894737,4,2,1,30,0,0
97991,-100,4,2,1,30,0,0
98034,-95.2380952380952,4,2,1,30,0,0
98077,-90.9090909090909,4,2,1,30,0,0
98120,-86.9565217391304,4,2,1,30,0,0
98163,-83.3333333333333,4,2,1,30,0,0
98206,-80,4,2,1,30,0,0
98249,-76.9230769230769,4,2,1,30,0,0
98291,-74.0740740740741,4,2,1,30,0,0
98334,-71.4285714285714,4,2,1,30,0,0
98377,-100,4,2,1,30,0,0
98549,-125,4,2,1,30,0,0
98806,-62.5,4,2,1,30,0,0
98891,-100,4,2,1,30,0,0

[HitObjects]
64,192,149,5,0,0:0:0:0:
448,192,149,1,2,0:0:0:0:
192,192,320,1,2,0:0:0:0:
320,192,491,1,0,0:0:0:0:
192,192,663,1,2,0:0:0:0:
64,192,834,1,0,0:0:0:0:
448,192,834,1,0,0:0:0:15:snare.wav
320,192,1006,1,0,0:0:0:0:
192,192,1177,1,2,0:0:0:0:
320,192,1349,1,2,0:0:0:0:
192,192,1520,1,0,0:0:0:0:
448,192,1691,1,0,0:0:0:15:snare.wav
64,192,1691,1,0,0:0:0:0:
320,192,1863,1,2,0:0:0:0:
192,192,2034,1,2,0:0:0:0:
64,192,2206,1,0,0:0:0:0:
448,192,2206,1,0,0:0:0:15:snare.wav
320,192,2377,1,2,0:0:0:0:
192,192,2549,1,0,0:0:0:0:
320,192,2720,1,2,0:0:0:0:
448,192,2891,1,2,0:0:0:0:
64,192,3063,1,2,0:0:0:0:
192,192,3234,1,0,0:0:0:0:
320,192,3406,1,2,0:0:0:0:
64,192,3577,1,0,0:0:0:0:
448,192,3577,1,8,0:0:0:0:
192,192,3749,1,0,0:0:0:0:
320,192,3920,1,0,0:0:0:0:
192,192,4091,1,0,0:0:0:0:
64,192,4263,1,8,0:0:0:0:
448,192,4263,1,0,0:0:0:0:
320,192,4434,1,0,0:0:0:0:
192,192,4606,1,0,0:0:0:0:
64,192,4777,1,0,0:0:0:0:
192,192,4863,1,0,0:0:0:0:
320,192,4949,128,0,5549:0:0:0:0:
448,192,4949,128,0,5549:0:0:0:0:
448,192,5634,1,2,0:0:0:0:
192,192,5634,1,4,0:0:0:0:
64,192,5634,128,0,6149:0:0:0:0:
320,192,5977,1,0,0:0:0:0:
192,192,6149,1,0,0:0:0:0:
448,192,6149,128,2,6663:0:0:0:0:
320,192,6320,1,8,0:0:0:0:
64,192,6320,1,0,0:0:0:0:
192,192,6320,1,0,0:0:0:0:
192,192,6663,128,0,7177:0:0:0:0:
448,192,6834,1,2,0:0:0:0:
320,192,6834,1,0,0:0:0:0:
64,192,7006,1,0,0:0:0:0:
320,192,7177,128,0,7691:0:0:0:0:
64,192,7349,1,2,0:0:0:0:
448,192,7349,1,0,0:0:0:0:
192,192,7520,1,0,0:0:0:0:
192,192,7691,1,8,0:0:0:0:
448,192,7691,1,0,0:0:0:0:
64,192,7691,128,0,8034:0:0:0:0:
448,192,8034,1,0,0:0:0:0:
320,192,8077,1,0,0:0:0:0:
192,192,8120,1,0,0:0:0:0:
64,192,8163,1,0,0:0:0:0:
448,192,8206,1,0,0:0:0:0:
320,192,8249,1,0,0:0:0:0:
192,192,8291,1,0,0:0:0:0:
64,192,8377,1,4,0:0:0:0:
448,192,8377,1,2,0:0:0:0:
320,192,8377,128,0,9749:0:0:0:0:
448,192,8720,1,0,0:0:0:0:
192,192,8891,1,0,0:0:0:0:
64,192,8891,1,2,0:0:0:0:
64,192,9063,1,0,0:0:0:0:
192,192,9063,1,8,0:0:0:0:
448,192,9063,1,0,0:0:0:0:
64,192,9406,1,0,0:0:0:0:
448,192,9577,1,0,0:0:0:0:
192,192,9577,1,2,0:0:0:0:
64,192,9749,128,0,10434:0:0:0:0:
448,192,9920,1,0,0:0:0:0:
320,192,10091,1,2,0:0:0:0:
192,192,10091,1,0,0:0:0:0:
448,192,10263,1,0,0:0:0:0:
320,192,10434,1,0,0:0:0:0:
192,192,10434,1,8,0:0:0:0:
448,192,10434,128,0,10777:0:0:0:0:
64,192,10777,1,0,0:0:0:0:
192,192,10820,1,0,0:0:0:0:
320,192,10863,1,0,0:0:0:0:
448,192,10906,1,0,0:0:0:0:
64,192,10949,1,0,0:0:0:0:
192,192,10991,1,0,0:0:0:0:
320,192,11034,1,2,0:0:0:0:
448,192,11077,1,2,0:0:0:0:
192,192,11120,1,4,0:0:0:0:
64,192,11120,128,2,11634:0:0:0:0:
448,192,11463,1,0,0:0:0:0:
192,192,11634,1,2,0:0:0:0:
320,192,11634,128,0,12149:0:0:0:0:
64,192,11806,1,8,0:0:0:0:
192,192,11806,1,0,0:0:0:0:
448,192,11806,1,0,0:0:0:0:
192,192,12149,128,0,13520:0:0:0:0:
64,192,12320,1,0,0:0:0:0:
448,192,12320,1,2,0:0:0:0:
320,192,12491,1,0,0:0:0:0:
64,192,12663,1,0,0:0:0:0:
448,192,12834,1,2,0:0:0:0:
320,192,12834,1,0,0:0:0:0:
64,192,13006,1,0,0:0:0:0:
320,192,13177,1,0,0:0:0:0:
64,192,13177,1,8,0:0:0:0:
448,192,13177,1,0,0:0:0:0:
448,192,13349,1,0,0:0:0:0:
320,192,13520,128,0,13691:0:0:0:0:
64,192,13691,128,0,13863:0:0:0:0:
192,192,13863,1,4,0:0:0:0:
320,192,13863,1,2,0:0:0:0:
448,192,13863,128,0,14377:0:0:0:0:
320,192,14206,1,0,0:0:0:0:
192,192,14377,1,2,0:0:0:0:
64,192,14377,128,0,14891:0:0:0:0:
320,192,14549,1,8,0:0:0:0:
448,192,14549,1,0,0:0:0:0:
192,192,14549,1,0,0:0:0:0:
320,192,14891,128,0,15406:0:0:0:0:
64,192,15063,1,2,0:0:0:0:
192,192,15063,1,0,0:0:0:0:
448,192,15234,1,0,0:0:0:0:
192,192,15406,128,0,15920:0:0:0:0:
320,192,15577,1,2,0:0:0:0:
448,192,15577,1,0,0:0:0:0:
64,192,15749,1,0,0:0:0:0:
64,192,15920,1,8,0:0:0:0:
448,192,15920,1,0,0:0:0:0:
320,192,15920,1,0,0:0:0:0:
320,192,16177,1,0,0:0:0:0:
64,192,16177,1,2,0:0:0:0:
448,192,16434,1,2,0:0:0:0:
192,192,16434,1,0,0:0:0:0:
320,192,16606,1,4,0:0:0:0:
64,192,16606,1,2,0:0:0:0:
448,192,16606,128,0,17120:0:0:0:0:
192,192,16949,1,0,0:0:0:0:
64,192,17120,1,2,0:0:0:0:
320,192,17120,128,0,17634:0:0:0:0:
64,192,17291,1,0,0:0:0:0:
448,192,17291,1,8,0:0:0:0:
192,192,17291,1,0,0:0:0:0:
192,192,17634,128,0,18149:0:0:0:0:
448,192,17806,1,2,0:0:0:0:
64,192,17806,1,0,0:0:0:0:
320,192,17977,1,0,0:0:0:0:
64,192,18149,128,0,18663:0:0:0:0:
448,192,18320,1,2,0:0:0:0:
320,192,18320,1,0,0:0:0:0:
192,192,18491,1,0,0:0:0:0:
192,192,18663,1,8,0:0:0:0:
320,192,18663,1,0,0:0:0:0:
448,192,18663,128,0,19006:0:0:0:0:
64,192,19006,5,0,0:0:0:0:
192,192,19049,1,0,0:0:0:0:
320,192,19091,1,0,0:0:0:0:
448,192,19134,1,0,0:0:0:0:
64,192,19177,1,0,0:0:0:0:
192,192,19220,1,0,0:0:0:0:
320,192,19263,1,0,0:0:0:0:
448,192,19349,1,2,0:0:0:0:
64,192,19349,1,4,0:0:0:0:
192,192,19349,128,0,20720:0:0:0:0:
64,192,19691,1,0,0:0:0:0:
448,192,19863,1,0,0:0:0:0:
320,192,19863,1,2,0:0:0:0:
448,192,20034,1,0,0:0:0:0:
64,192,20034,1,8,0:0:0:0:
320,192,20034,1,0,0:0:0:0:
448,192,20377,1,0,0:0:0:0:
320,192,20549,1,0,0:0:0:0:
64,192,20549,1,2,0:0:0:0:
448,192,20720,128,0,21406:0:0:0:0:
320,192,20891,1,0,0:0:0:0:
64,192,21063,1,2,0:0:0:0:
192,192,21063,1,0,0:0:0:0:
320,192,21234,1,0,0:0:0:0:
320,192,21406,1,8,0:0:0:0:
192,192,21406,1,0,0:0:0:0:
64,192,21406,128,0,21749:0:0:0:0:
448,192,21749,5,0,0:0:0:0:
320,192,21791,1,0,0:0:0:0:
192,192,21834,1,0,0:0:0:0:
64,192,21877,1,0,0:0:0:0:
448,192,21920,1,0,0:0:0:0:
320,192,21963,1,0,0:0:0:0:
192,192,22006,1,0,0:0:0:0:
64,192,22091,1,2,0:0:0:0:
320,192,22091,1,0,0:0:0:0:
448,192,22091,128,4,22606:0:0:0:0:
64,192,22434,1,0,0:0:0:0:
320,192,22606,1,2,0:0:0:0:
192,192,22606,128,0,23120:0:0:0:0:
64,192,22777,1,0,0:0:0:0:
320,192,22777,1,8,0:0:0:0:
448,192,22777,1,0,0:0:0:0:
320,192,23120,128,0,24491:0:0:0:0:
64,192,23291,1,2,0:0:0:0:
448,192,23291,1,0,0:0:0:0:
192,192,23463,1,0,0:0:0:0:
448,192,23634,1,0,0:0:0:0:
64,192,23806,1,2,0:0:0:0:
192,192,23806,1,0,0:0:0:0:
448,192,23977,1,0,0:0:0:0:
64,192,24149,1,8,0:0:0:0:
192,192,24149,1,0,0:0:0:0:
448,192,24149,1,0,0:0:0:0:
64,192,24320,1,0,0:0:0:0:
192,192,24491,128,0,24663:0:0:0:0:
448,192,24663,128,0,24834:0:0:0:0:
320,192,24834,1,4,0:0:0:0:
192,192,24834,1,2,0:0:0:0:
64,192,24834,128,0,25349:0:0:0:0:
448,192,25177,1,0,0:0:0:0:
192,192,25349,1,2,0:0:0:0:
320,192,25349,1,0,0:0:0:0:
64,192,25520,1,0,0:0:0:0:
192,192,25520,1,8,0:0:0:0:
448,192,25520,1,0,0:0:0:0:
64,192,25777,1,0,0:0:0:0:
448,192,25777,1,2,0:0:0:0:
192,192,26034,1,0,0:0:0:0:
320,192,26034,1,2,0:0:0:0:
64,192,26206,1,0,0:0:0:0:
448,192,26206,1,2,0:0:0:0:
320,192,26463,1,0,0:0:0:0:
192,192,26463,1,2,0:0:0:0:
192,192,26720,1,2,0:0:0:0:
320,192,26720,1,0,0:0:0:0:
64,192,26891,1,0,0:0:0:0:
448,192,26891,1,8,0:0:0:0:
320,192,26891,1,0,0:0:0:0:
64,192,27063,1,0,0:0:0:0:
192,192,27063,1,2,0:0:0:0:
320,192,27234,1,2,0:0:0:0:
448,192,27234,1,0,0:0:0:0:
192,192,27406,1,2,0:0:0:0:
64,192,27406,1,0,0:0:0:0:
448,192,27577,1,4,0:0:0:0:
320,192,27577,1,2,0:0:0:0:
64,192,27577,1,0,0:0:0:0:
192,192,27920,128,0,28091:0:0:0:0:
448,192,28091,1,2,0:0:0:0:
320,192,28091,128,0,28263:0:0:0:0:
448,192,28263,1,8,0:0:0:0:
64,192,28263,1,0,0:0:0:0:
192,192,28263,1,0,0:0:0:0:
64,192,28606,1,0,0:0:0:0:
192,192,28777,1,0,0:0:0:0:
448,192,28777,1,2,0:0:0:0:
320,192,28949,1,0,0:0:0:0:
64,192,29120,1,0,0:0:0:30:snare.wav
448,192,29120,1,0,0:0:0:0:
192,192,29120,1,0,0:0:0:0:
192,192,29291,128,0,29634:0:0:0:0:
320,192,29291,1,2,0:0:0:0:
64,192,29634,1,0,0:0:0:0:
320,192,29634,1,8,0:0:0:0:
448,192,29634,1,0,0:0:0:0:
192,192,29977,1,0,0:0:0:0:
448,192,30149,1,0,0:0:0:0:
320,192,30191,1,0,0:0:0:0:
192,192,30234,1,0,0:0:0:0:
64,192,30277,1,0,0:0:0:0:
448,192,30320,1,0,0:0:0:0:
320,192,30320,1,2,0:0:0:0:
192,192,30663,128,0,30834:0:0:0:0:
320,192,30834,1,2,0:0:0:0:
448,192,30834,128,0,31006:0:0:0:0:
64,192,31006,1,0,0:0:0:0:
192,192,31006,1,8,0:0:0:0:
320,192,31006,1,0,0:0:0:0:
192,192,31349,1,0,0:0:0:0:
64,192,31520,1,0,0:0:0:0:
448,192,31520,1,2,0:0:0:0:
320,192,31691,1,0,0:0:0:0:
192,192,31863,1,0,0:0:0:30:snare.wav
64,192,31863,1,0,0:0:0:0:
448,192,31863,1,0,0:0:0:0:
320,192,32034,1,2,0:0:0:0:
192,192,32034,128,0,32206:0:0:0:0:
320,192,32206,128,0,32377:0:0:0:0:
64,192,32377,1,8,0:0:0:0:
448,192,32377,1,0,0:0:0:0:
192,192,32377,1,0,0:0:0:0:
192,192,32549,1,2,0:0:0:0:
64,192,32549,1,4,0:0:0:0:
448,192,32549,1,0,0:0:0:0:
64,192,32891,1,0,0:0:0:0:
192,192,32934,1,0,0:0:0:0:
320,192,32977,1,0,0:0:0:0:
448,192,33020,1,0,0:0:0:0:
64,192,33063,1,0,0:0:0:0:
192,192,33063,1,2,0:0:0:0:
320,192,33406,128,0,33577:0:0:0:0:
64,192,33577,1,2,0:0:0:0:
192,192,33577,128,0,33749:0:0:0:0:
64,192,33749,1,0,0:0:0:0:
320,192,33749,1,8,0:0:0:0:
448,192,33749,1,0,0:0:0:0:
448,192,34091,1,0,0:0:0:0:
320,192,34263,1,0,0:0:0:0:
64,192,34263,1,2,0:0:0:0:
192,192,34434,1,0,0:0:0:0:
64,192,34606,1,0,0:0:0:0:
320,192,34606,1,0,0:0:0:30:snare.wav
448,192,34606,1,0,0:0:0:0:
192,192,34777,1,2,0:0:0:0:
320,192,34777,128,0,35120:0:0:0:0:
64,192,35120,1,0,0:0:0:0:
192,192,35120,1,0,0:0:0:0:
448,192,35120,1,8,0:0:0:0:
192,192,35463,1,0,0:0:0:0:
320,192,35634,1,0,0:0:0:0:
64,192,35720,1,0,0:0:0:0:
320,192,35806,1,2,0:0:0:0:
448,192,35806,1,0,0:0:0:0:
192,192,36149,128,0,36320:0:0:0:0:
448,192,36320,1,2,0:0:0:0:
320,192,36320,128,0,36491:0:0:0:0:
192,192,36491,1,8,0:0:0:0:
448,192,36491,1,0,0:0:0:0:
64,192,36491,128,0,36834:0:0:0:0:
192,192,36834,5,0,0:0:0:0:
320,192,37006,1,2,0:0:0:0:
448,192,37006,128,0,37177:0:0:0:0:
192,192,37177,128,0,37349:0:0:0:0:
448,192,37349,1,0,0:0:0:30:snare.wav
320,192,37349,128,0,37520:0:0:0:0:
192,192,37520,1,2,0:0:0:0:
64,192,37520,128,0,37691:0:0:0:0:
448,192,37691,1,0,0:0:0:0:
320,192,37734,1,0,0:0:0:0:
192,192,37777,1,0,0:0:0:0:
64,192,37820,1,0,0:0:0:0:
448,192,37863,1,0,0:0:0:0:
320,192,37863,1,8,0:0:0:0:
448,192,38034,1,0,0:0:0:0:
64,192,38034,1,2,0:0:0:0:
64,192,38206,1,0,0:0:0:0:
192,192,38206,1,0,0:0:0:0:
320,192,38206,1,8,0:0:0:0:
448,192,38377,1,0,0:0:0:0:
192,192,38377,1,2,0:0:0:0:
320,192,38549,1,4,0:0:0:0:
448,192,38549,1,2,0:0:0:0:
64,192,38549,1,0,0:0:0:0:
320,192,38891,128,0,39063:0:0:0:0:
64,192,39063,1,2,0:0:0:0:
192,192,39063,128,0,39234:0:0:0:0:
64,192,39234,1,0,0:0:0:0:
320,192,39234,1,8,0:0:0:0:
448,192,39234,1,0,0:0:0:0:
192,192,39577,1,0,0:0:0:0:
448,192,39749,1,0,0:0:0:0:
64,192,39749,1,2,0:0:0:0:
320,192,39920,1,0,0:0:0:0:
192,192,40091,1,0,0:0:0:30:snare.wav
64,192,40091,1,0,0:0:0:0:
448,192,40091,1,0,0:0:0:0:
320,192,40263,1,2,0:0:0:0:
448,192,40263,128,0,40606:0:0:0:0:
192,192,40606,1,0,0:0:0:0:
320,192,40606,1,8,0:0:0:0:
64,192,40606,1,0,0:0:0:0:
192,192,40949,1,0,0:0:0:0:
448,192,41120,1,0,0:0:0:0:
320,192,41163,1,0,0:0:0:0:
64,192,41206,1,0,0:0:0:0:
192,192,41249,1,0,0:0:0:0:
320,192,41291,1,2,0:0:0:0:
448,192,41291,1,0,0:0:0:0:
320,192,41634,128,0,41806:0:0:0:0:
448,192,41806,1,2,0:0:0:0:
64,192,41806,128,0,41977:0:0:0:0:
192,192,41977,1,0,0:0:0:0:
320,192,41977,1,8,0:0:0:0:
448,192,41977,1,0,0:0:0:0:
64,192,42320,1,0,0:0:0:0:
192,192,42491,1,2,0:0:0:0:
448,192,42491,1,0,0:0:0:0:
320,192,42663,1,0,0:0:0:0:
64,192,42834,1,0,0:0:0:30:snare.wav
192,192,42834,1,0,0:0:0:0:
448,192,42834,1,0,0:0:0:0:
320,192,43006,1,2,0:0:0:0:
448,192,43006,128,0,43177:0:0:0:0:
64,192,43177,128,0,43349:0:0:0:0:
192,192,43349,1,0,0:0:0:0:
448,192,43349,1,8,0:0:0:0:
320,192,43349,1,0,0:0:0:0:
320,192,43520,1,2,0:0:0:0:
64,192,43520,1,4,0:0:0:0:
192,192,43520,1,0,0:0:0:0:
192,192,43863,1,0,0:0:0:0:
64,192,43906,1,0,0:0:0:0:
448,192,43949,1,0,0:0:0:0:
320,192,43991,1,0,0:0:0:0:
192,192,44034,1,2,0:0:0:0:
64,192,44034,1,0,0:0:0:0:
320,192,44377,128,0,44549:0:0:0:0:
64,192,44549,1,2,0:0:0:0:
192,192,44549,128,0,44720:0:0:0:0:
64,192,44720,1,0,0:0:0:0:
448,192,44720,1,0,0:0:0:0:
320,192,44720,1,8,0:0:0:0:
192,192,45063,1,0,0:0:0:0:
64,192,45234,1,2,0:0:0:0:
448,192,45234,1,0,0:0:0:0:
320,192,45406,1,0,0:0:0:0:
192,192,45577,1,0,0:0:0:0:
448,192,45577,1,0,0:0:0:0:
64,192,45577,1,0,0:0:0:30:snare.wav
64,192,45749,128,0,46091:0:0:0:0:
320,192,45749,1,2,0:0:0:0:
192,192,46091,1,0,0:0:0:0:
320,192,46091,1,8,0:0:0:0:
448,192,46091,1,0,0:0:0:0:
64,192,46434,1,0,0:0:0:0:
192,192,46606,1,0,0:0:0:0:
320,192,46691,1,0,0:0:0:0:
192,192,46777,1,2,0:0:0:0:
64,192,46777,1,0,0:0:0:0:
448,192,47120,128,0,47291:0:0:0:0:
320,192,47291,1,2,0:0:0:0:
192,192,47291,128,0,47463:0:0:0:0:
64,192,47463,1,8,0:0:0:0:
448,192,47463,1,0,0:0:0:0:
320,192,47463,128,0,47806:0:0:0:0:
192,192,47806,5,0,0:0:0:0:
448,192,47977,1,2,0:0:0:0:
64,192,47977,128,0,48149:0:0:0:0:
192,192,48149,128,0,48320:0:0:0:0:
64,192,48320,1,0,0:0:0:30:snare.wav
320,192,48320,128,0,48491:0:0:0:0:
192,192,48491,1,2,0:0:0:0:
448,192,48491,128,0,48663:0:0:0:0:
64,192,48663,1,0,0:0:0:0:
192,192,48706,1,0,0:0:0:0:
320,192,48749,1,0,0:0:0:0:
448,192,48791,1,0,0:0:0:0:
64,192,48834,5,0,0:0:0:0:
192,192,48834,1,8,0:0:0:0:
448,192,49006,1,2,0:0:0:0:
320,192,49006,1,0,0:0:0:0:
448,192,49177,1,8,0:0:0:0:
192,192,49177,1,0,0:0:0:0:
64,192,49177,1,0,0:0:0:0:
192,192,49349,1,0,0:0:0:0:
320,192,49349,1,2,0:0:0:0:
448,192,49520,1,0,0:0:0:0:
320,192,49520,1,2,0:0:0:0:
64,192,49520,1,4,0:0:0:0:
64,192,49691,1,0,0:0:0:0:
192,192,49863,1,0,0:0:0:0:
320,192,50034,1,0,0:0:0:0:
448,192,50206,128,0,50377:0:0:0:0:
64,192,50377,1,0,0:0:0:0:
192,192,50549,128,0,50720:0:0:0:0:
320,192,50720,1,0,0:0:0:0:
448,192,50891,1,0,0:0:0:0:
320,192,51063,1,0,0:0:0:0:
192,192,51234,1,0,0:0:0:0:
64,192,51406,128,0,51577:0:0:0:0:
192,192,51577,1,0,0:0:0:0:
320,192,51749,128,0,51920:0:0:0:0:
448,192,51920,1,0,0:0:0:0:
192,192,52091,128,0,52263:0:0:0:0:
448,192,52263,1,0,0:0:0:0:
64,192,52263,1,0,0:0:0:0:
320,192,52434,1,0,0:0:0:0:
192,192,52606,1,0,0:0:0:0:
64,192,52777,1,0,0:0:0:0:
192,192,52949,128,0,53120:0:0:0:0:
320,192,53120,1,0,0:0:0:0:
448,192,53291,128,0,53463:0:0:0:0:
64,192,53463,1,0,0:0:0:0:
320,192,53634,1,0,0:0:0:0:
192,192,53806,1,0,0:0:0:0:
320,192,53977,1,0,0:0:0:0:
448,192,54149,128,0,54320:0:0:0:0:
64,192,54320,1,0,0:0:0:0:
192,192,54491,128,0,54663:0:0:0:0:
448,192,54663,1,0,0:0:0:0:
320,192,54834,1,0,0:0:0:0:
64,192,55006,1,0,0:0:0:0:
448,192,55006,128,0,55177:0:0:0:0:
320,192,55177,128,0,55349:0:0:0:0:
192,192,55349,128,0,55520:0:0:0:0:
64,192,55520,128,0,55691:0:0:0:0:
448,192,55691,128,0,55863:0:0:0:0:
192,192,55863,1,0,0:0:0:0:
64,192,56034,128,0,56206:0:0:0:0:
448,192,56206,1,0,0:0:0:0:
320,192,56377,1,0,0:0:0:0:
192,192,56549,1,0,0:0:0:0:
64,192,56720,1,0,0:0:0:0:
192,192,56891,128,0,57063:0:0:0:0:
448,192,57063,1,0,0:0:0:0:
320,192,57234,128,0,57406:0:0:0:0:
64,192,57406,1,0,0:0:0:0:
192,192,57577,1,0,0:0:0:0:
448,192,57749,1,0,0:0:0:0:
64,192,57749,1,0,0:0:0:0:
320,192,57920,1,0,0:0:0:0:
192,192,58091,1,0,0:0:0:0:
64,192,58263,1,0,0:0:0:0:
448,192,58434,128,0,58606:0:0:0:0:
192,192,58606,1,0,0:0:0:0:
320,192,58777,1,0,0:0:0:0:
64,192,58777,128,0,58949:0:0:0:0:
192,192,58949,1,0,0:0:0:0:
320,192,59120,1,0,0:0:0:0:
64,192,59291,1,0,0:0:0:0:
448,192,59291,1,0,0:0:0:0:
192,192,59377,1,0,0:0:0:0:
320,192,59463,5,0,0:0:0:0:
320,192,59634,128,0,59806:0:0:0:0:
192,192,59806,1,0,0:0:0:0:
192,192,59977,1,0,0:0:0:30:snare.wav
448,192,59977,128,0,60149:0:0:0:0:
64,192,60149,1,0,0:0:0:0:
320,192,60149,1,0,0:0:0:0:
64,192,60320,1,0,0:0:0:0:
448,192,60320,1,0,0:0:0:0:
448,192,60491,5,0,0:0:0:0:
192,192,60491,1,2,0:0:0:0:
64,192,60834,1,0,0:0:0:0:
320,192,60834,1,2,0:0:0:0:
64,192,61177,1,0,0:0:0:0:
448,192,61177,1,8,0:0:0:0:
192,192,61177,128,0,61349:0:0:0:0:
320,192,61520,1,2,0:0:0:0:
448,192,61520,128,0,61691:0:0:0:0:
192,192,61691,1,2,0:0:0:0:
64,192,61691,1,0,0:0:0:0:
320,192,61863,1,0,0:0:0:0:
192,192,62034,1,0,0:0:0:0:
448,192,62034,1,0,0:0:0:30:snare.wav
448,192,62206,1,2,0:0:0:0:
64,192,62206,1,4,0:0:0:0:
192,192,62206,128,0,62549:0:0:0:0:
320,192,62377,128,0,62549:0:0:0:0:
64,192,62549,1,0,0:0:0:0:
448,192,62549,1,8,0:0:0:0:
192,192,62720,1,0,0:0:0:0:
448,192,62891,1,0,0:0:0:0:
320,192,62891,1,0,0:0:0:0:
192,192,63234,1,0,0:0:0:0:
320,192,63234,1,2,0:0:0:0:
320,192,63406,1,0,0:0:0:0:
192,192,63406,1,2,0:0:0:0:
320,192,65463,1,0,0:0:0:0:
64,192,65463,1,2,0:0:0:0:
192,192,65634,1,0,0:0:0:0:
320,192,65634,1,8,0:0:0:0:
448,192,65634,1,0,0:0:0:0:
64,192,65977,1,4,0:0:0:0:
192,192,65977,1,0,0:0:0:0:
448,192,65977,1,2,0:0:0:0:
64,192,66320,1,0,0:0:0:0:
192,192,66320,1,8,0:0:0:0:
320,192,66320,1,0,0:0:0:0:
448,192,66491,1,0,0:0:0:0:
448,192,66663,1,0,0:0:0:0:
320,192,66834,1,2,0:0:0:0:
192,192,66834,1,0,0:0:0:0:
64,192,67006,1,0,0:0:0:0:
320,192,67006,1,0,0:0:0:0:
448,192,67006,1,8,0:0:0:0:
192,192,67177,1,0,0:0:0:0:
192,192,67349,1,0,0:0:0:0:
64,192,67520,1,0,0:0:0:0:
320,192,67520,1,2,0:0:0:0:
64,192,67691,1,0,0:0:0:0:
192,192,67691,1,8,0:0:0:0:
448,192,67691,1,0,0:0:0:0:
320,192,67863,1,0,0:0:0:0:
320,192,68034,1,0,0:0:0:0:
64,192,68206,1,2,0:0:0:0:
192,192,68206,1,0,0:0:0:0:
320,192,68377,1,8,0:0:0:0:
448,192,68377,1,0,0:0:0:0:
64,192,68377,1,0,0:0:0:0:
192,192,68549,1,0,0:0:0:0:
64,192,68720,1,0,0:0:0:0:
448,192,68720,1,2,0:0:0:0:
320,192,68891,1,0,0:0:0:0:
64,192,69063,1,0,0:0:0:0:
192,192,69063,1,8,0:0:0:0:
448,192,69063,1,0,0:0:0:0:
320,192,69234,1,0,0:0:0:0:
320,192,69406,1,0,0:0:0:0:
192,192,69577,1,2,0:0:0:0:
448,192,69577,1,0,0:0:0:0:
64,192,69749,1,0,0:0:0:0:
192,192,69749,1,8,0:0:0:0:
320,192,69749,1,0,0:0:0:0:
448,192,69920,1,0,0:0:0:0:
448,192,70091,1,0,0:0:0:0:
320,192,70263,1,0,0:0:0:0:
64,192,70263,1,2,0:0:0:0:
192,192,70434,1,0,0:0:0:0:
64,192,70434,1,8,0:0:0:0:
448,192,70434,1,0,0:0:0:0:
320,192,70606,1,0,0:0:0:0:
192,192,70777,1,0,0:0:0:0:
448,192,70949,1,0,0:0:0:0:
320,192,70991,1,0,0:0:0:0:
64,192,71034,1,0,0:0:0:0:
192,192,71077,1,0,0:0:0:0:
320,192,71120,1,8,0:0:0:0:
448,192,71120,1,4,0:0:0:0:
192,192,71463,1,4,0:0:0:0:
448,192,71463,1,2,0:0:0:0:
64,192,71463,1,0,0:0:0:0:
320,192,71634,1,0,0:0:0:0:
64,192,71806,1,0,0:0:0:0:
320,192,71806,1,8,0:0:0:0:
448,192,71806,1,0,0:0:0:0:
192,192,71977,1,0,0:0:0:0:
320,192,72149,1,0,0:0:0:0:
192,192,72320,1,2,0:0:0:0:
64,192,72320,1,0,0:0:0:0:
64,192,72491,1,0,0:0:0:0:
320,192,72491,1,8,0:0:0:0:
448,192,72491,1,0,0:0:0:0:
192,192,72663,1,0,0:0:0:0:
320,192,72834,1,0,0:0:0:0:
448,192,73006,1,0,0:0:0:0:
192,192,73006,1,2,0:0:0:0:
64,192,73177,1,0,0:0:0:0:
320,192,73177,1,8,0:0:0:0:
448,192,73177,1,0,0:0:0:0:
192,192,73349,1,0,0:0:0:0:
320,192,73520,1,0,0:0:0:0:
64,192,73691,1,0,0:0:0:0:
448,192,73691,1,2,0:0:0:0:
192,192,73863,1,8,0:0:0:0:
320,192,73863,1,0,0:0:0:0:
64,192,73863,1,0,0:0:0:0:
448,192,74034,1,0,0:0:0:0:
320,192,74206,1,2,0:0:0:0:
64,192,74206,1,0,0:0:0:0:
192,192,74377,1,0,0:0:0:0:
64,192,74549,1,0,0:0:0:0:
320,192,74549,1,8,0:0:0:0:
448,192,74549,1,0,0:0:0:0:
192,192,74720,1,0,0:0:0:0:
320,192,74891,1,0,0:0:0:0:
192,192,75063,1,2,0:0:0:0:
448,192,75063,1,0,0:0:0:0:
64,192,75234,1,0,0:0:0:0:
320,192,75234,1,8,0:0:0:0:
448,192,75234,1,0,0:0:0:0:
320,192,75406,1,0,0:0:0:0:
192,192,75406,1,2,0:0:0:0:
64,192,75577,1,0,0:0:0:0:
192,192,75577,1,8,0:0:0:0:
448,192,75577,1,0,0:0:0:0:
192,192,75749,1,2,0:0:0:0:
64,192,75749,1,0,0:0:0:0:
320,192,75834,1,0,0:0:0:0:
448,192,75834,1,8,0:0:0:0:
192,192,76006,1,2,0:0:0:0:
64,192,76006,1,0,0:0:0:0:
320,192,76091,1,8,0:0:0:0:
448,192,76091,1,0,0:0:0:0:
64,192,76177,1,2,0:0:0:0:
192,192,76220,1,2,0:0:0:0:
448,192,76263,1,2,0:0:0:0:
320,192,76306,1,2,0:0:0:0:
192,192,76349,1,2,0:0:0:0:
64,192,76349,1,0,0:0:0:0:
448,192,76434,1,2,0:0:0:0:
320,192,76434,1,0,0:0:0:0:
192,192,76520,1,2,0:0:0:0:
448,192,76606,1,8,0:0:0:0:
64,192,76606,1,0,0:0:0:0:
320,192,76606,1,0,0:0:0:0:
192,192,76691,1,2,0:0:0:0:
320,192,76777,1,0,0:0:0:0:
448,192,76777,1,2,0:0:0:0:
192,192,76863,1,0,0:0:0:0:
64,192,76863,1,2,0:0:0:0:
448,192,76949,1,0,0:0:0:0:
320,192,76949,1,2,0:0:0:0:
64,192,76949,1,4,0:0:0:0:
64,192,77291,1,0,0:0:0:0:
448,192,77291,1,0,0:0:0:0:
192,192,77291,1,8,0:0:0:0:
320,192,77463,1,0,0:0:0:0:
192,192,77634,1,0,0:0:0:0:
448,192,77806,1,0,0:0:0:0:
64,192,77806,1,2,0:0:0:0:
192,192,77977,1,0,0:0:0:0:
448,192,77977,1,0,0:0:0:0:
320,192,77977,1,8,0:0:0:0:
64,192,78149,1,0,0:0:0:0:
192,192,78320,1,0,0:0:0:0:
320,192,78491,1,2,0:0:0:0:
448,192,78491,1,0,0:0:0:0:
192,192,78663,1,8,0:0:0:0:
64,192,78663,1,0,0:0:0:0:
448,192,78663,1,0,0:0:0:0:
320,192,78834,1,0,0:0:0:0:
192,192,79006,1,0,0:0:0:0:
448,192,79177,1,0,0:0:0:0:
64,192,79177,1,2,0:0:0:0:
64,192,79349,1,0,0:0:0:0:
320,192,79349,1,0,0:0:0:0:
192,192,79349,1,8,0:0:0:0:
448,192,79520,1,0,0:0:0:0:
320,192,79691,1,2,0:0:0:0:
64,192,79691,1,0,0:0:0:0:
192,192,79863,1,0,0:0:0:0:
64,192,80034,1,0,0:0:0:0:
320,192,80034,1,8,0:0:0:0:
448,192,80034,1,0,0:0:0:0:
192,192,80206,1,0,0:0:0:0:
320,192,80377,1,0,0:0:0:0:
448,192,80549,1,0,0:0:0:0:
64,192,80549,1,2,0:0:0:0:
192,192,80720,1,8,0:0:0:0:
320,192,80720,1,0,0:0:0:0:
64,192,80720,1,0,0:0:0:0:
448,192,80891,1,0,0:0:0:0:
320,192,81063,1,0,0:0:0:0:
192,192,81234,5,2,0:0:0:0:
64,192,81234,1,0,0:0:0:0:
192,192,81406,1,0,0:0:0:0:
320,192,81406,1,8,0:0:0:0:
448,192,81406,1,0,0:0:0:0:
64,192,81577,1,0,0:0:0:0:
192,192,81749,1,0,0:0:0:0:
320,192,81920,1,2,0:0:0:0:
448,192,81920,1,0,0:0:0:0:
64,192,82091,1,0,0:0:0:0:
192,192,82091,1,8,0:0:0:0:
320,192,82091,1,0,0:0:0:0:
448,192,82263,5,0,0:0:0:0:
192,192,82349,1,2,0:0:0:0:
320,192,82391,1,2,0:0:0:0:
448,192,82434,1,2,0:0:0:0:
64,192,82434,1,8,0:0:0:0:
320,192,82606,1,0,0:0:0:0:
192,192,82777,1,0,0:0:0:0:
320,192,82777,1,8,0:0:0:0:
448,192,82777,1,0,0:0:0:0:
192,192,82949,1,0,0:0:0:0:
320,192,83120,1,0,0:0:0:0:
448,192,83120,1,8,0:0:0:0:
64,192,83120,1,0,0:0:0:0:
448,192,83291,1,0,0:0:0:0:
448,192,83463,1,0,0:0:0:0:
64,192,83463,1,8,0:0:0:0:
192,192,83463,1,0,0:0:0:0:
64,192,83634,1,0,0:0:0:0:
64,192,83806,1,0,0:0:0:0:
192,192,83806,1,0,0:0:0:0:
320,192,83806,1,8,0:0:0:0:
192,192,83977,1,0,0:0:0:0:
448,192,83977,1,2,0:0:0:0:
192,192,84149,1,0,0:0:0:0:
320,192,84149,1,8,0:0:0:0:
448,192,84149,1,0,0:0:0:0:
320,192,84320,1,0,0:0:0:0:
64,192,84320,1,2,0:0:0:0:
320,192,84491,1,8,0:0:0:0:
64,192,84491,1,0,0:0:0:0:
448,192,84491,1,0,0:0:0:0:
448,192,84663,1,0,0:0:0:0:
192,192,84663,1,2,0:0:0:0:
448,192,84834,1,0,0:0:0:0:
192,192,84834,1,8,0:0:0:0:
64,192,84834,1,0,0:0:0:0:
320,192,85006,1,2,0:0:0:0:
64,192,85006,1,0,0:0:0:0:
192,192,85091,1,2,0:0:0:0:
448,192,85091,1,0,0:0:0:0:
320,192,85177,1,8,0:0:0:0:
448,192,85177,1,0,0:0:0:0:
64,192,85177,1,0,0:0:0:0:
192,192,85349,1,8,0:0:0:0:
448,192,85349,1,0,0:0:0:0:
320,192,85349,1,0,0:0:0:0:
64,192,85520,5,0,0:0:0:0:
320,192,85520,1,8,0:0:0:0:
192,192,85520,1,0,0:0:0:0:
192,192,85691,1,8,0:0:0:0:
64,192,85691,1,0,0:0:0:0:
448,192,85691,1,0,0:0:0:0:
448,192,85863,1,0,0:0:0:0:
320,192,85863,1,8,0:0:0:0:
64,192,85863,1,0,0:0:0:0:
192,192,86034,1,0,0:0:0:0:
320,192,86034,1,8,0:0:0:0:
448,192,86034,1,0,0:0:0:0:
192,192,86206,1,0,0:0:0:0:
320,192,86206,1,8,0:0:0:0:
64,192,86206,1,0,0:0:0:0:
64,192,86377,1,0,0:0:0:0:
192,192,86377,1,8,0:0:0:0:
448,192,86377,1,0,0:0:0:0:
320,192,86549,5,8,0:0:0:0:
448,192,86549,1,0,0:0:0:0:
64,192,86549,1,0,0:0:0:0:
192,192,86634,1,2,0:0:0:0:
64,192,86720,1,2,0:0:0:0:
448,192,86720,1,0,0:0:0:0:
320,192,86806,1,2,0:0:0:0:
192,192,86891,1,8,0:0:0:0:
448,192,86891,1,0,0:0:0:0:
64,192,86891,1,0,0:0:0:0:
320,192,86977,1,2,0:0:0:0:
448,192,87063,1,2,0:0:0:0:
64,192,87063,1,0,0:0:0:0:
192,192,87149,1,2,0:0:0:0:
448,192,87234,1,8,0:0:0:0:
320,192,87234,1,0,0:0:0:0:
64,192,87234,1,0,0:0:0:0:
192,192,87320,1,2,0:0:0:0:
320,192,87406,1,2,0:0:0:0:
448,192,87406,1,0,0:0:0:0:
192,192,87491,1,2,0:0:0:0:
64,192,87491,1,0,0:0:0:0:
64,192,87577,1,8,0:0:0:0:
320,192,87577,1,4,0:0:0:0:
448,192,87577,1,0,0:0:0:0:
192,192,87749,1,0,0:0:0:0:
64,192,87920,1,0,0:0:0:0:
448,192,87920,1,4,0:0:0:0:
192,192,87920,1,2,0:0:0:0:
320,192,88091,1,0,0:0:0:0:
64,192,88263,1,0,0:0:0:0:
448,192,88263,1,0,0:0:0:0:
320,192,88263,1,8,0:0:0:0:
192,192,88434,1,0,0:0:0:0:
192,192,88606,1,0,0:0:0:0:
64,192,88777,1,2,0:0:0:0:
448,192,88777,1,0,0:0:0:0:
192,192,88949,1,8,0:0:0:0:
64,192,88949,1,0,0:0:0:0:
448,192,88949,1,0,0:0:0:0:
320,192,89120,1,0,0:0:0:0:
320,192,89291,1,0,0:0:0:0:
64,192,89463,1,0,0:0:0:0:
448,192,89463,1,2,0:0:0:0:
320,192,89634,1,8,0:0:0:0:
448,192,89634,1,0,0:0:0:0:
64,192,89634,1,0,0:0:0:0:
192,192,89806,1,0,0:0:0:0:
192,192,89977,1,0,0:0:0:0:
320,192,90149,1,0,0:0:0:0:
64,192,90149,1,2,0:0:0:0:
320,192,90320,1,8,0:0:0:0:
448,192,90320,1,0,0:0:0:0:
64,192,90320,1,0,0:0:0:0:
192,192,90491,1,0,0:0:0:0:
64,192,90663,1,0,0:0:0:0:
448,192,90663,1,2,0:0:0:0:
320,192,90834,1,0,0:0:0:0:
192,192,91006,1,8,0:0:0:0:
64,192,91006,1,0,0:0:0:0:
448,192,91006,1,0,0:0:0:0:
320,192,91177,1,0,0:0:0:0:
320,192,91349,1,0,0:0:0:0:
448,192,91520,1,2,0:0:0:0:
192,192,91520,1,0,0:0:0:0:
320,192,91691,1,0,0:0:0:0:
192,192,91691,1,8,0:0:0:0:
448,192,91691,1,0,0:0:0:0:
64,192,91863,1,0,0:0:0:0:
64,192,92034,1,0,0:0:0:0:
320,192,92206,5,2,0:0:0:0:
448,192,92206,1,0,0:0:0:0:
64,192,92377,1,0,0:0:0:0:
448,192,92377,1,0,0:0:0:0:
320,192,92377,1,8,0:0:0:0:
192,192,92549,1,0,0:0:0:0:
192,192,92720,1,0,0:0:0:0:
64,192,92891,1,0,0:0:0:0:
320,192,92891,1,2,0:0:0:0:
320,192,93063,1,0,0:0:0:0:
192,192,93063,1,8,0:0:0:0:
64,192,93063,1,0,0:0:0:0:
448,192,93234,5,0,0:0:0:0:
320,192,93320,1,2,0:0:0:0:
192,192,93363,1,2,0:0:0:0:
64,192,93406,1,4,0:0:0:0:
448,192,93406,1,2,0:0:0:0:
320,192,93577,1,0,0:0:0:0:
192,192,93749,1,0,0:0:0:0:
320,192,93749,1,8,0:0:0:0:
448,192,93749,1,0,0:0:0:0:
64,192,93920,1,0,0:0:0:0:
192,192,94091,1,2,0:0:0:0:
448,192,94091,1,0,0:0:0:0:
320,192,94263,1,0,0:0:0:0:
448,192,94434,1,0,0:0:0:0:
320,192,94434,1,8,0:0:0:0:
64,192,94434,1,0,0:0:0:0:
192,192,94606,1,0,0:0:0:0:
320,192,94777,1,2,0:0:0:0:
64,192,94777,1,0,0:0:0:0:
448,192,94949,1,0,0:0:0:0:
192,192,95120,1,8,0:0:0:0:
448,192,95120,1,0,0:0:0:0:
64,192,95120,1,0,0:0:0:0:
320,192,95291,1,0,0:0:0:0:
192,192,95463,1,2,0:0:0:0:
448,192,95463,1,0,0:0:0:0:
64,192,95634,1,0,0:0:0:0:
448,192,95806,1,0,0:0:0:0:
64,192,95806,1,8,0:0:0:0:
192,192,95806,1,0,0:0:0:0:
320,192,95977,1,0,0:0:0:0:
64,192,96149,1,0,0:0:0:0:
448,192,96149,1,2,0:0:0:0:
192,192,96320,1,0,0:0:0:0:
320,192,96320,1,2,0:0:0:0:
448,192,96491,1,0,0:0:0:0:
64,192,96491,1,8,0:0:0:0:
320,192,96491,1,2,0:0:0:0:
64,192,96663,1,2,0:0:0:0:
448,192,96663,1,0,0:0:0:0:
320,192,96834,1,2,0:0:0:0:
448,192,96834,1,0,0:0:0:0:
64,192,97006,1,2,0:0:0:0:
192,192,97006,1,0,0:0:0:0:
64,192,97177,1,0,0:0:0:0:
448,192,97177,1,2,0:0:0:0:
320,192,97177,1,8,0:0:0:0:
448,192,97349,1,0,0:0:0:0:
192,192,97349,1,2,0:0:0:0:
320,192,97520,1,0,0:0:0:0:
64,192,97520,1,2,0:0:0:0:
64,192,97863,128,0,98377:0:0:0:0:
192,192,98377,1,2,0:0:0:0:
448,192,98377,1,0,0:0:0:0:
320,192,98549,1,8,0:0:0:0:
64,192,98549,1,0,0:0:0:0:
448,192,98549,1,0,0:0:0:0:
64,192,98891,1,8,0:0:0:0:
192,192,98891,1,2,0:0:0:0:
320,192,98891,1,4,0:0:0:0:
448,192,98891,1,0,0:0:0:0:
